osu file format v9

[General]
AudioFilename: Spiral labyrinth.mp3
AudioLeadIn: 0
PreviewTime: 32070
Countdown: 0
SampleSet: Normal
StackLeniency: 0.7
Mode: 1
LetterboxInBreaks: 0
SkinPreference:taiko

[Editor]
Bookmarks: 6470,19270,32070,57670,67270,73670,86470
DistanceSpacing: 1
BeatDivisor: 4
GridSize: 32

[Metadata]
Title:Spiral labyrinth
Artist:Kurousa-P
Creator:OnosakiHito
Version:Ura Oni
Source:
Tags:aabc271 taiko vocaloid Hatsune Miku

[Difficulty]
HPDrainRate:6
CircleSize:5
OverallDifficulty:7
ApproachRate:5
SliderMultiplier:1.4
SliderTickRate:1

[Events]
//Background and Video events
0,0,"Taiko_BG.png"
//Break Periods
//Storyboard Layer 0 (Background)
//Storyboard Layer 1 (Fail)
//Storyboard Layer 2 (Pass)
//Storyboard Layer 3 (Foreground)
//Storyboard Sound Samples
//Background Colour Transformations
3,100,163,162,255

[TimingPoints]
6470,400,4,1,0,80,1,0
58070,-133.333333333333,4,1,0,80,0,0
66670,-100,4,1,0,80,0,0
70670,-90.9090909090909,4,1,0,80,0,0
73670,-83.3333333333333,4,1,0,80,0,1
86470,-83.3333333333333,4,1,0,80,0,0

[HitObjects]
256,192,4070,1,0
256,192,4270,5,8
256,192,4336,1,8
256,192,4403,1,8
256,192,4670,1,8
256,192,4870,5,0
256,192,5070,5,8
256,192,5136,1,8
256,192,5203,1,8
256,192,5470,1,8
256,192,5670,5,0
256,192,5870,5,8
256,192,5936,1,8
256,192,6003,1,8
256,192,6270,1,8
256,192,6470,5,0
256,192,6570,1,0
256,192,6670,1,0
256,192,6770,5,8
256,192,6870,1,8
256,192,6970,1,8
256,192,7070,1,8
256,192,7170,5,0
256,192,7270,1,0
256,192,7370,1,0
256,192,7470,5,8
256,192,7570,5,0
256,192,7670,1,0
256,192,7770,5,8
256,192,7870,5,0
256,192,7970,1,0
256,192,8070,1,0
256,192,8170,5,8
256,192,8270,1,8
256,192,8370,1,8
256,192,8470,1,8
256,192,8570,5,0
256,192,8670,1,0
256,192,8770,5,8
256,192,8870,5,0
256,192,8970,1,0
256,192,9070,1,0
256,192,9170,5,8
256,192,9270,5,0
256,192,9370,1,0
256,192,9470,1,0
256,192,9570,5,8
256,192,9670,1,8
256,192,9770,1,8
256,192,9870,1,8
256,192,9970,5,0
256,192,10070,5,8
256,192,10170,5,0
256,192,10270,5,8
256,192,10370,5,0
256,192,10470,1,0
256,192,10570,5,8
256,192,10670,5,0
256,192,10770,1,0
256,192,10870,1,0
256,192,10970,5,8
256,192,11070,1,8
256,192,11170,1,8
256,192,11270,5,0
256,192,11370,1,0
256,192,11470,1,0
256,192,11570,1,0
256,192,11670,5,8
256,192,11770,5,0
256,192,11870,1,0
256,192,11970,5,8
256,192,12070,5,0
256,192,12170,1,0
256,192,12270,1,0
256,192,12370,5,8
256,192,12470,1,8
256,192,12570,1,8
256,192,12670,5,0
256,192,12770,5,8
256,192,12870,5,0
256,192,13070,5,8
256,192,13170,5,0
256,192,13370,5,8
256,192,13470,5,0
256,192,13670,1,0
256,192,13870,5,8
256,192,13970,1,8
256,192,14070,5,0
256,192,14270,1,0
256,192,14470,5,8
256,192,14570,5,0
256,192,14670,1,0
256,192,14770,5,8
256,192,14870,5,0
256,192,14970,1,0
256,192,15070,1,0
256,192,15170,5,8
256,192,15270,1,8
256,192,15370,1,8
256,192,15470,1,8
256,192,15570,5,0
256,192,15670,5,8
256,192,15770,5,0
256,192,15870,5,8
256,192,15970,5,0
256,192,16070,1,0
256,192,16170,5,8
256,192,16270,5,0
256,192,16370,1,0
256,192,16470,1,0
256,192,16570,5,8
256,192,16670,1,8
256,192,16770,1,8
256,192,16870,5,0
256,192,16970,5,8
256,192,17070,5,0
256,192,17170,1,0
256,192,17270,5,8
256,192,17370,5,0
256,192,17470,1,0
256,192,17570,5,8
256,192,17670,5,0
256,192,17770,1,0
256,192,17870,1,0
256,192,17970,1,0
256,192,18070,5,8
256,192,18170,1,8
256,192,18270,1,8
256,192,18370,5,0
256,192,18470,5,8
256,192,18570,5,0
256,192,18670,5,8
256,192,18770,5,0
256,192,18870,1,0
256,192,18970,5,8
256,192,19070,5,0
256,192,19270,1,4
256,192,19470,5,8
256,192,19570,5,0
256,192,19770,1,0
256,192,19870,5,8
256,192,20070,5,0
256,192,20270,5,8
256,192,20370,5,0
256,192,20570,1,0
256,192,20670,5,8
256,192,20770,1,8
256,192,20870,5,0
256,192,21070,5,8
256,192,21170,5,0
256,192,21370,1,0
256,192,21470,5,8
256,192,21670,5,0
256,192,21770,1,0
256,192,21870,5,8
256,192,21970,5,0
256,192,22170,1,0
256,192,22270,5,8
256,192,22470,5,0
256,192,22670,5,8
256,192,22770,5,0
256,192,22970,1,0
256,192,23070,5,8
256,192,23270,5,0
256,192,23470,5,8
256,192,23570,1,8
256,192,23770,5,0
256,192,23870,5,8
256,192,23970,1,8
256,192,24070,5,0
256,192,24270,5,8
256,192,24370,1,8
256,192,24570,5,0
256,192,24670,5,8
256,192,24870,5,0
256,192,24970,1,0
256,192,25070,1,0
256,192,25170,5,8
256,192,25270,5,0
256,192,25470,5,8
256,192,25670,5,4
256,192,25870,1,4
256,192,26070,5,8
256,192,26270,1,8
256,192,26370,1,8
256,192,26470,5,0
256,192,26670,1,0
256,192,26870,5,8
256,192,26970,1,8
256,192,27070,1,8
256,192,27170,1,8
256,192,27270,5,0
256,192,27470,5,12
256,192,27670,5,0
256,192,27870,5,8
256,192,27970,1,8
256,192,28070,5,0
256,192,28270,5,8
256,192,28470,1,12
256,192,28670,1,8
256,192,28870,1,8
256,192,28970,5,0
256,192,29070,1,0
256,192,29170,5,8
256,192,29270,5,0
256,192,29370,1,0
256,192,29470,5,8
256,192,29570,1,8
256,192,29670,5,0
256,192,29770,1,0
256,192,29870,1,0
256,192,29970,5,8
256,192,30070,5,0
256,192,30170,1,0
256,192,30270,5,8
256,192,30370,1,8
256,192,30470,5,0
256,192,30603,5,8
256,192,30736,1,8
256,192,30870,5,0
256,192,31003,5,8
256,192,31136,1,8
256,192,31270,5,0
256,192,31403,1,0
256,192,31536,5,8
256,192,31670,5,0
256,192,31803,5,8
256,192,31936,1,8
256,192,32070,5,4
256,192,32470,1,0
256,192,32670,5,8
256,192,32870,5,0
256,192,33170,1,0
256,192,33270,5,8
256,192,33470,1,8
256,192,33670,5,0
256,192,34070,5,8
256,192,34270,1,8
256,192,34370,1,8
256,192,34470,5,0
256,192,34670,1,0
256,192,34770,5,8
256,192,34970,1,8
256,192,35070,5,0
256,192,35270,5,8
256,192,35670,1,8
256,192,35870,1,8
256,192,36070,5,0
256,192,36270,5,8
256,192,36370,1,8
256,192,36470,5,0
256,192,36670,1,0
256,192,36870,5,8
256,192,37070,1,8
256,192,37170,1,8
256,192,37270,1,8
256,192,37370,1,8
256,192,37570,1,8
256,192,37670,1,8
256,192,37870,1,8
256,192,37970,1,8
256,192,38070,1,8
256,192,38270,1,8
256,192,38370,1,8
256,192,38470,5,0
256,192,38670,5,8
256,192,38870,5,0
256,192,38970,5,8
256,192,39070,1,8
256,192,39270,1,8
256,192,39470,1,8
256,192,39570,1,8
256,192,39670,5,0
256,192,39870,1,0
256,192,39970,5,8
256,192,40070,5,0
256,192,40270,5,8
256,192,40470,1,8
256,192,40670,5,0
256,192,40770,1,0
256,192,40870,5,8
256,192,41070,1,8
256,192,41170,1,8
256,192,41270,5,0
256,192,41470,5,8
256,192,41670,5,0
256,192,41770,1,0
256,192,41970,1,0
256,192,42070,1,0
256,192,42170,1,0
256,192,42370,1,0
256,192,42470,5,8
256,192,42670,1,8
256,192,42770,1,8
256,192,42870,5,0
256,192,43070,5,8
256,192,43270,5,0
256,192,43370,1,0
256,192,43570,1,0
256,192,43670,1,0
256,192,43870,5,8
256,192,44070,1,12
256,192,44270,1,12
256,192,44470,1,8
256,192,44570,1,8
256,192,44670,1,8
256,192,44770,1,8
256,192,44870,5,0
256,192,45170,5,8
256,192,45270,5,0
256,192,45470,5,8
256,192,45570,1,8
256,192,45670,5,0
256,192,45770,5,8
256,192,45970,1,8
256,192,46070,5,0
256,192,46270,5,8
256,192,46470,5,0
256,192,46670,5,8
256,192,46770,1,8
256,192,46870,5,0
256,192,46970,5,8
256,192,47070,5,0
256,192,47170,1,0
256,192,47270,5,8
256,192,47370,5,0
256,192,47570,1,0
256,192,47670,5,8
256,192,47870,5,0
256,192,48070,5,8
256,192,48170,5,0
256,192,48370,5,8
256,192,48470,5,0
256,192,48670,5,8
256,192,48870,5,0
256,192,48970,1,0
256,192,49070,5,8
256,192,49170,1,8
256,192,49270,5,0
256,192,49470,5,8
256,192,49670,5,0
256,192,49770,5,8
256,192,49970,1,8
256,192,50070,5,0
256,192,50270,5,8
256,192,50370,1,8
256,192,50470,5,0
256,192,50570,5,8
256,192,50770,1,8
256,192,50870,5,0
256,192,50970,1,0
256,192,51070,5,8
256,192,51270,5,0
256,192,51470,5,8
256,192,51570,1,8
256,192,51670,5,0
256,192,51870,5,8
256,192,52070,5,0
256,192,52170,5,8
256,192,52370,1,8
256,192,52470,5,0
256,192,52670,5,8
256,192,52870,5,0
256,192,52970,1,0
256,192,53070,5,8
256,192,53170,1,8
256,192,53270,5,0
256,192,53370,1,0
256,192,53470,5,8
256,192,53570,5,0
256,192,53670,5,8
256,192,53770,1,8
256,192,53870,5,0
256,192,54070,5,8
256,192,54270,1,8
256,192,54470,5,0
256,192,54770,5,8
256,192,54870,5,0
256,192,55070,5,8
256,192,55170,1,8
256,192,55270,5,0
256,192,55470,5,8
256,192,55670,5,0
256,192,55770,5,8
256,192,55970,1,8
256,192,56070,5,0
256,192,56170,1,0
256,192,56270,5,8
256,192,56470,5,0
256,192,56670,5,8
256,192,56870,5,0
256,192,56970,1,0
256,192,57070,5,8
256,192,57170,1,8
256,192,57270,1,8
256,192,57470,1,8
256,192,57670,5,4
256,192,58070,5,8
256,192,58270,5,0
256,192,58370,5,8
256,192,58470,1,8
256,192,58670,1,8
256,192,58870,1,8
256,192,59070,5,0
256,192,59270,1,0
256,192,59370,1,0
256,192,59470,5,8
256,192,59670,1,8
256,192,59770,1,8
256,192,59870,5,0
256,192,60070,5,8
256,192,60170,1,8
256,192,60270,1,8
256,192,60470,5,0
256,192,60670,5,8
256,192,60870,5,0
256,192,61170,5,8
256,192,61270,1,8
256,192,61470,5,0
256,192,61670,5,8
256,192,62070,1,8
256,192,62270,1,8
256,192,62470,5,0
256,192,62670,5,8
256,192,62970,1,8
256,192,63070,5,0
256,192,63270,5,8
256,192,63470,1,8
256,192,63670,5,0
256,192,64070,1,4
256,192,64270,5,8
256,192,64370,1,8
256,192,64470,1,8
256,192,64670,5,0
256,192,64870,5,8
256,192,65070,1,8
256,192,65170,1,8
256,192,65270,1,8
256,192,65470,1,8
256,192,65670,5,0
256,192,66070,5,8
256,192,66170,1,8
256,192,66270,5,0
256,192,66470,5,8
256,192,66670,5,0
256,192,66770,1,0
256,192,66870,5,8
256,192,66970,5,0
256,192,67070,5,8
256,192,67170,1,8
256,192,67270,5,0
256,192,67470,1,0
256,192,67670,5,8
256,192,67870,1,8
256,192,67970,1,8
256,192,68070,5,0
256,192,68270,5,8
256,192,68670,1,8
256,192,68770,1,8
256,192,68870,5,0
256,192,69070,1,0
256,192,69270,5,8
256,192,69470,5,0
256,192,69570,1,0
256,192,69670,5,8
256,192,69870,5,0
256,192,70070,5,8
256,192,70170,5,0
256,192,70270,5,8
256,192,70370,5,0
256,192,70470,5,8
256,192,70670,5,0
256,192,70770,1,0
256,192,70870,5,8
256,192,71070,1,8
256,192,71270,5,0
256,192,71370,1,0
256,192,71470,5,8
256,192,71570,1,8
256,192,71670,1,8
256,192,71770,1,8
256,192,71870,1,8
256,192,72070,5,4
256,192,72370,5,8
256,192,72670,5,4
256,192,72870,1,4
256,192,73670,1,0
256,192,73770,1,0
256,192,73870,1,0
256,192,73970,1,0
256,192,74070,5,8
256,192,74170,1,8
256,192,74270,1,8
256,192,74370,1,8
256,192,74470,5,0
256,192,74670,5,8
256,192,74770,1,8
256,192,74870,5,0
256,192,74970,1,0
256,192,75070,5,8
256,192,75270,5,0
256,192,75370,5,8
256,192,75470,5,0
256,192,75570,1,0
256,192,75670,5,8
256,192,75870,1,8
256,192,75970,5,0
256,192,76070,5,8
256,192,76170,1,8
256,192,76270,5,0
256,192,76470,5,12
256,192,76770,1,8
256,192,76870,5,0
256,192,77070,1,0
256,192,77136,1,0
256,192,77203,1,0
256,192,77270,5,8
256,192,77470,1,8
256,192,77670,5,0
256,192,77870,1,0
256,192,77936,1,0
256,192,78003,1,0
256,192,78070,5,8
256,192,78270,1,8
256,192,78470,5,0
256,192,78570,1,0
256,192,78670,5,8
256,192,78770,1,8
256,192,78870,5,0
256,192,78970,1,0
256,192,79070,5,8
256,192,79170,5,0
256,192,79270,5,8
256,192,79370,1,8
256,192,79470,5,0
256,192,79570,1,0
256,192,79670,5,8
256,192,79770,5,0
256,192,79870,5,8
256,192,79970,1,8
256,192,80070,5,0
256,192,80270,5,8
256,192,80370,1,8
256,192,80470,5,0
256,192,80570,1,0
256,192,80670,1,0
256,192,80770,1,0
256,192,80870,5,8
256,192,80970,1,8
256,192,81070,1,8
256,192,81170,1,8
256,192,81270,5,0
256,192,81370,5,8
256,192,81470,5,0
256,192,81670,1,0
256,192,81770,5,8
256,192,81970,1,8
256,192,82070,5,0
256,192,82170,5,8
256,192,82270,1,8
256,192,82370,1,8
256,192,82470,5,0
256,192,82670,5,8
256,192,82870,5,4
256,192,83270,5,12
256,192,83470,1,12
256,192,83670,5,0
256,192,83736,1,0
256,192,83803,1,0
256,192,83870,1,0
256,192,84070,5,12
256,192,84270,1,12
256,192,84470,5,0
256,192,84536,1,0
256,192,84603,1,0
256,192,84670,1,0
256,192,84870,5,8
256,192,84970,1,8
256,192,85070,5,0
256,192,85170,1,0
256,192,85270,5,8
256,192,85370,5,0
256,192,85470,5,8
256,192,85570,1,8
256,192,85670,5,0
256,192,85770,5,8
256,192,85870,5,0
256,192,85970,5,8
256,192,86070,5,0
256,192,86170,5,8
256,192,86270,5,0
256,192,86370,5,8
256,192,86470,12,0,87270
