osu file format v9

[General]
AudioFilename: Spiral labyrinth.mp3
AudioLeadIn: 0
PreviewTime: 32070
Countdown: 0
SampleSet: Normal
StackLeniency: 0.7
Mode: 1
LetterboxInBreaks: 0
SkinPreference:taiko

[Editor]
Bookmarks: 6470,19270,32070,57680,73680,86470
DistanceSpacing: 0.9
BeatDivisor: 4
GridSize: 4

[Metadata]
Title:Spiral labyrinth
Artist:Kurousa-P
Creator:OnosakiHito
Version:Oni
Source:
Tags:aabc271 taiko vocaloid Hatsune Miku

[Difficulty]
HPDrainRate:6
CircleSize:3
OverallDifficulty:5
ApproachRate:0
SliderMultiplier:1.4
SliderTickRate:1

[Events]
//Background and Video events
0,0,"Taiko_BG.png"
//Break Periods
//Storyboard Layer 0 (Background)
//Storyboard Layer 1 (Fail)
//Storyboard Layer 2 (Pass)
//Storyboard Layer 3 (Foreground)
//Storyboard Sound Samples
//Background Colour Transformations
3,100,163,162,255

[TimingPoints]
6470,400,4,1,0,80,1,0
58070,-133.333333333333,4,1,0,80,0,0
66670,-100,4,1,0,80,0,0
73670,-100,4,1,0,80,0,1
86470,-100,4,1,0,80,0,0

[HitObjects]
256,192,4070,1,4
256,192,4870,1,4
256,192,5670,1,4
256,192,6470,1,0
256,192,6770,5,8
256,192,6870,5,0
256,192,6970,1,0
256,192,7070,5,8
256,192,7270,1,8
256,192,7470,5,0
256,192,7570,5,8
256,192,7770,5,0
256,192,7870,5,8
256,192,8070,5,0
256,192,8270,1,0
256,192,8370,5,8
256,192,8470,1,8
256,192,8570,5,0
256,192,8870,5,8
256,192,9070,5,0
256,192,9170,5,8
256,192,9370,1,8
256,192,9470,5,0
256,192,9570,1,0
256,192,9670,5,8
256,192,9870,1,8
256,192,10070,1,8
256,192,10170,1,8
256,192,10270,5,0
256,192,10370,5,8
256,192,10570,1,8
256,192,10870,5,0
256,192,11070,5,8
256,192,11170,5,0
256,192,11270,1,0
256,192,11370,5,8
256,192,11670,1,8
256,192,11970,1,8
256,192,12170,5,0
256,192,12270,1,0
256,192,12370,5,8
256,192,12470,1,8
256,192,12670,1,8
256,192,12870,5,4
256,192,13270,1,0
256,192,13670,1,0
256,192,13870,5,8
256,192,13970,1,8
256,192,14070,5,0
256,192,14270,5,8
256,192,14470,5,0
256,192,14770,5,8
256,192,14870,5,0
256,192,14970,1,0
256,192,15070,5,8
256,192,15270,5,0
256,192,15570,5,8
256,192,15670,5,0
256,192,15870,5,8
256,192,16070,5,0
256,192,16170,5,8
256,192,16470,5,0
256,192,16670,5,8
256,192,16770,5,0
256,192,16870,1,0
256,192,16970,5,8
256,192,17170,5,0
256,192,17270,5,8
256,192,17570,1,8
256,192,17670,5,0
256,192,17870,1,0
256,192,18070,1,0
256,192,18170,5,8
256,192,18270,1,8
256,192,18470,5,0
256,192,18570,1,0
256,192,18670,1,0
256,192,18770,1,0
256,192,18870,5,8
256,192,19070,1,8
256,192,19270,5,4
256,192,19670,1,0
256,192,20070,1,0
256,192,20470,1,0
256,192,20670,5,8
256,192,20770,1,8
256,192,20870,5,0
256,192,21270,1,0
256,192,21670,5,8
256,192,21970,5,0
256,192,22070,5,8
256,192,22270,1,8
256,192,22470,5,0
256,192,22870,1,0
256,192,23270,1,0
256,192,23670,1,0
256,192,23870,5,8
256,192,23970,1,8
256,192,24070,5,0
256,192,24470,1,0
256,192,24870,1,0
256,192,24970,5,8
256,192,25170,1,8
256,192,25270,5,0
256,192,25470,5,8
256,192,25670,5,4
256,192,25870,1,4
256,192,26270,5,8
256,192,26470,5,0
256,192,26870,5,12
256,192,27070,1,8
256,192,27170,1,8
256,192,27270,5,0
256,192,27470,5,12
256,192,27870,1,8
256,192,28070,5,0
256,192,28470,5,12
256,192,28870,1,8
256,192,28970,1,8
256,192,29070,1,8
256,192,29170,1,8
256,192,29370,1,8
256,192,29470,1,8
256,192,29670,1,8
256,192,29770,1,8
256,192,29870,1,8
256,192,29970,1,8
256,192,30170,1,8
256,192,30270,1,8
256,192,30470,5,4
256,192,30870,5,12
256,192,31270,5,4
256,192,31670,5,12
256,192,32070,5,4
256,192,32470,5,8
256,192,32670,1,8
256,192,32770,1,8
256,192,32870,5,0
256,192,33070,5,8
256,192,33270,1,8
256,192,33670,5,0
256,192,34070,5,8
256,192,34270,1,8
256,192,34370,1,8
256,192,34470,5,0
256,192,34670,1,0
256,192,34870,5,8
256,192,35070,1,8
256,192,35270,5,0
256,192,35670,5,8
256,192,36070,5,0
256,192,36170,5,8
256,192,36370,1,8
256,192,36470,5,0
256,192,36670,5,8
256,192,36870,5,4
256,192,37670,5,12
256,192,37870,5,0
256,192,37970,1,0
256,192,38070,5,8
256,192,38170,1,8
256,192,38270,1,8
256,192,38470,5,4
256,192,38870,5,8
256,192,39270,5,0
256,192,39370,5,8
256,192,39570,1,8
256,192,39670,1,8
256,192,39870,1,8
256,192,40070,5,0
256,192,40470,5,8
256,192,40670,1,8
256,192,40870,5,0
256,192,41070,5,8
256,192,41270,5,0
256,192,41470,1,0
256,192,41670,1,4
256,192,42270,5,8
256,192,42370,1,8
256,192,42470,5,0
256,192,42670,5,8
256,192,42870,1,8
256,192,43270,5,0
256,192,43670,1,0
256,192,44070,5,12
256,192,44270,1,12
256,192,44470,1,8
256,192,44570,1,8
256,192,44670,1,8
256,192,44770,1,8
256,192,44870,5,0
256,192,45270,1,0
256,192,45470,5,8
256,192,45570,1,8
256,192,45670,5,0
256,192,45970,5,8
256,192,46070,5,0
256,192,46270,5,8
256,192,46470,5,0
256,192,46870,1,0
256,192,47070,5,8
256,192,47170,1,8
256,192,47270,5,0
256,192,47570,5,8
256,192,47670,5,0
256,192,47870,5,8
256,192,48070,5,0
256,192,48470,1,0
256,192,48670,5,8
256,192,48870,5,0
256,192,49270,1,0
256,192,49470,5,8
256,192,49570,1,8
256,192,49670,5,0
256,192,50070,1,0
256,192,50270,5,8
256,192,50470,5,0
256,192,50870,5,8
256,192,50970,1,8
256,192,51070,1,8
256,192,51170,1,8
256,192,51270,5,0
256,192,51670,1,0
256,192,52070,1,0
256,192,52170,5,8
256,192,52370,1,8
256,192,52470,5,0
256,192,52670,5,8
256,192,52870,5,0
256,192,53270,1,0
256,192,53470,5,8
256,192,53570,1,8
256,192,53670,5,0
256,192,53870,5,8
256,192,53970,1,8
256,192,54070,5,0
256,192,54270,5,8
256,192,54470,5,0
256,192,54870,1,0
256,192,55070,5,8
256,192,55170,1,8
256,192,55270,5,0
256,192,55370,1,0
256,192,55470,5,8
256,192,55670,5,0
256,192,55870,5,8
256,192,56070,5,4
256,192,56470,5,8
256,192,56870,1,8
256,192,56970,5,0
256,192,57070,1,0
256,192,57170,1,0
256,192,57270,5,8
256,192,57470,1,8
256,192,57670,5,4
256,192,58270,1,0
256,192,59070,1,0
256,192,59270,1,0
256,192,59670,5,8
256,192,59870,5,0
256,192,60470,1,0
256,192,60870,1,0
256,192,61470,1,0
256,192,62270,1,0
256,192,62470,1,0
256,192,63070,1,0
256,192,63470,5,8
256,192,63670,5,0
256,192,63870,1,0
256,192,64070,1,0
256,192,64670,1,0
256,192,65470,1,0
256,192,65670,1,0
256,192,66270,1,0
256,192,66670,1,0
256,192,66770,1,0
256,192,66870,5,8
256,192,66970,1,8
256,192,67070,1,8
256,192,67170,1,8
256,192,67270,5,0
256,192,67470,1,0
256,192,68070,1,0
256,192,68470,5,8
256,192,68870,5,0
256,192,69070,1,0
256,192,69270,5,8
256,192,69470,1,8
256,192,69670,5,0
256,192,70070,5,8
256,192,70170,1,8
256,192,70270,1,8
256,192,70370,1,8
256,192,70470,5,0
256,192,70870,5,8
256,192,71070,1,8
256,192,71270,5,0
256,192,71370,1,0
256,192,71470,1,0
256,192,71570,1,0
256,192,71670,5,8
256,192,71770,1,8
256,192,71870,1,8
256,192,72070,5,4
256,192,72370,1,4
256,192,72670,5,12
256,192,72870,1,12
256,192,73270,1,8
256,192,73470,1,8
256,192,73670,5,4
256,192,73870,5,8
256,192,73970,1,8
256,192,74070,5,0
256,192,74170,5,8
256,192,74370,1,8
256,192,74470,5,0
256,192,74670,5,8
256,192,74870,5,0
256,192,74970,1,0
256,192,75070,5,8
256,192,75170,1,8
256,192,75270,5,0
256,192,75470,5,8
256,192,75670,5,0
256,192,75770,5,8
256,192,75870,1,8
256,192,76070,5,0
256,192,76270,5,8
256,192,76470,5,0
256,192,76870,1,0
256,192,76970,1,0
256,192,77070,5,8
256,192,77170,1,8
256,192,77270,5,0
256,192,77470,5,8
256,192,77670,5,0
256,192,77770,1,0
256,192,77870,5,8
256,192,77970,1,8
256,192,78070,5,0
256,192,78270,5,8
256,192,78470,5,0
256,192,78570,5,8
256,192,78770,1,8
256,192,78870,5,0
256,192,79070,5,8
256,192,79170,1,8
256,192,79270,5,0
256,192,79370,1,0
256,192,79470,5,8
256,192,79570,1,8
256,192,79670,1,8
256,192,79770,1,8
256,192,79870,1,8
256,192,80070,5,4
256,192,80270,5,8
256,192,80370,1,8
256,192,80470,5,0
256,192,80570,5,8
256,192,80770,1,8
256,192,80870,5,0
256,192,80970,5,8
256,192,81170,1,8
256,192,81270,5,0
256,192,81370,1,0
256,192,81470,5,8
256,192,81670,5,0
256,192,81770,1,0
256,192,81870,1,0
256,192,81970,1,0
256,192,82070,5,8
256,192,82270,1,8
256,192,82370,5,0
256,192,82470,5,8
256,192,82670,1,8
256,192,82870,5,0
256,192,83270,1,4
256,192,83470,5,8
256,192,83570,1,8
256,192,83670,5,0
256,192,83870,5,8
256,192,84070,5,0
256,192,84170,1,0
256,192,84270,5,8
256,192,84470,5,0
256,192,84670,5,8
256,192,84870,5,4
256,192,85070,5,8
256,192,85170,1,8
256,192,85270,5,0
256,192,85370,1,0
256,192,85470,5,8
256,192,85670,1,8
256,192,85770,1,8
256,192,85870,1,8
256,192,85970,1,8
256,192,86070,1,8
256,192,86170,1,8
256,192,86270,1,8
256,192,86470,5,4
