osu file format v9

[General]
AudioFilename: Spiral labyrinth.mp3
AudioLeadIn: 0
PreviewTime: 32070
Countdown: 0
SampleSet: Normal
StackLeniency: 0.7
Mode: 1
LetterboxInBreaks: 0
SkinPreference:taiko

[Editor]
Bookmarks: 6470,19270,32070,57680,73680,86470
DistanceSpacing: 0.8
BeatDivisor: 4
GridSize: 32

[Metadata]
Title:Spiral labyrinth
Artist:Kurousa-P
Creator:OnosakiHito
Version:Muzukashii
Source:
Tags:aabc271 taiko vocaloid Hatsune Miku

[Difficulty]
HPDrainRate:5
CircleSize:3
OverallDifficulty:5
ApproachRate:0
SliderMultiplier:1.4
SliderTickRate:1

[Events]
//Background and Video events
0,0,"Taiko_BG.png"
//Break Periods
//Storyboard Layer 0 (Background)
//Storyboard Layer 1 (Fail)
//Storyboard Layer 2 (Pass)
//Storyboard Layer 3 (Foreground)
//Storyboard Sound Samples
//Background Colour Transformations
3,100,163,162,255

[TimingPoints]
6470,400,4,1,0,80,1,0
73670,-100,4,1,0,80,0,1
86470,-100,4,1,0,80,0,0

[HitObjects]
256,192,4070,1,0
256,192,4870,1,0
256,192,5670,1,0
256,192,6470,1,4
256,192,6870,1,0
256,192,6970,1,0
256,192,7070,1,0
256,192,7470,5,8
256,192,7770,1,8
256,192,8070,5,0
256,192,8170,1,0
256,192,8270,1,0
256,192,8470,1,0
256,192,8870,5,8
256,192,9170,1,8
256,192,9470,5,0
256,192,9670,1,0
256,192,9770,1,0
256,192,9870,1,0
256,192,10270,5,8
256,192,10570,1,8
256,192,10870,5,0
256,192,10970,1,0
256,192,11070,1,0
256,192,11170,1,0
256,192,11270,1,0
256,192,11670,5,8
256,192,11970,1,8
256,192,12270,5,0
256,192,12470,1,0
256,192,12570,1,0
256,192,12670,1,0
256,192,12870,1,4
256,192,13270,1,0
256,192,13670,1,0
256,192,14070,1,0
256,192,14470,5,8
256,192,14770,1,8
256,192,15070,5,0
256,192,15170,1,0
256,192,15270,1,0
256,192,15670,1,0
256,192,15870,5,8
256,192,16170,1,8
256,192,16470,5,0
256,192,16670,1,0
256,192,16770,1,0
256,192,16870,1,0
256,192,17270,5,8
256,192,17670,6,0,B|96:192|96:192,3,140
256,192,19270,1,4
256,192,19670,1,0
256,192,20070,1,0
256,192,20470,1,0
256,192,20670,1,0
256,192,20770,1,0
256,192,20870,1,0
256,192,21270,1,0
256,192,21670,5,8
256,192,22070,5,0
256,192,22270,5,8
256,192,22470,5,0
256,192,22870,1,0
256,192,23270,1,0
256,192,23670,1,0
256,192,23870,1,0
256,192,23970,1,0
256,192,24070,1,0
256,192,24470,1,0
256,192,24870,1,0
256,192,24970,1,0
256,192,25070,1,0
256,192,25270,5,8
256,192,25370,1,8
256,192,25470,1,8
256,192,25670,5,4
256,192,25870,1,4
256,192,26870,5,8
256,192,26970,1,8
256,192,27070,1,8
256,192,27170,1,8
256,192,27270,1,8
256,192,27470,1,12
256,192,28070,5,0
256,192,28470,5,12
256,192,28870,5,0
256,192,29070,1,0
256,192,29270,5,8
256,192,29470,1,8
256,192,29670,5,0
256,192,29770,1,0
256,192,29870,1,0
256,192,30070,5,8
256,192,30170,1,8
256,192,30270,1,8
256,192,30470,5,0
256,192,30670,5,8
256,192,30870,5,0
256,192,31070,5,8
256,192,31270,5,0
256,192,31470,5,8
256,192,31670,5,0
256,192,31870,5,8
256,192,32070,5,4
256,192,33670,1,4
256,192,35270,1,4
256,192,36870,1,4
256,192,37670,1,0
256,192,38070,5,8
256,192,38470,5,4
256,192,38870,5,8
256,192,39270,5,0
256,192,39470,1,0
256,192,39670,5,8
256,192,40070,5,4
256,192,40470,5,8
256,192,40670,1,8
256,192,40870,5,0
256,192,41270,5,8
256,192,41670,5,4
256,192,42070,5,8
256,192,42270,1,8
256,192,42470,5,0
256,192,42870,5,8
256,192,43270,5,4
256,192,43670,1,4
256,192,44070,5,8
256,192,44270,1,8
256,192,44470,1,8
256,192,44570,1,8
256,192,44670,1,8
256,192,44870,5,0
256,192,45270,1,0
256,192,45670,1,0
256,192,46070,5,8
256,192,46270,1,8
256,192,46470,5,0
256,192,46870,1,0
256,192,47270,1,0
256,192,47670,5,8
256,192,47870,1,8
256,192,48070,5,0
256,192,48470,1,0
256,192,48870,1,0
256,192,49270,5,8
256,192,49470,5,0
256,192,49570,1,0
256,192,49670,1,0
256,192,50070,1,0
256,192,50470,5,8
256,192,50870,1,8
256,192,51270,5,0
256,192,51670,1,0
256,192,51870,5,8
256,192,52070,5,0
256,192,52470,5,8
256,192,52670,1,8
256,192,52870,5,0
256,192,52970,1,0
256,192,53070,1,0
256,192,53270,1,0
256,192,53670,1,0
256,192,54070,5,8
256,192,54170,1,8
256,192,54270,1,8
256,192,54470,5,0
256,192,54870,1,0
256,192,55070,1,0
256,192,55170,1,0
256,192,55270,1,0
256,192,55670,5,8
256,192,56070,5,0
256,192,56470,5,8
256,192,56870,5,0
256,192,57070,5,8
256,192,57170,1,8
256,192,57270,1,8
256,192,57470,1,8
256,192,57670,5,4
256,192,58270,1,0
256,192,59270,1,0
256,192,59870,1,0
256,192,60870,1,0
256,192,61470,1,0
256,192,62470,1,0
256,192,63070,1,0
256,192,63670,1,0
256,192,64070,1,0
256,192,64670,1,0
256,192,65470,1,0
256,192,65670,1,0
256,192,66270,1,0
256,192,66670,5,8
256,192,66770,1,8
256,192,66870,1,8
256,192,67070,1,8
256,192,67270,5,0
256,192,67470,1,0
256,192,68070,1,0
256,192,68470,5,8
256,192,68870,5,0
256,192,69070,1,0
256,192,69270,5,8
256,192,69670,5,0
256,192,70070,5,8
256,192,70170,1,8
256,192,70270,1,8
256,192,70370,1,8
256,192,70470,1,8
256,192,70870,5,0
256,192,71270,5,8
256,192,71370,1,8
256,192,71470,1,8
256,192,71570,1,8
256,192,71670,1,8
256,192,71870,1,8
256,192,72070,5,4
256,192,72370,1,4
256,192,72670,5,12
256,192,72870,1,12
256,192,73670,5,0
256,192,73870,5,8
256,192,74070,5,0
256,192,74270,5,8
256,192,74470,5,0
256,192,74570,1,0
256,192,74670,1,0
256,192,74870,5,8
256,192,74970,1,8
256,192,75070,1,8
256,192,75270,5,4
256,192,75670,5,12
256,192,76070,5,0
256,192,76270,1,0
256,192,76470,5,8
256,192,76870,5,0
256,192,77070,5,8
256,192,77270,1,8
256,192,77670,5,0
256,192,77870,1,0
256,192,78070,5,8
256,192,78470,5,0
256,192,78670,1,0
256,192,78870,5,8
256,192,79070,1,8
256,192,79170,1,8
256,192,79270,1,8
256,192,79470,1,8
256,192,79670,5,0
256,192,80070,1,4
256,192,80470,5,12
256,192,80870,5,4
256,192,81270,5,12
256,192,81670,5,0
256,192,81870,5,8
256,192,82070,5,0
256,192,82270,5,8
256,192,82370,1,8
256,192,82470,1,8
256,192,82670,1,8
256,192,82870,5,0
256,192,83270,1,4
256,192,83470,1,0
256,192,83670,5,8
256,192,84070,5,0
256,192,84270,5,8
256,192,84470,1,8
256,192,84870,1,8
256,192,85070,1,8
256,192,85270,5,0
256,192,85470,5,8
256,192,85670,2,8,B|96:192|96:192,2,140
