osu file format v9

[General]
AudioFilename: Spiral labyrinth.mp3
AudioLeadIn: 0
PreviewTime: 32070
Countdown: 0
SampleSet: Normal
StackLeniency: 0.7
Mode: 1
LetterboxInBreaks: 0
SkinPreference:taiko

[Editor]
Bookmarks: 6470,19270,32070,57680,73680,86470
DistanceSpacing: 0.8
BeatDivisor: 2
GridSize: 32

[Metadata]
Title:Spiral labyrinth
Artist:Kurousa-P
Creator:OnosakiHito
Version:Kantan
Source:
Tags:aabc271 taiko vocaloid Hatsune Miku

[Difficulty]
HPDrainRate:3
CircleSize:3
OverallDifficulty:4
ApproachRate:0
SliderMultiplier:1.4
SliderTickRate:1

[Events]
//Background and Video events
0,0,"Taiko_BG.png"
//Break Periods
//Storyboard Layer 0 (Background)
//Storyboard Layer 1 (Fail)
//Storyboard Layer 2 (Pass)
//Storyboard Layer 3 (Foreground)
//Storyboard Sound Samples
//Background Colour Transformations
3,100,163,162,255

[TimingPoints]
6470,400,4,1,0,80,1,0
73670,-100,4,1,0,80,0,1
86470,-100,4,1,0,80,0,0

[HitObjects]
256,192,6470,1,4
256,192,8070,1,0
256,192,9670,1,0
256,192,11270,1,0
256,192,12870,1,4
256,192,13670,1,0
256,192,14470,1,0
256,192,15270,1,0
256,192,16070,1,0
256,192,16870,1,0
256,192,17670,1,0
256,192,18070,1,0
256,192,18870,5,8
256,192,19270,5,4
256,192,20870,1,0
256,192,22470,1,0
256,192,24070,1,4
256,192,25670,5,12
256,192,27270,1,8
256,192,28870,5,0
256,192,29670,5,8
256,192,30470,5,0
256,192,30870,1,0
256,192,31670,5,8
256,192,32070,5,4
256,192,33670,1,0
256,192,34870,5,8
256,192,35270,5,0
256,192,36870,1,0
256,192,37670,1,0
256,192,38470,1,0
256,192,39670,5,8
256,192,40070,5,0
256,192,41670,1,0
256,192,42470,1,0
256,192,43270,1,0
256,192,43670,1,0
256,192,44470,5,8
256,192,44870,5,0
256,192,45670,1,0
256,192,46470,1,0
256,192,47270,1,0
256,192,47670,5,8
256,192,48070,5,0
256,192,49670,1,0
256,192,50470,1,0
256,192,50870,5,8
256,192,51270,5,0
256,192,52070,1,0
256,192,52870,1,0
256,192,53670,1,0
256,192,54470,1,0
256,192,55270,1,0
256,192,56070,5,8
256,192,56470,1,8
256,192,57270,1,8
256,192,57670,5,4
256,192,59270,1,0
256,192,60870,1,0
256,192,62470,1,0
256,192,64070,1,0
256,192,65670,1,0
256,192,67270,5,8
256,192,68070,1,8
256,192,68870,1,8
256,192,70470,5,0
256,192,71270,1,0
256,192,72070,5,12
256,192,72870,1,12
256,192,73670,5,0
256,192,74470,5,8
256,192,75270,5,0
256,192,76070,1,0
256,192,76870,1,0
256,192,77270,1,0
256,192,77670,5,8
256,192,78470,5,0
256,192,79270,1,0
256,192,80070,1,0
256,192,80870,5,8
256,192,81670,5,0
256,192,82470,1,0
256,192,82870,1,0
256,192,83270,1,0
256,192,84070,5,8
256,192,84870,5,0
256,192,85670,1,0
256,192,86470,5,12
