osu file format v9

[General]
AudioFilename: Spiral labyrinth.mp3
AudioLeadIn: 0
PreviewTime: 32070
Countdown: 0
SampleSet: Normal
StackLeniency: 0.7
Mode: 1
LetterboxInBreaks: 0
SkinPreference:taiko

[Editor]
Bookmarks: 6470,19270,32070,57680,73680,86470
DistanceSpacing: 0.8
BeatDivisor: 4
GridSize: 32

[Metadata]
Title:Spiral labyrinth
Artist:Kurousa-P
Creator:OnosakiHito
Version:Inner Oni
Source:
Tags:aabc271 taiko vocaloid Hatsune Miku

[Difficulty]
HPDrainRate:6
CircleSize:4
OverallDifficulty:6
ApproachRate:2
SliderMultiplier:1.4
SliderTickRate:1

[Events]
//Background and Video events
0,0,"Taiko_BG.png"
//Break Periods
//Storyboard Layer 0 (Background)
//Storyboard Layer 1 (Fail)
//Storyboard Layer 2 (Pass)
//Storyboard Layer 3 (Foreground)
//Storyboard Sound Samples
//Background Colour Transformations
3,100,163,162,255

[TimingPoints]
6470,400,4,1,0,80,1,0
58070,-133.333333333333,4,1,0,80,0,0
66670,-100,4,1,0,80,0,0
73670,-100,4,1,0,80,0,1
86470,-100,4,1,0,80,0,0

[HitObjects]
256,192,4070,1,4
256,192,4870,1,4
256,192,5670,1,4
256,192,6470,1,0
256,192,6570,1,0
256,192,6670,1,0
256,192,6770,1,0
256,192,6870,5,8
256,192,6970,1,8
256,192,7070,1,8
256,192,7170,1,8
256,192,7270,5,0
256,192,7370,1,0
256,192,7470,5,8
256,192,7570,1,8
256,192,7770,1,8
256,192,7870,1,8
256,192,8070,1,8
256,192,8170,1,8
256,192,8270,1,8
256,192,8370,1,8
256,192,8470,5,0
256,192,8570,1,0
256,192,8670,1,0
256,192,8770,1,0
256,192,8870,5,8
256,192,8970,1,8
256,192,9170,1,8
256,192,9270,1,8
256,192,9470,5,0
256,192,9570,1,0
256,192,9670,5,8
256,192,9770,1,8
256,192,9870,1,8
256,192,9970,1,8
256,192,10070,5,0
256,192,10270,5,8
256,192,10470,1,8
256,192,10570,1,8
256,192,10870,5,0
256,192,10970,1,0
256,192,11070,1,0
256,192,11170,1,0
256,192,11270,5,8
256,192,11370,1,8
256,192,11470,5,0
256,192,11570,1,0
256,192,11670,5,8
256,192,11770,1,8
256,192,11970,1,8
256,192,12070,1,8
256,192,12270,5,0
256,192,12370,1,0
256,192,12470,5,8
256,192,12570,1,8
256,192,12670,1,8
256,192,12870,5,4
256,192,13270,1,0
256,192,13670,1,0
256,192,13770,5,8
256,192,13970,1,8
256,192,14070,5,0
256,192,14270,5,8
256,192,14470,1,8
256,192,14570,5,0
256,192,14770,5,8
256,192,14870,5,0
256,192,14970,1,0
256,192,15070,1,0
256,192,15170,1,0
256,192,15270,5,8
256,192,15370,1,8
256,192,15470,5,0
256,192,15570,1,0
256,192,15670,1,0
256,192,15770,1,0
256,192,15870,5,8
256,192,15970,1,8
256,192,16170,1,8
256,192,16270,1,8
256,192,16470,5,0
256,192,16570,1,0
256,192,16670,1,0
256,192,16770,1,0
256,192,16870,5,8
256,192,16970,1,8
256,192,17070,5,0
256,192,17170,1,0
256,192,17270,5,8
256,192,17370,1,8
256,192,17570,1,8
256,192,17670,1,8
256,192,17770,1,8
256,192,17870,1,8
256,192,17970,1,8
256,192,18070,1,8
256,192,18170,1,8
256,192,18270,1,8
256,192,18370,1,8
256,192,18470,1,8
256,192,18570,1,8
256,192,18670,1,8
256,192,18770,1,8
256,192,18870,1,8
256,192,18970,1,8
256,192,19070,1,8
256,192,19270,1,12
256,192,19670,5,0
256,192,19870,5,8
256,192,20070,5,0
256,192,20470,1,0
256,192,20670,5,8
256,192,20770,1,8
256,192,20870,5,0
256,192,21270,1,0
256,192,21470,5,8
256,192,21670,5,0
256,192,21870,5,8
256,192,21970,1,8
256,192,22070,5,0
256,192,22270,5,8
256,192,22470,5,0
256,192,22870,1,0
256,192,23270,1,0
256,192,23670,1,0
256,192,23870,5,8
256,192,23970,1,8
256,192,24070,5,0
256,192,24270,5,8
256,192,24470,5,0
256,192,24670,5,8
256,192,24870,5,0
256,192,24970,1,0
256,192,25070,5,8
256,192,25170,1,8
256,192,25270,5,0
256,192,25470,1,0
256,192,25670,5,12
256,192,25870,1,12
256,192,26270,5,0
256,192,26370,1,0
256,192,26470,5,8
256,192,26670,1,8
256,192,26870,1,8
256,192,26970,1,8
256,192,27070,1,8
256,192,27170,1,8
256,192,27270,5,0
256,192,27470,5,12
256,192,27870,1,8
256,192,28070,5,0
256,192,28270,5,8
256,192,28470,1,12
256,192,28870,5,0
256,192,28970,1,0
256,192,29070,1,0
256,192,29170,1,0
256,192,29270,1,0
256,192,29370,1,0
256,192,29470,1,0
256,192,29570,1,0
256,192,29670,1,0
256,192,29770,1,0
256,192,29870,1,0
256,192,29970,1,0
256,192,30070,1,0
256,192,30170,1,0
256,192,30270,1,0
256,192,30370,1,0
256,192,30470,5,8
256,192,30603,1,8
256,192,30736,1,8
256,192,30870,5,0
256,192,31003,5,8
256,192,31136,1,8
256,192,31270,5,0
256,192,31403,1,0
256,192,31536,5,8
256,192,31670,5,0
256,192,31803,5,8
256,192,31936,1,8
256,192,32070,5,4
256,192,32470,5,8
256,192,32570,1,8
256,192,32670,5,0
256,192,32870,5,8
256,192,33070,1,8
256,192,33170,1,8
256,192,33270,5,0
256,192,33470,1,0
256,192,33570,5,8
256,192,33670,5,0
256,192,33870,5,8
256,192,34070,1,8
256,192,34270,5,0
256,192,34370,1,0
256,192,34470,5,8
256,192,34670,1,8
256,192,34870,5,0
256,192,35070,1,0
256,192,35170,5,8
256,192,35270,5,0
256,192,35670,5,8
256,192,35870,1,8
256,192,36070,5,0
256,192,36270,5,8
256,192,36370,1,8
256,192,36470,5,0
256,192,36670,5,8
256,192,36870,5,0
256,192,36970,5,8
256,192,37070,5,0
256,192,37270,5,8
256,192,37470,5,0
256,192,37570,5,8
256,192,37670,5,0
256,192,37870,1,0
256,192,38070,5,8
256,192,38270,1,8
256,192,38470,5,4
256,192,38870,5,8
256,192,39070,5,0
256,192,39270,5,8
256,192,39470,5,0
256,192,39670,5,8
256,192,39870,5,0
256,192,39970,5,8
256,192,40070,5,0
256,192,40270,5,8
256,192,40470,1,8
256,192,40670,5,0
256,192,40770,1,0
256,192,40870,5,8
256,192,41070,1,8
256,192,41170,1,8
256,192,41270,5,0
256,192,41470,5,8
256,192,41670,5,0
256,192,42070,5,8
256,192,42270,5,0
256,192,42370,5,8
256,192,42470,5,0
256,192,42670,1,0
256,192,42870,5,8
256,192,43070,1,8
256,192,43270,5,0
256,192,43470,5,8
256,192,43670,5,0
256,192,43870,5,8
256,192,44070,1,12
256,192,44270,5,4
256,192,44470,5,8
256,192,44570,1,8
256,192,44670,1,8
256,192,44770,1,8
256,192,44870,5,0
256,192,45070,5,8
256,192,45270,5,0
256,192,45470,5,8
256,192,45570,1,8
256,192,45670,5,0
256,192,45870,5,8
256,192,46070,5,0
256,192,46170,1,0
256,192,46270,5,8
256,192,46370,1,8
256,192,46470,5,0
256,192,46670,5,8
256,192,46870,5,0
256,192,47070,5,8
256,192,47170,1,8
256,192,47270,5,0
256,192,47470,5,8
256,192,47670,5,0
256,192,47870,5,8
256,192,48070,5,0
256,192,48270,5,8
256,192,48370,1,8
256,192,48470,5,0
256,192,48670,5,8
256,192,48870,5,0
256,192,48970,1,0
256,192,49170,5,8
256,192,49270,1,8
256,192,49470,1,8
256,192,49670,5,0
256,192,49770,1,0
256,192,49870,5,8
256,192,50070,5,0
256,192,50270,5,8
256,192,50370,1,8
256,192,50470,5,0
256,192,50670,5,8
256,192,50870,5,4
256,192,51270,1,4
256,192,51470,5,8
256,192,51670,5,0
256,192,51870,5,8
256,192,51970,1,8
256,192,52070,5,0
256,192,52170,5,8
256,192,52370,1,8
256,192,52470,5,0
256,192,52670,5,8
256,192,52870,5,0
256,192,52970,5,8
256,192,53170,1,8
256,192,53270,5,0
256,192,53470,5,8
256,192,53670,1,8
256,192,53770,1,8
256,192,54070,5,4
256,192,54270,5,12
256,192,54470,5,0
256,192,54570,1,0
256,192,54670,5,8
256,192,54870,5,0
256,192,55070,5,8
256,192,55170,1,8
256,192,55270,5,0
256,192,55470,5,8
256,192,55670,5,0
256,192,55870,5,8
256,192,56070,6,0,B|128:192,2,106
256,192,56870,1,0
256,192,56970,5,8
256,192,57070,1,8
256,192,57170,1,8
256,192,57270,5,0
256,192,57470,5,8
256,192,57670,5,4
256,192,58270,1,0
256,192,58470,5,8
256,192,58770,1,8
256,192,59070,1,8
256,192,59270,5,0
256,192,59470,5,8
256,192,59870,5,0
256,192,60070,5,8
256,192,60470,1,8
256,192,60870,5,0
256,192,61470,1,0
256,192,61670,5,8
256,192,62470,5,0
256,192,62670,5,8
256,192,63070,5,0
256,192,63270,5,8
256,192,63470,1,8
256,192,63670,5,0
256,192,64070,5,8
256,192,64670,5,0
256,192,64870,5,8
256,192,65270,1,8
256,192,65670,5,0
256,192,66270,1,0
256,192,66670,5,8
256,192,66770,1,8
256,192,66870,1,8
256,192,66970,5,0
256,192,67070,5,8
256,192,67170,1,8
256,192,67270,5,0
256,192,67470,1,0
256,192,68070,1,0
256,192,68470,5,8
256,192,68870,5,0
256,192,69070,1,0
256,192,69270,5,8
256,192,69670,5,0
256,192,70070,5,8
256,192,70170,1,8
256,192,70270,1,8
256,192,70370,1,8
256,192,70470,5,0
256,192,70870,5,8
256,192,71270,5,0
256,192,71370,1,0
256,192,71470,1,0
256,192,71570,1,0
256,192,71670,5,8
256,192,71770,5,0
256,192,71870,5,8
256,192,72070,5,4
256,192,72370,1,4
256,192,72670,5,12
256,192,72870,1,12
256,192,73270,1,8
256,192,73470,1,8
256,192,73670,5,0
256,192,73770,1,0
256,192,73870,1,0
256,192,73970,1,0
256,192,74070,5,8
256,192,74170,1,8
256,192,74270,1,8
256,192,74370,1,8
256,192,74470,5,0
256,192,74570,1,0
256,192,74670,1,0
256,192,74770,1,0
256,192,74870,5,8
256,192,74970,1,8
256,192,75070,1,8
256,192,75170,1,8
256,192,75270,5,0
256,192,75470,5,8
256,192,75570,1,8
256,192,75670,5,0
256,192,75870,5,8
256,192,75970,1,8
256,192,76070,5,0
256,192,76170,1,0
256,192,76270,5,8
256,192,76470,5,4
256,192,76870,1,0
256,192,77070,5,8
256,192,77170,5,0
256,192,77270,5,8
256,192,77470,5,0
256,192,77670,5,8
256,192,77870,5,0
256,192,77970,5,8
256,192,78070,5,0
256,192,78270,5,8
256,192,78470,5,0
256,192,78570,1,0
256,192,78670,1,0
256,192,78770,5,8
256,192,78870,1,8
256,192,79070,1,8
256,192,79170,1,8
256,192,79270,5,0
256,192,79370,1,0
256,192,79470,5,8
256,192,79570,1,8
256,192,79670,5,0
256,192,79770,5,8
256,192,79870,1,8
256,192,80070,5,4
256,192,80270,5,8
256,192,80370,1,8
256,192,80470,5,0
256,192,80670,5,8
256,192,80870,5,0
256,192,80970,1,0
256,192,81070,5,8
256,192,81170,1,8
256,192,81270,5,0
256,192,81370,1,0
256,192,81470,5,8
256,192,81670,5,4
256,192,82070,1,4
256,192,82270,5,8
256,192,82370,5,0
256,192,82470,1,0
256,192,82670,5,8
256,192,82770,1,8
256,192,82870,5,0
256,192,83070,5,8
256,192,83270,5,4
256,192,83470,5,8
256,192,83570,1,8
256,192,83670,5,0
256,192,83770,1,0
256,192,83870,1,0
256,192,83970,1,0
256,192,84070,5,8
256,192,84270,5,0
256,192,84470,5,8
256,192,84570,1,8
256,192,84670,1,8
256,192,84770,1,8
256,192,84870,5,0
256,192,84970,1,0
256,192,85070,5,8
256,192,85170,1,8
256,192,85270,5,0
256,192,85470,5,8
256,192,85570,1,8
256,192,85670,5,0
256,192,85770,5,8
256,192,85870,5,0
256,192,85970,5,8
256,192,86070,5,0
256,192,86270,5,8
256,192,86470,5,4
