osu file format v12

[General]
AudioFilename: Unchained 1.mp3
AudioLeadIn: 0
PreviewTime: 67584
Countdown: 0
SampleSet: Soft
StackLeniency: 0.3
Mode: 0
LetterboxInBreaks: 0
WidescreenStoryboard: 0

[Editor]
DistanceSpacing: 1.4
BeatDivisor: 4
GridSize: 4
TimelineZoom: 1

[Metadata]
Title:unchain.
TitleUnicode:unchain.
Artist:Kurosaki Maon
ArtistUnicode:黒崎真音
Creator:iMage--
Version:Break out!
Source:
Tags:
BeatmapID:413188
BeatmapSetID:170701

[Difficulty]
HPDrainRate:7
CircleSize:4
OverallDifficulty:7
ApproachRate:9
SliderMultiplier:1.7
SliderTickRate:2

[Events]
//Background and Video events
0,0,"unchainBG.jpg",0,0
//Break Periods
2,97449,104649
2,169249,173982
//Storyboard Layer 0 (Background)
//Storyboard Layer 1 (Fail)
//Storyboard Layer 2 (Pass)
//Storyboard Layer 3 (Foreground)
//Storyboard Sound Samples
//Background Colour Transformations
3,100,163,162,255

[TimingPoints]
-82,333.333333333333,4,2,1,30,1,0
6584,-100,4,2,1,40,0,0
9251,-100,4,2,1,50,0,0
10584,-100,4,2,1,60,0,0
11251,-100,4,2,1,5,0,0
11918,-133.333333333333,4,2,2,50,0,0
21917,666.666666666667,4,2,1,30,1,0
21917,-200,4,2,10,30,0,0
22583,333.333333333333,4,2,1,40,1,0
22583,-100,4,2,1,50,0,0
33249,-133.333333333333,4,2,10,40,0,0
33332,-133.333333333333,4,2,1,40,0,0
43916,-100,4,2,1,50,0,0
51916,-100,4,2,5,50,0,0
52249,-100,4,2,1,50,0,0
54582,-100,4,2,1,45,0,0
59916,-100,4,2,1,50,0,0
63249,-200,4,2,1,50,0,0
64916,-100,4,2,1,50,0,0
65249,-100,4,2,1,60,0,0
66749,-100,4,2,1,30,0,0
66832,-100,4,2,1,35,0,0
66916,-100,4,2,1,40,0,0
66999,-100,4,2,1,45,0,0
67082,-100,4,2,1,50,0,0
67166,-100,4,2,1,55,0,0
67249,-100,4,2,1,60,0,0
67332,-100,4,2,1,65,0,0
67416,-100,4,2,1,70,0,0
67499,-100,4,2,1,75,0,0
67582,-100,4,2,1,80,0,0
67916,-100,4,2,1,70,0,1
73082,-100,4,2,1,60,0,1
78499,-100,4,2,1,60,0,0
78582,-100,4,2,1,70,0,1
83749,-100,4,2,5,70,0,1
86416,-100,4,2,1,70,0,1
89166,-100,4,2,1,70,0,0
89249,-100,4,2,1,50,0,1
90499,-100,4,2,1,50,0,0
90582,-100,4,2,1,55,0,1
91832,-100,4,2,1,55,0,0
91916,-100,4,2,1,60,0,1
93166,-100,4,2,1,60,0,0
93249,-100,4,2,1,65,0,1
93832,-100,4,2,1,65,0,0
93916,-100,4,2,1,70,0,1
94499,-100,4,2,1,70,0,0
94582,-100,4,2,1,75,0,1
97249,-100,4,2,1,50,0,0
105249,-133.333333333333,4,2,10,40,0,0
105582,-133.333333333333,4,2,3,40,0,0
115916,-100,4,2,5,50,0,0
116249,-100,4,2,1,50,0,0
126582,-100,4,2,1,45,0,0
131916,-100,4,2,1,50,0,0
135249,-200,4,2,1,50,0,0
136582,-200,4,2,2,50,0,0
137249,-100,4,2,1,60,0,0
139249,-100,4,2,10,65,0,0
139916,-100,4,2,1,70,0,1
145082,-100,4,2,1,60,0,1
150499,-100,4,2,1,60,0,0
150582,-100,4,2,1,70,0,1
155749,-100,4,2,5,70,0,1
158582,-100,4,2,1,70,0,1
161166,-100,4,2,1,70,0,0
161249,-100,4,2,1,50,0,1
162499,-100,4,2,1,50,0,0
162582,-100,4,2,1,55,0,1
163832,-100,4,2,1,55,0,0
163916,-100,4,2,1,60,0,1
165166,-100,4,2,1,60,0,0
165249,-100,4,2,1,65,0,1
165832,-100,4,2,1,65,0,0
165916,-100,4,2,1,70,0,1
166499,-100,4,2,1,70,0,0
166582,-100,4,2,1,75,0,1
169249,-100,4,2,1,50,0,0
174582,-100,4,2,2,50,0,0
187916,-100,4,2,1,60,0,0
197416,-200,4,2,1,70,0,0
198249,666.666666666667,4,2,1,30,1,0
198582,666.666666666667,4,2,1,35,1,0
198582,-100,4,2,10,35,0,0
199582,-100,4,2,5,35,0,0
201248,-100,4,2,10,35,0,0
202248,-100,4,2,5,35,0,0
207582,-100,4,2,10,35,0,0
209248,333.333333333333,4,2,1,50,1,0
209248,-133.333333333333,4,2,2,50,0,0
213914,-133.333333333333,4,2,5,50,0,0
214414,-100,4,2,5,50,0,0
214748,-100,4,2,1,50,0,0
216748,-200,4,2,1,50,0,0
217248,-100,4,2,1,50,0,0
219914,-100,4,2,1,60,0,0
232081,-100,4,2,1,40,0,0
232414,-100,4,2,1,45,0,0
232747,-100,4,2,1,50,0,0
233081,-100,4,2,1,55,0,0
233414,-100,4,2,1,60,0,0
233914,-100,4,2,15,70,0,0
234914,-100,4,2,15,10,0,0
235581,666.666666666667,4,2,1,50,1,0
235581,-200,4,2,1,50,0,0
235914,333.333333333333,4,2,1,30,1,0
235914,-83.3333333333333,4,2,1,70,0,1
244247,-71.4285714285714,4,2,1,70,0,1
244580,-62.5,4,2,1,70,0,1
244914,-55.5555555555556,4,2,1,70,0,1
245247,-83.3333333333333,4,2,1,70,0,1
246497,-100,4,2,1,70,0,0
246580,-83.3333333333333,4,2,1,75,0,1
251747,-83.3333333333333,4,2,5,75,0,1
254080,-100,4,2,5,75,0,1
254580,-83.3333333333333,4,2,1,75,0,1
257164,-100,4,2,1,75,0,0
257247,-100,4,2,1,60,0,1
258497,-100,4,2,1,60,0,0
258581,-100,4,2,1,65,0,1
259831,-100,4,2,1,65,0,0
259914,-100,4,2,1,70,0,1
261164,-100,4,2,1,70,0,0
261247,-100,4,2,1,75,0,1
261831,-100,4,2,1,75,0,0
261914,-100,4,2,1,80,0,1
262497,-100,4,2,1,80,0,0
262581,-100,4,2,1,85,0,1
265247,-100,4,2,1,60,0,0
273247,-100,4,2,1,70,0,1
281164,-100,4,2,1,70,0,0
281247,-100,4,2,5,50,0,1
281664,-100,4,2,5,50,0,0
281747,-100,4,2,5,60,0,1
282164,-100,4,2,5,60,0,0
282247,-100,4,2,5,70,0,1
282664,-100,4,2,5,70,0,0
282747,-100,4,2,5,80,0,1
283164,-100,4,2,5,80,0,0
283247,-100,4,2,5,90,0,1
283331,-100,4,2,5,90,0,0
283414,-100,4,2,5,90,0,1
283514,-100,4,2,5,90,0,0
283581,-100,4,2,5,90,0,1
283664,-100,4,2,5,90,0,0
283747,-100,4,2,5,90,0,1
283831,-100,4,2,5,90,0,0

[HitObjects]
256,192,6584,12,0,11251,0:0:0:0:
428,88,11918,6,0,L|296:40,1,127.500004863739,4|0,0:0|0:0,0:0:0:0:
316,128,12418,2,0,L|184:80,1,127.500004863739,2|0,0:0|0:0,0:0:0:0:
204,168,12918,2,0,L|72:120,1,127.500004863739,2|0,0:0|0:0,0:0:0:0:
92,208,13418,1,2,0:0:0:0:
204,168,14251,2,0,L|336:216,1,127.500004863739,2|2,0:0|0:0,0:0:0:0:
432,252,15084,5,2,0:0:0:0:
364,288,15418,1,0,0:0:0:0:
352,304,15584,1,2,0:0:0:0:
276,304,15918,1,0,0:0:0:0:
264,320,16084,1,2,0:0:0:0:
112,320,16751,1,0,0:0:0:0:
100,336,16918,2,0,B|88:280|108:244|108:244|100:196,1,127.500004863739,2|2,0:0|0:0,0:0:0:0:
96,96,17584,5,0,0:0:0:0:
116,88,17751,2,0,L|240:52,1,127.500004863739,2|0,0:0|0:0,0:0:0:0:
312,36,18251,2,0,P|300:100|240:128,1,127.500004863739,2|0,0:0|0:0,0:0:0:0:
172,144,18751,1,2,0:0:0:0:
207,266,18917,1,0,0:0:0:0:
207,266,19584,6,0,P|264:284|308:324,1,95.6250036478044,2|0,0:0|0:0,0:0:0:0:
312,340,19917,2,0,P|400:304|436:208,1,191.250007295609,4|0,0:0|0:0,0:0:0:0:
372,176,20584,2,0,L|336:184,2,31.8750012159348,2|0|0,0:0|0:0|0:0,0:0:0:0:
460,52,20917,1,8,0:0:0:0:
308,32,21251,6,0,B|260:24|224:44|224:44|208:112|152:144,1,191.250007295609,4|0,0:0|0:0,0:0:0:0:
84,184,21917,6,0,L|84:240,1,42.5,0|4,0:0|0:0,0:0:0:0:
0,248,22583,6,0,P|26:286|76:305,1,85,4|0,0:0|0:0,0:0:0:0:
176,112,22916,2,0,P|149:73|100:54,1,85,8|0,0:0|0:0,0:0:0:0:
60,303,23249,2,0,L|148:264,1,85,2|0,0:0|0:0,0:0:0:0:
176,112,23583,2,0,L|264:152,1,85,8|0,0:0|0:0,0:0:0:0:
260,336,23916,1,2,0:0:0:0:
360,316,24083,1,0,0:0:0:0:
296,240,24249,1,8,0:0:0:0:
280,340,24416,1,0,0:0:0:0:
432,356,24582,2,0,P|440:288|388:240,2,127.5,2|0|0,0:0|0:0|0:0,0:0:0:0:
296,240,25249,6,0,L|256:64,1,170,2|8,0:0|0:0,0:0:0:0:
160,92,25749,1,0,0:0:0:0:
404,128,25916,1,2,0:0:0:0:
92,184,26082,1,0,0:0:0:0:
384,216,26249,2,0,P|372:292|276:328,1,170,8|2,0:0|0:0,0:0:0:0:
127,302,26749,2,0,L|208:276,1,85,0|8,0:0|0:0,0:0:0:0:
276,200,27082,1,0,0:0:0:0:
244,160,27166,1,0,0:0:0:0:
196,140,27249,2,0,B|144:144|92:184|92:184|56:156,1,127.5,2|0,0:0|0:0,0:0:0:0:
44,140,27582,1,8,0:0:0:0:
196,20,27749,1,0,0:0:0:0:
340,144,27916,6,0,P|388:156|428:208,1,85,4|0,0:0|0:0,0:0:0:0:
456,328,28249,1,8,0:0:0:0:
364,284,28416,2,0,B|304:288|264:244|264:244|184:264,1,170
136,332,28916,2,0,P|104:248|152:168,1,170,8|2,0:0|0:0,0:0:0:0:
320,92,29416,1,0,0:0:0:0:
320,92,29499,1,0,0:0:0:0:
320,92,29582,1,8,0:0:0:0:
207,258,29749,1,0,0:0:0:0:
412,124,29916,2,0,P|386:160|349:186,1,85,2|0,0:0|0:0,2:0:0:0:
112,224,30249,2,0,P|137:187|174:161,1,85,8|0,0:0|0:0,2:0:0:0:
392,44,30582,6,0,P|448:48|484:84,2,85,4|0|8,0:0|0:0|0:0,0:0:0:0:
356,140,31082,2,0,B|320:168|284:176|284:176|264:204|264:204|188:232,1,170
164,312,31582,1,8,0:0:0:0:
112,224,31749,1,0,0:0:0:0:
104,200,31832,1,0,0:0:0:0:
96,176,31916,1,2,0:0:0:0:
88,152,31999,1,0,0:0:0:0:
80,128,32082,5,0,0:0:0:0:
152,56,32249,1,8,0:0:0:0:
180,156,32416,1,0,0:3:0:0:
281,156,32582,1,2,0:3:0:0:
230,246,32749,1,0,0:3:0:0:
301,317,32916,2,0,B|356:328|356:328|445:308,1,127.5,8|0,0:0|0:0,0:0:0:0:
464,304,33249,6,0,L|464:164,1,127.500004863739,4|8,0:0|0:0,0:0:0:0:
392,108,33749,2,0,L|392:248,1,127.500004863739
320,167,34249,2,0,L|320:40,1,127.500004863739,8|2,0:0|0:0,0:0:0:0:
244,60,34749,1,0,0:0:0:0:
257,177,34916,2,0,P|288:169|320:168,1,63.7500024318696,8|0,0:0|0:0,0:0:0:0:
464,304,35249,2,0,P|433:312|401:313,1,63.7500024318696,2|0,0:0|0:0,0:0:0:0:
288,288,35582,1,8,0:0:0:0:
288,288,35916,6,0,P|224:276|152:288,1,127.500004863739,2|8,0:0|0:0,0:0:0:0:
96,324,36416,2,0,P|88:256|128:216,1,127.500004863739
204,216,36916,1,8,0:0:0:0:
352,104,37249,5,2,0:0:0:0:
444,42,37416,1,0,2:0:0:0:
451,153,37582,1,8,0:0:0:0:
160,104,37916,5,2,0:0:0:0:
68,44,38082,1,0,0:0:0:0:
61,153,38249,1,8,0:0:0:0:
20,300,38582,6,0,L|96:268,1,63.7500024318696,2|0,0:0|0:0,0:0:0:0:
180,332,38916,1,8,0:0:0:0:
296,332,39082,2,0,P|280:268|208:224,1,127.500004863739
128,180,39582,2,0,P|168:132|229:117,1,127.500004863739,8|2,0:0|0:0,0:0:0:0:
300,152,40082,1,0,0:0:0:0:
364,192,40249,2,0,P|408:208|448:200,1,63.7500024318696,8|0,0:0|0:0,0:0:0:0:
488,304,40582,2,0,P|460:318|428:321,1,63.7500024318696,2|0,0:0|0:0,0:0:0:0:
368,272,40916,1,8,0:0:0:0:
388,84,41082,1,0,0:0:0:0:
296,232,41249,6,0,B|260:224|260:224|220:232,1,63.7500024318696,2|0,0:0|0:0,0:0:0:0:
75,332,41582,2,0,B|111:340|111:340|138:335,1,63.7500024318696,8|0,0:3|0:3,0:3:0:0:
488,304,41916,2,0,B|496:268|496:268|488:228,1,63.7500024318696,2|0,0:0|0:0,0:0:0:0:
385,146,42249,2,0,B|379:119|379:119|387:83,1,63.7500024318696,8|0,0:3|0:3,0:3:0:0:
388,84,42749,5,2,0:0:0:0:
490,241,42916,1,8,0:0:0:0:
316,160,43082,5,0,0:0:0:0:
280,148,43166,1,0,0:0:0:0:
244,136,43249,1,0,0:0:0:0:
208,124,43332,1,0,0:0:0:0:
172,112,43416,2,0,L|112:112,1,31.8750012159348,8|8,0:0|0:0,0:0:0:0:
64,176,43582,2,0,L|96:176,1,31.8750012159348,8|0,0:0|0:0,0:0:0:0:
171,240,43749,2,0,L|140:240,1,31.8750012159348,8|0,0:0|0:0,0:0:0:0:
64,260,43916,6,0,B|64:312|120:336|120:336|168:336|216:360,1,170,4|8,0:0|0:0,0:0:0:0:
328,362,44416,2,0,B|344:364|344:364|320:280|240:260,1,170
131,186,44916,2,0,L|172:112,1,85,8|0,0:0|0:0,0:0:0:0:
272,88,45249,1,2,0:0:0:0:
344,159,45416,1,0,0:0:0:0:
245,184,45582,1,8,0:0:0:0:
272,88,45749,1,0,0:0:0:0:
245,184,45916,6,0,P|216:224|208:268,1,85,2|0,0:0|0:0,0:0:0:0:
344,159,46249,2,0,P|373:118|381:75,1,85,8|0,0:0|0:0,0:0:0:0:
312,248,46582,1,2,0:0:0:0:
404,292,46749,1,0,0:0:0:0:
444,320,46832,1,0,0:0:0:0:
488,348,46916,1,8,0:0:0:0:
328,328,47082,2,0,P|284:324|236:272,1,85,0|2,0:0|0:0,0:0:0:0:
272,88,47416,1,0,0:0:0:0:
372,76,47582,2,0,P|428:120|432:184,1,127.5,8|0,0:0|0:0,0:0:0:0:
420,224,47916,6,0,L|340:196,1,85,2|0,0:0|0:0,0:0:0:0:
252,252,48249,2,0,L|172:224,1,85,8|0,0:0|0:0,0:0:0:0:
148,228,48499,1,0,0:0:0:0:
124,232,48582,1,2,0:0:0:0:
244,328,48749,1,0,0:0:0:0:
224,164,48916,2,0,P|184:108|188:48,1,127.5,8|0,0:0|0:0,0:0:0:0:
152,16,49249,6,0,L|64:40,1,85,4|0,0:0|0:0,0:0:0:0:
32,132,49582,2,0,L|120:108,1,85,8|0,0:0|0:0,0:0:0:0:
240,64,49916,1,2,0:0:0:0:
44,212,50082,1,0,0:0:0:0:
216,232,50249,1,8,0:0:0:0:
0,180,50416,1,0,0:0:0:0:
260,84,50582,6,0,P|308:112|332:148,1,85,2|0,0:0|0:0,0:0:0:0:
196,212,50916,2,0,P|148:184|124:148,1,85,8|0,0:0|0:0,0:0:0:0:
352,136,51249,1,2,0:0:0:0:
104,160,51416,1,0,0:0:0:0:
260,84,51582,1,8,0:0:0:0:
196,212,51749,1,0,0:0:0:0:
84,308,51916,5,4,0:0:0:0:
84,308,51999,1,0,0:0:0:0:
84,308,52082,1,0,0:0:0:0:
84,308,52166,1,0,0:0:0:0:
84,308,52249,1,8,0:0:0:0:
184,324,52416,1,0,0:0:0:0:
236,328,52499,1,0,0:0:0:0:
284,312,52582,2,0,L|368:340,1,85,2|0,0:0|0:0,0:0:0:0:
468,352,52916,5,8,0:0:0:0:
216,232,53082,1,0,0:0:0:0:
410,205,53249,2,0,L|432:160,3,42.5,2|0|0|0,0:0|0:0|0:0|0:0,0:0:0:0:
392,132,53582,2,0,L|410:91,3,42.5,8|0|0|0,0:0|0:0|0:0|0:0,0:0:0:0:
374,59,53916,1,2,0:0:0:0:
335,41,53999,1,0,0:0:0:0:
293,38,54082,1,0,0:0:0:0:
252,50,54166,1,0,0:0:0:0:
219,75,54249,1,8,0:0:0:0:
196,111,54332,1,0,0:0:0:0:
188,153,54416,1,0,0:0:0:0:
195,194,54499,1,0,0:0:0:0:
216,232,54582,6,0,P|239:266|278:281,1,85,4|0,0:0|0:0,0:0:0:0:
400,320,54916,1,8,0:0:0:0:
400,320,55082,2,0,P|392:228|332:164,1,170
278,281,55582,1,8,0:0:0:0:
32,352,55749,1,8,0:0:0:0:
88,88,56416,5,8,0:0:0:0:
187,187,56582,1,8,0:0:0:0:
51,223,56749,2,0,L|88:188,5,42.5
104,172,57249,5,8,0:0:0:0:
244,40,57416,1,8,0:0:0:0:
244,40,57582,1,8,0:0:0:0:
304,152,57749,2,0,P|304:236|244:316,1,170,2|0,0:0|0:0,0:0:0:0:
144,276,58249,1,8,0:0:0:0:
372,352,58416,1,8,0:0:0:0:
256,348,58916,5,8,0:0:0:0:
256,248,59082,1,0,0:0:0:0:
256,196,59166,1,0,0:0:0:0:
256,144,59249,2,0,L|204:156,1,42.5,2|0,0:0|0:0,0:0:0:0:
360,204,59416,2,0,L|412:192,1,42.5,2|0,0:0|0:0,0:0:0:0:
283,85,59582,2,0,L|214:41,1,42.5,2|0,0:0|0:0,2:0:0:0:
331,261,59749,2,0,L|400:305,1,42.5,2|0,0:0|0:0,2:0:0:0:
452,112,59916,6,0,P|420:84|392:16,1,85,4|0,0:0|0:0,0:0:0:0:
392,148,60249,2,0,P|389:105|417:37,1,85,8|0,0:0|0:0,0:0:0:0:
324,136,60582,2,0,P|352:104|420:76,1,85,2|0,0:0|0:0,2:0:0:0:
288,76,60915,2,0,P|330:73|398:101,1,85,8|0,0:0|0:0,2:0:0:0:
324,292,61249,1,2,0:0:0:0:
231,262,61416,1,0,0:0:0:0:
231,165,61582,1,8,0:0:0:0:
324,135,61749,1,0,0:0:0:0:
380,213,61916,5,2,0:0:0:0:
468,264,62082,1,0,0:0:0:0:
468,164,62249,1,8,0:0:0:0:
156,213,62416,1,0,0:0:0:0:
156,213,62499,1,0,0:0:0:0:
156,213,62582,1,4,0:0:0:0:
156,213,63249,6,0,P|84:225|64:299,1,148.75,2|0,0:0|0:0,0:0:0:0:
133,282,63916,2,0,P|205:269|225:195,1,148.75,2|0,0:0|0:0,0:0:0:0:
156,212,64582,2,0,L|156:124,1,85,2|0,0:0|0:0,0:0:0:0:
136,112,64999,1,0,0:0:0:0:
116,100,65082,1,0,0:0:0:0:
92,88,65166,1,0,0:0:0:0:
68,76,65249,6,0,P|100:40|144:32,1,85,8|0,0:0|0:0,0:0:0:0:
232,68,65582,1,2,0:0:0:0:
232,68,65749,2,0,B|232:84|232:84|248:84|248:84|248:101|248:101|265:101|265:101|265:118|265:118|282:118|282:118|282:135|282:135|302:138|302:138|302:155|302:155|322:158,1,170,8|0,0:0|0:0,0:0:0:0:
420,168,66416,2,0,P|376:240|288:260,1,170,8|0,0:0|0:0,0:0:0:0:
288,264,66832,1,0,0:0:0:0:
280,268,66916,1,0,0:0:0:0:
272,272,66999,1,0,0:0:0:0:
264,276,67082,1,0,0:0:0:0:
256,280,67166,1,0,0:0:0:0:
248,284,67249,1,0,0:0:0:0:
240,288,67332,1,0,0:0:0:0:
232,292,67416,1,0,0:0:0:0:
224,296,67499,1,0,0:0:0:0:
216,300,67582,1,0,0:0:0:0:
216,300,67916,5,4,0:0:0:0:
68,344,68082,1,0,0:0:0:0:
160,300,68249,1,8,0:0:0:0:
24,226,68415,1,0,0:0:0:0:
148,200,68582,2,0,P|196:180|244:168,1,85,2|0,0:0|0:0,0:0:0:0:
356,192,68916,5,8,0:0:0:0:
464,352,69082,1,0,0:0:0:0:
464,352,69166,1,0,0:0:0:0:
464,352,69249,1,2,0:0:0:0:
284,292,69416,1,0,0:0:0:0:
284,292,69499,1,0,0:0:0:0:
284,292,69582,1,8,0:0:0:0:
468,232,69749,1,0,0:0:0:0:
416,48,69916,2,0,P|416:104|432:152,1,85,2|0,0:0|0:0,0:0:0:0:
172,164,70249,2,0,P|172:108|156:60,1,85,8|0,0:0|0:0,0:0:0:0:
288,44,70582,5,2,0:0:0:0:
356,152,70749,1,0,0:0:0:0:
260,236,70916,1,8,0:0:0:0:
328,344,71083,1,0,0:0:0:0:
164,264,71249,2,0,B|116:296|116:296|84:304,1,85,2|0,0:0|0:0,0:0:0:0:
89,302,71499,1,0,0:0:0:0:
89,302,71582,1,8,0:0:0:0:
84,176,71749,5,0,0:0:0:0:
44,12,71916,2,0,L|120:40,3,42.5,2|0|0|0,0:0|0:0|0:0|0:0,0:0:0:0:
112,84,72249,2,0,L|188:112,3,42.5,8|0|0|0,0:0|0:0|0:0|0:0,0:0:0:0:
180,156,72582,1,2,0:0:0:0:
184,198,72665,1,0,0:0:0:0:
204,235,72748,1,0,0:0:0:0:
236,262,72831,1,0,0:0:0:0:
276,276,72916,2,0,L|316:262,1,42.5,8|0,0:0|0:0,0:0:0:0:
436,220,73082,6,0,P|444:280|416:336,1,85,0|2,0:0|0:0,0:0:0:0:
300,156,73416,1,0,0:0:0:0:
464,204,73582,1,8,0:0:0:0:
380,256,73749,6,0,P|388:316|360:372,1,85,0|2,0:0|0:0,0:0:0:0:
244,192,74083,1,0,0:0:0:0:
408,240,74249,1,8,0:0:0:0:
352,272,74416,6,0,L|232:343,1,127.5
180,320,74749,2,0,L|300:248,1,127.5
336,208,75082,2,0,P|356:148|320:76,1,127.5
334,91,75416,1,0,2:0:0:0:
212,144,75582,1,0,2:0:0:0:
226,14,75749,1,0,2:0:0:0:
334,91,75916,6,0,L|420:122,1,85,2|0,0:0|0:0,0:0:0:0:
212,144,76249,2,0,L|126:113,1,85,8|0,0:0|0:0,0:0:0:0:
334,91,76582,2,0,P|348:44|380:16,1,85,2|0,0:0|0:0,0:0:0:0:
212,144,76916,2,0,P|198:191|166:219,1,85,8|0,0:0|0:0,0:0:0:0:
48,248,77249,5,2,0:0:0:0:
140,336,77416,1,0,0:0:0:0:
263,366,77582,1,8,0:0:0:0:
384,330,77749,1,0,0:0:0:0:
470,238,77916,1,2,0:0:0:0:
434,214,77999,1,0,0:0:0:0:
393,203,78082,1,0,0:0:0:0:
351,206,78165,1,0,0:0:0:0:
312,224,78249,2,0,L|268:248,3,42.5,8|0|0|0,0:0|0:0|0:0|0:0,0:0:0:0:
236,256,78582,6,0,P|184:248|140:220,1,85,4|0,0:0|0:0,0:0:0:0:
30,100,78916,1,8,0:0:0:0:
188,48,79082,1,0,0:0:0:0:
90,183,79249,1,2,0:0:0:0:
90,18,79416,1,0,0:0:0:0:
188,152,79582,1,8,0:0:0:0:
304,96,79749,5,0,0:0:0:0:
332,84,79832,1,0,0:0:0:0:
360,72,79916,1,2,0:0:0:0:
464,132,80083,1,0,0:0:0:0:
436,144,80166,1,0,0:0:0:0:
408,156,80250,1,8,0:0:0:0:
188,152,80416,1,0,0:0:0:0:
36,276,80582,2,0,P|84:288|128:284,1,85,2|0,0:0|0:0,0:0:0:0:
372,240,80916,2,0,P|324:228|280:232,1,85,8|0,0:0|0:0,0:0:0:0:
119,285,81249,5,2,0:0:0:0:
289,230,81416,1,0,0:0:0:0:
117,244,81582,1,8,0:0:0:0:
291,272,81749,1,0,0:0:0:0:
89,214,81916,1,2,0:0:0:0:
319,302,82082,1,0,0:0:0:0:
344,148,82249,1,8,0:0:0:0:
344,148,82332,1,0,0:0:0:0:
344,148,82416,1,0,0:0:0:0:
344,148,82499,1,0,0:0:0:0:
344,148,82582,6,0,L|440:168,1,85,2|0,0:0|0:0,0:0:0:0:
172,192,82916,2,0,L|76:172,1,85,8|0,0:0|0:0,0:0:0:0:
319,302,83249,2,0,L|415:322,1,85,2|0,0:0|0:0,0:0:0:0:
344,148,83582,5,8,0:0:0:0:
228,92,83749,1,0,0:0:0:0:
200,100,83832,1,0,0:0:0:0:
172,108,83916,1,4,0:0:0:0:
40,144,84082,1,0,0:0:0:0:
62,249,84249,5,8,0:0:0:0:
157,200,84416,1,0,0:0:0:0:
184,192,84499,1,0,0:0:0:0:
212,184,84583,1,4,0:0:0:0:
328,240,84749,1,0,0:0:0:0:
284,336,84916,5,2,0:0:0:0:
196,277,85083,1,0,0:0:0:0:
168,284,85166,1,0,0:0:0:0:
140,293,85250,1,4,0:0:0:0:
157,200,85416,5,0,0:0:0:0:
184,192,85499,1,0,0:0:0:0:
212,184,85583,1,4,0:0:0:0:
228,92,85749,5,0,0:0:0:0:
200,100,85832,1,0,0:0:0:0:
172,108,85916,1,4,0:0:0:0:
140,293,86082,6,0,B|240:264|240:264|264:320|356:340,1,212.5,4|0,0:0|0:0,0:0:0:0:
332,332,86582,6,0,P|402:329|450:289,1,127.5,2|0,0:0|0:0,0:0:0:0:
445,296,86916,1,8,0:0:0:0:
362,229,87082,2,0,P|432:226|480:186,1,127.5,2|0,0:0|0:0,0:0:0:0:
475,193,87416,1,8,0:0:0:0:
392,126,87582,2,0,P|462:123|510:83,1,127.5,2|0,0:0|0:0,0:0:0:0:
505,90,87916,5,2,0:0:0:0:
392,126,88082,1,0,0:0:0:0:
475,193,88249,1,8,0:0:0:0:
362,229,88416,1,0,0:0:0:0:
445,296,88582,2,0,P|401:329|337:329,1,85,2|0,0:0|0:0,0:0:0:0:
250,297,88916,1,8,0:0:0:0:
250,297,88999,1,0,0:0:0:0:
250,297,89082,1,0,0:0:0:0:
250,297,89166,1,0,0:0:0:0:
250,297,89249,5,4,0:0:0:0:
148,216,89416,1,0,0:0:0:0:
264,168,89582,1,8,0:0:0:0:
250,297,89749,1,0,0:0:0:0:
128,52,89916,6,0,B|84:64|84:64|40:104,1,85,2|0,0:0|0:0,0:0:0:0:
40,232,90249,2,0,B|84:219|84:219|128:179,1,85,8|0,0:0|0:0,0:0:0:0:
228,136,90582,5,4,0:0:0:0:
343,184,90749,1,0,0:0:0:0:
242,265,90915,1,8,0:0:0:0:
228,136,91082,1,0,0:0:0:0:
384,332,91249,6,0,B|428:320|428:320|472:280,1,85,2|0,0:0|0:0,0:0:0:0:
472,152,91582,2,0,B|428:164|428:164|384:204,1,85,8|0,0:0|0:0,0:0:0:0:
284,248,91915,5,4,0:0:0:0:
200,220,92082,1,2,2:0:0:0:
228,136,92249,1,8,0:0:0:0:
312,164,92416,1,2,0:0:0:0:
208,324,92582,5,2,0:0:0:0:
303,60,92916,1,8,0:0:0:0:
250,285,93249,5,4,0:0:0:0:
162,186,93416,1,2,2:0:0:0:
261,98,93583,1,8,0:0:0:0:
349,197,93750,1,2,0:0:0:0:
178,309,93916,5,4,0:0:0:0:
138,114,94083,1,2,2:0:0:0:
333,74,94250,1,8,0:0:0:0:
373,269,94417,1,2,0:0:0:0:
256,192,94582,5,4,0:0:0:0:
256,192,94666,12,0,97249,0:0:0:0:
184,272,105249,6,0,B|160:280|160:280|148:304|148:304|108:328|60:316,1,127.500004863739,4|8,0:0|0:0,0:0:0:0:
96,220,105749,2,0,P|132:184|208:176,1,127.5,0|0,0:0|0:0,0:0:0:0:
272,244,106249,2,0,P|328:280|368:340,2,127.500004863739,8|2|8,0:0|0:0|0:0,0:0:0:0:
272,244,107082,1,0,0:0:0:0:
252,152,107249,2,0,L|224:76,1,63.7500024318696,2|0,0:0|0:0,0:0:0:0:
164,24,107582,2,0,P|120:24|80:40,1,63.7500024318696,8|0,0:0|0:0,0:0:0:0:
22,153,107916,6,0,P|86:147|148:131,1,127.500004863739,2|8,0:0|0:0,0:0:0:0:
347,55,108416,2,0,B|328:52|292:72|292:72|256:68|256:68|224:76,1,127.500004863739
240,172,108916,2,0,B|252:212|252:212|228:264|252:320,1,127.500004863739,8|2,0:0|0:0,0:0:0:0:
340,280,109416,1,0,0:0:0:0:
420,228,109582,1,8,0:0:0:0:
424,324,109749,1,0,0:0:0:0:
340,280,109916,1,2,0:0:0:0:
340,280,110249,2,0,L|240:296,1,95.6250036478044
200,300,110582,6,0,P|176:252|168:216,1,63.7500024318696,2|0,0:0|0:0,0:0:0:0:
76,240,110916,2,0,P|92:189|112:157,1,63.7500024318696,8|0,0:0|0:0,0:0:0:0:
180,136,111249,1,2,0:0:0:0:
80,44,111416,1,0,0:0:0:0:
98,180,111582,2,0,P|136:228|112:292,2,127.500004863739,8|2|8,0:0|0:0|0:0,0:0:0:0:
20,120,112416,1,0,0:0:0:0:
180,136,112582,2,0,L|264:116,1,63.7500024318696,2|0,0:0|0:0,0:0:0:0:
398,129,112916,2,0,L|336:144,1,63.7500024318696,8|0,0:0|0:0,0:0:0:0:
304,56,113249,5,2,0:0:0:0:
176,208,113416,1,0,0:0:0:0:
336,144,113582,1,8,0:0:0:0:
240,128,113749,1,0,0:0:0:0:
304,308,113916,5,2,0:0:0:0:
208,291,114082,1,0,0:0:0:0:
364,236,114249,1,8,0:0:0:0:
240,380,114415,1,0,0:0:0:0:
272,216,114582,5,2,0:0:0:0:
380,308,114749,2,0,P|408:328|444:344,1,63.7500024318696,0|8,0:0|0:0,0:0:0:0:
456,248,115082,1,0,0:0:0:0:
272,216,115416,5,2,0:0:0:0:
240,204,115499,1,2,0:0:0:0:
208,200,115582,1,2,0:0:0:0:
176,200,115666,1,2,0:0:0:0:
144,208,115749,2,0,P|112:220|92:236,1,31.8750012159348,2|2,0:0|0:0,0:0:0:0:
56,332,115916,6,0,P|100:324|144:304,1,85,4|0,0:0|0:0,0:0:0:0:
264,332,116249,1,8,0:0:0:0:
405,179,116416,2,0,P|378:212|364:252,1,85,0|2,0:0|0:0,0:0:0:0:
264,332,116749,1,0,0:0:0:0:
244,204,116916,6,0,B|252:152|252:152|236:120|236:120|248:80|240:40,1,170,8|2,0:0|0:0,0:0:0:0:
116,72,117416,1,0,0:0:0:0:
4,136,117582,2,0,L|24:236,1,85,8|0,0:0|0:0,0:0:0:0:
148,367,117916,2,0,L|132:284,1,85,2|0,0:0|0:0,0:0:0:0:
92,164,118249,1,8,0:0:0:0:
92,164,118582,6,0,P|144:160|188:136,1,85,2|0,0:0|0:0,0:0:0:0:
244,40,118916,1,8,0:0:0:0:
236,236,119082,2,0,P|269:196|284:148,1,85,0|2,0:0|0:0,0:0:0:0:
255,40,119416,1,0,0:0:0:0:
376,84,119582,6,0,B|400:72|400:72|376:144|432:208,1,170,8|2,0:0|0:0,0:0:0:0:
456,332,120082,1,0,0:0:0:0:
456,332,120166,1,0,0:0:0:0:
456,332,120249,2,0,P|400:328|344:308,1,85,8|0,0:0|0:0,0:0:0:0:
324,276,120499,2,0,L|272:284,1,42.5,0|2,0:0|0:0,0:0:0:0:
192,192,120916,1,8,0:0:0:0:
192,192,120999,1,0,0:0:0:0:
192,192,121083,1,0,0:0:0:0:
192,192,121166,1,0,0:0:0:0:
192,192,121249,6,0,P|156:228|152:272,2,85,4|0|8,0:0|0:0|0:0,0:0:0:0:
199,356,121749,2,0,P|231:328|241:287,2,85,0|2|0,0:0|0:0|0:0,0:0:0:0:
150,260,122249,1,8,0:0:0:0:
71,290,122416,1,0,0:0:0:0:
242,288,122582,6,0,L|324:256,1,85,2|0,0:0|0:0,0:0:0:0:
446,253,122916,2,0,P|445:295|424:332,1,85,8|0,0:0|0:0,0:0:0:0:
384,212,123249,2,0,B|364:152|388:104|388:104|316:64,1,170,2|8,0:0|0:0,0:0:0:0:
328,72,123666,1,0,0:0:0:0:
320,68,123749,1,0,0:0:0:0:
312,64,123832,1,0,0:0:0:0:
304,60,123916,6,0,L|212:81,1,85,2|0,0:0|0:0,0:0:0:0:
180,200,124249,2,0,L|272:179,1,85,8|0,0:0|0:0,0:0:0:0:
384,212,124582,1,2,0:0:0:0:
276,284,124749,1,0,0:0:0:0:
384,212,124916,1,8,0:0:0:0:
276,284,125082,6,0,L|228:304,5,42.5,0|0|2|0|0|0,0:0|0:0|0:0|0:0|0:0|0:0,0:0:0:0:
208,340,125583,2,0,L|168:320,1,42.5,8|0,0:0|0:0,0:0:0:0:
88,348,125749,2,0,L|73:305,1,42.5
16,256,125916,1,2,0:0:0:0:
40,228,125999,1,0,0:0:0:0:
55,193,126082,1,0,0:0:0:0:
61,155,126165,1,0,0:0:0:0:
55,117,126248,1,8,0:0:0:0:
50,89,126332,1,0,0:0:0:0:
87,99,126415,1,0,0:0:0:0:
124,108,126499,1,0,0:0:0:0:
161,118,126582,6,0,P|208:120|260:104,1,85,4|0,0:0|0:0,0:0:0:0:
348,32,126916,1,8,0:0:0:0:
348,32,127082,2,0,B|384:80|372:140|372:140|388:163|424:176,1,170
472,60,127582,1,8,0:0:0:0:
161,119,127749,1,8,0:0:0:0:
384,148,128416,5,8,0:0:0:0:
264,196,128582,1,8,0:0:0:0:
368,272,128749,2,0,L|344:220,5,42.5
324,176,129249,5,8,0:0:0:0:
236,344,129416,1,0,0:0:0:0:
148,252,129582,1,8,0:0:0:0:
160,124,129749,2,0,P|220:64|304:64,1,170,2|0,0:0|0:0,0:0:0:0:
324,176,130249,1,8,0:0:0:0:
148,252,130416,1,8,0:0:0:0:
236,344,130916,5,8,0:0:0:0:
352,292,131082,1,0,0:0:0:0:
392,308,131166,1,0,0:0:0:0:
432,324,131249,2,0,L|480:344,1,42.5,2|0,0:0|0:0,0:0:0:0:
447,148,131416,2,0,L|431:188,1,42.5,2|0,0:0|0:0,0:0:0:0:
460,256,131582,2,0,L|508:236,1,42.5,2|0,0:0|0:0,0:0:0:0:
346,120,131749,2,0,L|363:160,1,42.5,2|0,0:0|0:0,0:0:0:0:
304,220,131916,6,0,L|216:220,1,85,4|0,0:0|0:0,0:0:0:0:
268,288,132249,2,0,L|205:225,1,85,8|0,0:0|0:0,0:0:0:0:
194,310,132582,2,0,L|194:222,1,85,2|0,0:0|0:0,0:0:0:0:
126,273,132916,2,0,L|188:210,1,85,8|0,0:0|0:0,0:0:0:0:
188,200,133249,1,2,0:0:0:0:
200,192,133416,1,0,0:0:0:0:
214,195,133582,1,8,0:0:0:0:
221,207,133749,1,0,0:0:0:0:
117,140,133916,5,2,2:0:0:0:
184,96,134083,1,0,2:0:0:0:
264,113,134249,1,8,2:0:0:0:
308,181,134416,1,0,2:0:0:0:
308,181,134499,1,0,0:0:0:0:
308,181,134582,1,8,0:0:0:0:
308,181,135249,6,0,P|312:256|388:292,1,148.75,2|0,0:0|0:0,0:0:0:0:
376,216,135916,2,0,L|212:300,1,170,2|2,0:0|0:0,0:0:0:0:
184,304,136749,1,2,0:0:0:0:
144,292,136916,1,2,0:0:0:0:
115,261,137082,1,2,0:0:0:0:
106,218,137249,6,0,L|132:48,1,170,4|8,0:0|0:0,0:0:0:0:
264,165,137916,6,0,L|196:216,1,85,2|0,0:0|0:0,0:0:0:0:
316,256,138249,2,0,P|356:216|368:172,1,85,8|0,0:0|0:0,0:0:0:0:
342,64,138582,1,2,0:0:0:0:
264,165,138749,1,0,0:0:0:0:
196,56,138916,1,8,0:0:0:0:
118,157,139083,1,0,0:0:0:0:
184,264,139249,5,4,0:0:0:0:
206,299,139332,1,0,0:0:0:0:
238,327,139415,1,0,0:0:0:0:
277,343,139499,1,0,0:0:0:0:
319,348,139582,1,0,0:0:0:0:
361,339,139665,1,0,0:0:0:0:
398,319,139749,1,0,0:0:0:0:
427,289,139832,1,0,0:0:0:0:
446,251,139915,5,4,0:0:0:0:
360,156,140082,1,0,0:0:0:0:
496,20,140249,1,8,0:0:0:0:
472,144,140416,1,0,0:0:0:0:
364,80,140582,2,0,P|316:92|284:144,1,85,2|0,0:0|0:0,0:0:0:0:
264,244,140916,5,8,0:0:0:0:
88,316,141082,1,0,0:0:0:0:
88,316,141166,1,0,0:0:0:0:
88,316,141249,1,2,0:0:0:0:
113,127,141416,1,0,0:0:0:0:
113,127,141499,1,0,0:0:0:0:
113,127,141582,1,8,0:0:0:0:
160,244,141749,1,0,0:0:0:0:
332,332,141916,6,0,P|360:288|368:236,1,85,2|0,0:0|0:0,0:0:0:0:
292,0,142249,2,0,P|264:44|256:96,1,85,8|0,0:0|0:0,0:0:0:0:
240,204,142582,1,2,0:0:0:0:
112,192,142749,1,0,0:0:0:0:
284,324,142916,1,8,0:0:0:0:
156,312,143082,1,0,0:0:0:0:
336,244,143249,6,0,P|384:256|416:308,1,85,2|0,0:0|0:0,0:0:0:0:
407,281,143499,1,0,0:0:0:0:
407,281,143582,1,8,0:0:0:0:
504,196,143749,1,0,0:0:0:0:
428,92,143916,6,0,L|380:104,3,42.5,2|0|0|0,0:0|0:0|0:0|0:0,0:0:0:0:
332,72,144249,2,0,L|284:84,3,42.5,8|0|0|0,0:0|0:0|0:0|0:0,0:0:0:0:
236,52,144582,6,0,L|188:64,3,42.5,2|0|0|0,0:0|0:0|0:0|0:0,0:0:0:0:
140,32,144916,2,0,L|92:44,1,42.5,8|0,0:0|0:0,0:0:0:0:
44,76,145082,6,0,P|108:128|96:216,1,170
172,104,145582,2,0,L|124:116,1,42.5,8|0,0:0|0:0,0:0:0:0:
76,148,145748,6,0,P|140:200|128:288,1,170
204,176,146249,2,0,L|156:188,1,42.5,8|0,0:0|0:0,0:0:0:0:
108,220,146415,6,0,P|172:272|164:344,1,127.5
165,352,146749,2,0,P|224:316|312:324,1,127.5
340,340,147082,2,0,L|424:296,1,85
312,224,147416,1,0,0:0:0:0:
312,224,147499,1,0,0:0:0:0:
312,224,147582,1,0,0:0:0:0:
415,300,147749,1,0,0:0:0:0:
288,288,147916,6,0,L|208:328,1,85,2|0,0:0|0:0,0:0:0:0:
88,292,148249,2,0,L|168:252,1,85,8|0,0:0|0:0,0:0:0:0:
264,176,148582,1,2,0:0:0:0:
384,236,148749,1,0,0:0:0:0:
416,112,148916,6,0,B|440:96|440:96|388:60|332:88|332:88|272:64,1,170,8|2,0:0|0:0,0:0:0:0:
180,76,149416,1,0,0:0:0:0:
344,160,149582,1,8,0:0:0:0:
244,36,149749,1,0,0:0:0:0:
344,160,149916,1,0,0:0:0:0:
328,200,149999,1,0,0:0:0:0:
304,236,150082,1,0,0:0:0:0:
272,264,150166,1,0,0:0:0:0:
236,284,150249,2,0,L|180:296,3,42.5,8|0|0|0,0:0|0:0|0:0|0:0,0:0:0:0:
152,296,150582,6,0,P|96:284|64:252,1,85,4|0,0:0|0:0,0:0:0:0:
31,163,150916,1,8,0:0:0:0:
138,119,151082,1,0,0:0:0:0:
179,225,151249,1,2,0:0:0:0:
48,140,151416,1,0,0:0:0:0:
155,96,151582,1,8,0:0:0:0:
196,202,151749,5,0,0:0:0:0:
220,168,151832,1,0,0:0:0:0:
244,132,151916,1,2,0:0:0:0:
356,118,152082,1,0,0:0:0:0:
332,151,152165,1,0,0:0:0:0:
308,188,152249,1,8,0:0:0:0:
268,308,152416,1,0,0:0:0:0:
356,118,152582,2,0,P|400:112|452:132,1,85,2|0,0:0|0:0,0:0:0:0:
196,204,152916,2,0,P|152:210|100:189,1,85,8|0,0:0|0:0,0:0:0:0:
308,188,153249,5,2,0:0:0:0:
244,132,153416,1,0,0:0:0:0:
350,215,153582,1,8,0:0:0:0:
201,104,153749,1,0,0:0:0:0:
365,262,153916,1,2,0:0:0:0:
186,57,154082,1,0,0:0:0:0:
104,152,154249,1,8,0:0:0:0:
104,152,154332,1,0,0:0:0:0:
104,152,154416,1,0,0:0:0:0:
104,152,154499,1,0,0:0:0:0:
104,152,154582,6,0,L|64:232,1,85,2|0,0:0|0:0,0:0:0:0:
206,372,154916,2,0,L|180:292,1,85,8|0,0:0|0:0,0:0:0:0:
289,224,155249,2,0,L|366:263,1,85,2|0,0:0|0:0,0:0:0:0:
480,320,155582,5,8,0:0:0:0:
420,208,155749,1,0,0:0:0:0:
420,208,155832,1,0,0:0:0:0:
420,208,155916,1,6,0:0:0:0:
480,96,156082,1,0,0:0:0:0:
352,96,156249,5,8,0:0:0:0:
288,208,156416,1,0,0:0:0:0:
288,208,156499,1,0,0:0:0:0:
288,208,156583,1,4,0:0:0:0:
352,320,156749,1,0,0:0:0:0:
224,320,156916,5,8,0:0:0:0:
156,208,157083,1,0,0:0:0:0:
156,208,157166,1,0,0:0:0:0:
156,208,157250,1,4,0:0:0:0:
288,208,157416,5,0,0:0:0:0:
288,208,157499,1,0,0:0:0:0:
288,208,157583,1,4,0:0:0:0:
420,208,157749,5,0,0:0:0:0:
420,208,157832,1,0,0:0:0:0:
420,208,157916,1,4,0:0:0:0:
156,208,158082,6,0,P|116:116|208:88,1,212.5,4|0,0:0|0:0,0:0:0:0:
228,95,158582,6,0,L|368:48,1,127.5,2|0,0:0|0:0,0:0:0:0:
349,54,158915,1,8,0:0:0:0:
404,172,159082,2,0,L|264:219,1,127.5,2|0,0:0|0:0,0:0:0:0:
283,212,159415,1,8,0:0:0:0:
340,328,159582,2,0,L|479:280,1,127.5,2|0,0:0|0:0,0:0:0:0:
461,287,159915,5,2,0:0:0:0:
340,328,160082,1,0,0:0:0:0:
404,172,160249,1,8,0:0:0:0:
283,212,160416,1,0,0:0:0:0:
349,54,160582,2,0,L|240:92,1,85,2|0,0:0|0:0,0:0:0:0:
164,156,160916,1,8,0:0:0:0:
164,156,160999,1,0,0:0:0:0:
164,156,161082,1,0,0:0:0:0:
164,156,161166,1,0,0:0:0:0:
164,156,161249,5,4,0:0:0:0:
104,44,161416,1,0,0:0:0:0:
36,152,161582,1,8,0:0:0:0:
164,156,161749,1,0,0:0:0:0:
292,156,161916,6,0,P|336:176|356:224,1,85,2|0,0:0|0:0,0:0:0:0:
304,324,162249,2,0,P|260:304|240:256,1,85,8|0,0:0|0:0,0:0:0:0:
353,206,162582,5,4,0:0:0:0:
408,324,162749,1,0,0:0:0:0:
484,220,162916,1,8,0:0:0:0:
353,206,163082,1,0,0:0:0:0:
320,84,163249,6,0,B|356:56|356:56|404:40,1,85,2|0,0:0|0:0,0:0:0:0:
492,128,163582,2,0,B|456:156|456:156|408:172,1,85,8|0,0:0|0:0,0:0:0:0:
164,192,163916,5,4,0:0:0:0:
256,248,164082,1,0,0:0:0:0:
347,191,164249,1,8,0:0:0:0:
256,136,164416,1,0,0:0:0:0:
176,276,164582,5,2,0:0:0:0:
336,108,164916,1,8,0:0:0:0:
140,161,165249,5,4,0:0:0:0:
237,262,165415,1,0,0:0:0:0:
371,222,165582,1,8,0:0:0:0:
274,121,165749,1,0,0:0:0:0:
121,114,165916,5,4,0:0:0:0:
208,273,166082,1,0,0:0:0:0:
390,269,166249,1,8,0:0:0:0:
303,110,166416,1,0,0:0:0:0:
256,192,166582,5,4,0:0:0:0:
256,64,174582,6,0,L|256:160,1,85,2|2,0:0|0:0,0:0:0:0:
256,308,174916,1,2,0:0:0:0:
256,188,175082,1,2,0:0:0:0:
352,256,175249,1,2,0:0:0:0:
256,160,175416,1,2,0:0:0:0:
160,256,175582,1,2,0:0:0:0:
256,160,175749,2,0,L|256:112,9,42.5,2|0|0|0|0|0|0|0|0|0,0:0|0:0|0:0|0:0|0:0|0:0|0:0|0:0|0:0|0:0,0:0:0:0:
244,56,176582,6,0,L|200:40,1,42.5,2|0,0:0|0:0,0:0:0:0:
80,68,176749,2,0,L|124:84,1,42.5,2|0,0:0|0:0,0:0:0:0:
192,188,176916,2,0,L|148:172,1,42.5,2|0,0:0|0:0,0:0:0:0:
28,200,177082,2,0,L|72:216,1,42.5,2|0,0:0|0:0,0:0:0:0:
152,308,177249,5,2,0:0:0:0:
152,308,177416,1,0,0:0:0:0:
192,188,177582,2,0,P|240:168|288:172,2,85,0|0|2,0:0|0:0|0:0,0:0:0:0:
40,308,178082,1,0,0:0:0:0:
40,308,178166,1,0,0:0:0:0:
40,308,178249,1,8,0:0:0:0:
112,204,178416,1,2,0:0:0:0:
340,204,178582,5,2,0:0:0:0:
340,204,178749,1,0,0:0:0:0:
336,328,179082,1,0,0:0:0:0:
228,264,179249,1,8,0:0:0:0:
194,238,179332,1,8,0:0:0:0:
171,202,179415,1,0,0:0:0:0:
163,161,179499,1,0,0:0:0:0:
170,119,179582,6,0,B|176:88|164:56|164:56|216:84|288:76,1,170,2|8,0:0|0:0,0:0:0:0:
392,88,180082,1,0,0:0:0:0:
468,192,180249,2,0,P|468:240|448:280,2,85,2|0|8,0:0|0:0|0:0,0:0:0:0:
340,204,180749,1,0,0:0:0:0:
340,204,180832,1,0,0:0:0:0:
340,204,180916,1,8,0:0:0:0:
268,100,181082,1,2,0:0:0:0:
408,232,181249,5,2,0:0:0:0:
408,232,181416,2,0,L|424:320,1,85,0|8,0:0|0:0,0:0:0:0:
296,300,181749,1,8,0:0:0:0:
256,284,181832,1,8,0:0:0:0:
212,284,181916,1,0,0:0:0:0:
172,304,181999,1,0,0:0:0:0:
148,340,182082,2,0,L|88:328,1,42.5,8|0,0:0|0:0,0:0:0:0:
104,248,182249,2,0,L|44:236,1,42.5,8|0,0:0|0:0,0:0:0:0:
60,156,182416,2,0,L|0:144,1,42.5,8|0,0:0|0:0,0:0:0:0:
124,80,182582,6,0,P|152:116|156:172,1,85,4|0,0:0|0:0,0:0:0:0:
212,284,183249,2,0,P|252:208|328:176,1,170,2|8,0:0|0:0,0:0:0:0:
326,176,183749,1,8,0:0:0:0:
340,300,184416,5,0,0:0:0:0:
446,228,184582,1,8,0:0:0:0:
406,208,184666,1,8,0:0:0:0:
366,192,184749,1,0,0:0:0:0:
326,176,184832,1,0,0:0:0:0:
286,160,184916,2,0,B|250:164|250:164|219:144|219:144|166:150|103:109,1,170,8|4,0:0|0:0,0:0:0:0:
12,64,185582,6,0,L|56:120,1,42.5,8|0,0:0|0:0,0:0:0:0:
68,152,185748,2,0,B|64:212|28:256|28:256|32:289|47:308,1,170,2|0,0:0|0:0,0:0:0:0:
47,309,186249,1,8,0:0:0:0:
160,248,186416,2,0,B|204:236|204:236|236:260|236:260|280:244|280:244|328:272,1,170,2|2,0:0|0:0,0:0:0:0:
408,348,186916,2,0,P|436:304|432:248,1,85,8|0,0:0|0:0,0:0:0:0:
380,160,187249,1,2,0:0:0:0:
188,176,187416,1,0,0:0:0:0:
188,176,187499,1,0,0:0:0:0:
188,176,187582,1,0,0:0:0:0:
188,176,187666,1,0,0:0:0:0:
188,176,187749,1,0,0:0:0:0:
188,176,187832,1,0,0:0:0:0:
188,176,187916,5,4,0:0:0:0:
88,252,188082,1,0,0:0:0:0:
204,304,188249,2,0,L|316:292,1,85,8|0,0:0|0:0,0:0:0:0:
380,204,188582,2,0,L|268:216,1,85,2|0,0:0|0:0,0:0:0:0:
172,244,188916,1,8,0:0:0:0:
300,104,189082,1,0,0:0:0:0:
136,200,189249,5,2,0:0:0:0:
136,200,189416,1,0,0:0:0:0:
264,200,189582,1,8,0:0:0:0:
88,276,189748,1,0,0:0:0:0:
88,276,189832,1,0,0:0:0:0:
88,276,189915,1,2,0:0:0:0:
56,152,190082,2,0,L|12:104,1,42.5
56,152,190249,2,0,P|128:112|192:128,1,127.5,8|0,0:0|0:0,0:0:0:0:
170,117,190582,5,2,0:0:0:0:
292,156,190749,1,0,0:0:0:0:
380,252,190916,2,0,P|408:296|416:344,1,85,8|0,0:0|0:0,0:0:0:0:
288,352,191249,2,0,P|263:317|252:276,1,85,2|0,0:0|0:0,0:0:0:0:
252,276,191499,1,0,0:0:0:0:
252,276,191582,1,8,0:0:0:0:
292,156,191749,5,0,0:0:0:0:
288,28,191916,1,2,0:0:0:0:
400,84,192082,1,0,0:0:0:0:
292,156,192249,1,8,0:0:0:0:
224,336,192416,6,0,P|188:280|220:220,1,127.5
272,220,192749,2,0,L|324:240,2,42.5,0|0|8,0:0|0:0|0:0,0:0:0:0:
224,336,193249,1,4,0:0:0:0:
256,192,193332,12,2,194582,0:0:0:0:
291,302,194749,5,2,0:0:0:0:
161,123,194916,1,8,0:0:0:0:
372,192,195082,1,2,0:0:0:0:
161,260,195249,1,2,0:0:0:0:
291,81,195416,1,2,0:0:0:0:
256,192,195583,5,8,0:0:0:0:
256,192,195749,1,2,0:0:0:0:
56,192,195916,5,8,0:0:0:0:
456,191,196082,1,8,0:0:0:0:
256,192,196416,5,8,0:0:0:0:
256,336,196749,1,10,0:0:0:0:
256,48,197082,1,10,0:0:0:0:
256,107,197416,6,0,L|256:192,1,85
256,336,198249,6,0,L|256:256,1,63.75
236,248,198582,6,0,B|172:212|132:304|132:304|56:296|56:212,1,255,4|0,0:0|0:0,0:0:0:0:
56,228,199748,1,2,0:0:0:0:
236,112,200582,2,0,P|268:96|308:92,1,42.5,2|0,0:0|0:0,0:0:0:0:
376,164,200915,2,0,P|344:180|304:184,1,42.5,2|0,0:0|0:0,0:0:0:0:
228,232,201248,6,0,B|220:276|180:312|180:312|240:308|292:328|292:328|360:312,1,255,4|0,0:0|0:0,0:0:0:0:
376,304,202415,1,0,0:0:0:0:
416,284,202582,5,4,0:0:0:0:
468,168,203082,1,4,0:0:0:0:
412,56,203582,2,0,P|374:36|312:40,1,85,4|4,0:0|0:0,0:0:0:0:
276,148,204248,6,0,L|232:96,1,42.5,0|2,0:0|0:0,0:0:0:0:
336,284,204915,2,0,L|388:240,1,42.5,0|2,0:0|0:0,0:0:0:0:
364,172,205248,1,4,0:0:0:0:
292,220,205415,2,0,P|264:256|264:312,1,85,2|2,0:0|0:0,0:0:0:0:
252,336,206082,2,0,P|200:336|168:316,1,85
140,292,206582,5,4,0:0:0:0:
132,284,207082,1,4,0:0:0:0:
123,274,207582,2,0,B|113:234|113:234|87:210|87:210|95:170|79:122,1,148.75,4|0,0:0|0:0,0:0:0:0:
67,111,208248,6,0,L|99:91,1,21.25
113,85,208415,2,0,L|153:93,9,21.25
196,84,209248,6,0,P|248:88|284:84,1,63.7500024318696,2|0,0:0|0:0,0:0:0:0:
348,124,209581,2,0,P|352:72|348:36,1,63.7500024318696,8|0,0:0|0:0,0:0:0:0:
252,183,209914,2,0,P|248:215|248:247,1,63.7500024318696,2|0,0:0|0:0,0:0:0:0:
404,223,210248,2,0,P|372:219|340:219,1,63.7500024318696,8|0,0:0|0:0,0:0:0:0:
328,244,210498,1,0,0:0:0:0:
307,267,210581,1,0,0:0:0:0:
279,284,210664,1,0,0:0:0:0:
248,291,210748,1,0,0:0:0:0:
217,288,210831,1,0,0:0:0:0:
188,275,210914,1,0,0:0:0:0:
164,254,210998,1,0,0:0:0:0:
148,227,211081,1,0,0:0:0:0:
141,196,211164,1,0,0:0:0:0:
144,168,211248,6,0,L|187:144,1,31.8750012159348,2|0,0:0|0:0,0:0:0:0:
184,108,211414,2,0,L|231:121,1,31.8750012159348
254,93,211581,2,0,L|278:136,1,31.8750012159348,8|0,0:0|0:0,0:0:0:0:
314,131,211748,2,0,L|300:178,1,31.8750012159348
328,201,211914,6,0,P|376:192|408:176,1,63.7500024318696,4|0,0:0|0:0,0:0:0:0:
436,104,212248,2,0,P|388:113|356:129,1,63.7500024318696,8|0,0:0|0:0,0:0:0:0:
292,172,212581,1,2,0:0:0:0:
216,232,212748,1,0,0:0:0:0:
128,272,212914,1,8,0:0:0:0:
32,256,213081,1,0,0:0:0:0:
92,180,213248,6,0,L|84:136,2,42.5000016212464,2|2|2,0:0|0:0|0:0,0:0:0:0:
148,148,213581,2,0,L|173:111,2,42.5000016212464,2|2|2,0:0|0:0|0:0,0:0:0:0:
210,164,213914,5,4,0:0:0:0:
296,256,214136,6,0,P|320:276|344:288,1,42.5000016212464,4|0,0:0|0:0,0:0:0:0:
440,324,214414,6,0,P|424:256|436:196,1,127.5,4|0,0:0|0:0,0:0:0:0:
452,176,214748,1,0,0:0:0:0:
424,72,214914,1,8,0:0:0:0:
424,72,215081,2,0,B|376:96|328:80|328:80|264:88,1,127.5,2|0,0:0|0:0,0:0:0:0:
268,84,215414,1,0,0:0:0:0:
304,212,215581,5,10,0:0:0:0:
304,212,215748,2,0,P|272:256|172:268,1,127.5,2|0,0:0|0:0,0:0:0:0:
244,224,216081,2,0,P|190:232|111:170,1,127.5,2|0,0:0|0:0,0:0:0:0:
193,190,216414,2,0,P|149:158|137:58,1,127.5,2|0,0:0|0:0,0:0:0:0:
181,129,216748,6,0,P|172:75|234:-3,1,127.5,4|2,0:0|0:0,0:0:0:0:
206,13,217414,1,0,0:0:0:0:
304,92,217581,2,0,P|316:140|284:192,1,85,8|0,0:0|0:0,0:0:0:0:
200,248,217914,1,2,0:0:0:0:
440,340,218081,1,0,0:0:0:0:
200,248,218248,6,0,L|108:284,1,85,8|0,0:0|0:0,0:0:0:0:
304,336,218914,2,0,L|396:300,1,85,8|0,0:0|0:0,0:0:0:0:
383,305,219164,1,0,0:0:0:0:
383,305,219248,1,2,0:0:0:0:
256,84,219581,1,8,0:0:0:0:
256,212,219748,1,0,0:0:0:0:
256,84,219914,6,0,P|200:72|160:72,1,85,4|0,0:0|0:0,0:0:0:0:
256,212,220248,2,0,P|312:224|352:224,1,85,8|0,0:0|0:0,0:0:0:0:
384,104,220581,1,2,0:0:0:0:
504,60,220748,1,0,0:0:0:0:
480,184,220914,1,8,0:0:0:0:
384,104,221081,1,0,0:0:0:0:
256,212,221248,6,0,P|312:224|352:224,1,85,2|0,0:0|0:0,0:0:0:0:
256,344,221581,2,0,P|199:332|160:332,1,85,8|0,0:0|0:0,0:0:0:0:
184,204,221914,1,2,2:0:0:0:
126,99,222081,1,0,2:0:0:0:
230,43,222248,1,8,2:0:0:0:
288,148,222414,1,0,2:0:0:0:
184,204,222581,6,0,B|168:240|168:240|160:300,1,85,4|0,0:0|0:0,0:0:0:0:
252,220,222914,2,0,B|236:256|236:256|228:316,1,85,8|0,0:0|0:0,0:0:0:0:
320,236,223248,2,0,B|304:272|304:272|296:332,1,85,2|0,0:0|0:0,0:0:0:0:
388,252,223581,2,0,B|372:288|372:288|364:348,1,85,8|0,0:0|0:0,0:0:0:0:
328,180,223914,6,0,B|343:144|343:144|352:84,1,85,2|0,0:0|0:0,0:0:0:0:
260,164,224247,2,0,B|276:128|276:128|283:68,1,85,8|0,0:0|0:0,0:0:0:0:
192,148,224581,2,0,B|208:112|208:112|216:52,1,85,2|0,0:0|0:0,0:0:0:0:
124,132,224914,2,0,B|139:96|139:96|148:36,1,85,8|0,0:0|0:0,0:0:0:0:
144,188,225247,5,2,0:0:0:0:
144,333,225414,1,0,0:0:0:0:
229,216,225581,1,8,0:0:0:0:
92,260,225747,1,0,0:0:0:0:
229,304,225914,1,2,0:0:0:0:
264,328,226081,2,0,L|369:396,1,85,0|8,0:0|0:0,0:0:0:0:
432,336,226414,1,0,0:0:0:0:
397,312,226581,6,0,L|292:244,1,85,2|0,0:0|0:0,0:0:0:0:
196,260,226914,1,8,0:0:0:0:
264,152,227081,1,0,0:0:0:0:
428,52,227247,1,2,0:0:0:0:
388,68,227414,2,0,L|296:52,1,85,0|8,0:0|0:0,0:0:0:0:
176,60,227747,1,0,0:0:0:0:
140,184,227914,6,0,P|112:228|104:296,1,85,2|0,0:0|0:0,0:0:0:0:
248,336,228247,2,0,P|276:292|284:223,1,85,8|0,0:0|0:0,0:0:0:0:
264,132,228581,1,4,0:0:0:0:
272,100,229247,1,4,0:0:0:0:
280,68,229914,2,0,L|324:64,7,42.5,4|0|0|0|0|0|0|0,0:0|0:0|0:0|0:0|0:0|0:0|0:0|0:0,0:0:0:0:
388,60,230581,5,8,0:0:0:0:
468,232,230747,1,8,0:0:0:0:
124,324,231081,5,8,0:0:0:0:
44,152,231247,1,8,0:0:0:0:
60,280,231414,5,8,0:0:0:0:
188,280,231581,2,0,L|232:288,1,42.5,8|0,0:0|0:0,0:0:0:0:
292,304,231747,2,0,P|320:332|368:340,1,85,0|2,0:0|0:0,0:0:0:0:
420,244,232081,5,0,0:0:0:0:
420,224,232164,1,0,0:0:0:0:
412,204,232247,1,0,0:0:0:0:
400,184,232331,1,0,0:0:0:0:
384,168,232414,5,0,0:0:0:0:
364,156,232497,1,0,0:0:0:0:
344,152,232581,1,0,0:0:0:0:
324,152,232664,1,0,0:0:0:0:
304,156,232747,5,0,0:0:0:0:
284,164,232831,1,0,0:0:0:0:
268,180,232914,1,0,0:0:0:0:
252,196,232997,1,0,0:0:0:0:
236,212,233080,5,0,0:0:0:0:
216,220,233164,1,0,0:0:0:0:
196,224,233247,1,0,0:0:0:0:
176,224,233330,1,0,0:0:0:0:
156,220,233414,5,0,0:0:0:0:
136,208,233497,1,0,0:0:0:0:
120,192,233580,1,0,0:0:0:0:
108,171,233664,1,0,0:0:0:0:
100,152,233747,1,0,0:0:0:0:
100,132,233830,1,0,0:0:0:0:
108,108,233914,5,2,0:0:0:0:
134,121,233997,5,2,0:0:0:0:
160,134,234081,5,2,0:0:0:0:
187,147,234164,5,2,0:0:0:0:
213,160,234247,5,2,0:0:0:0:
240,174,234331,5,2,0:0:0:0:
266,187,234414,5,2,0:0:0:0:
292,200,234497,5,2,0:0:0:0:
319,213,234581,5,2,0:0:0:0:
345,226,234664,5,2,0:0:0:0:
367,235,234747,5,2,0:0:0:0:
394,248,234831,5,2,0:0:0:0:
420,262,234914,5,2,0:0:0:0:
256,248,235581,6,0,L|256:288,1,31.875
256,356,235914,6,0,P|200:360|144:328,1,101.999996887207,4|2,0:0|0:0,0:0:0:0:
88,208,236247,1,8,0:0:0:0:
44,356,236414,1,2,0:0:0:0:
256,247,236580,2,0,P|257:197|243:148,1,101.999996887207,2|2,0:0|0:0,0:0:0:0:
152,136,236914,5,8,0:0:0:0:
312,300,237080,1,2,0:0:0:0:
312,300,237164,1,0,0:0:0:0:
312,300,237247,1,2,0:0:0:0:
208,64,237414,1,2,0:0:0:0:
208,64,237497,1,0,0:0:0:0:
208,64,237580,1,8,0:0:0:0:
188,216,237747,1,2,0:0:0:0:
312,300,237914,2,0,B|388:308|388:308|416:296,1,101.999996887207,2|2,0:0|0:0,0:0:0:0:
480,80,238247,2,0,B|404:72|404:72|376:84,1,101.999996887207,8|2,0:0|0:0,0:0:0:0:
428,228,238580,5,4,0:0:0:0:
292,156,238747,1,2,0:0:0:0:
156,228,238914,1,8,0:0:0:0:
20,156,239081,1,2,0:0:0:0:
152,80,239247,2,0,L|256:52,1,85,2|2,0:0|0:0,0:0:0:0:
312,84,239497,1,0,0:0:0:0:
312,84,239580,2,0,P|356:112|364:176,1,101.999996887207,8|2,0:0|0:0,0:0:0:0:
276,284,239914,6,0,L|226:295,3,50.9999984436036,2|0|0|0,0:0|0:0|0:0|0:0,0:0:0:0:
176,352,240247,2,0,L|132:324,3,50.9999984436036,8|0|0|0,0:0|0:0|0:0|0:0,0:0:0:0:
57,329,240580,1,2,0:0:0:0:
44,296,240664,1,0,0:0:0:0:
40,260,240747,1,0,0:0:0:0:
44,224,240830,1,0,0:0:0:0:
64,192,240914,2,0,L|16:160,1,50.9999984436036,8|0,0:0|0:0,0:0:0:0:
144,256,241080,6,0,P|164:176|84:92,1,203.999993774414,2|2,0:0|0:0,0:0:0:0:
12,84,241497,1,0,0:0:0:0:
12,84,241580,2,0,L|132:36,1,101.999996887207,8|2,0:0|0:0,0:0:0:0:
332,28,241914,1,2,0:0:0:0:
228,140,242080,1,2,0:0:0:0:
376,172,242247,1,8,0:0:0:0:
376,172,242414,6,0,P|352:248|372:328,1,152.999995330811,2|0,0:0|0:0,0:0:0:0:
424,368,242747,2,0,P|284:300|260:304,1,152.999995330811,2|0,0:0|0:0,0:0:0:0:
224,328,243080,2,0,L|116:328,1,101.999996887207,2|2,0:0|0:0,0:0:0:0:
40,196,243414,1,2,0:0:0:0:
48,232,243497,1,0,0:0:0:0:
56,268,243580,1,8,0:0:0:0:
124,132,243747,1,2,0:0:0:0:
256,56,243914,6,0,P|312:68|384:56,1,101.999996887207,2|2,0:0|0:0,0:0:0:0:
365,131,244247,6,0,P|306:135|248:125,1,118.999996368408,8|2,0:0|0:0,0:0:0:0:
237,192,244580,6,0,P|302:203|397:192,1,136,2|2,0:0|0:0,0:0:0:0:
377,265,244914,6,0,P|301:272|226:260,1,152.999995330811,8|2,0:0|0:0,0:0:0:0:
256,56,245247,5,2,0:0:0:0:
365,131,245414,1,2,0:0:0:0:
237,192,245580,1,8,0:0:0:0:
377,265,245747,1,2,0:0:0:0:
160,316,245914,5,0,0:0:0:0:
121,315,245997,1,0,0:0:0:0:
85,303,246080,1,0,0:0:0:0:
58,277,246164,1,0,0:0:0:0:
45,241,246247,1,8,0:0:0:0:
53,205,246330,1,0,0:0:0:0:
68,169,246414,1,0,0:0:0:0:
82,134,246497,1,0,0:0:0:0:
97,99,246580,6,0,P|152:92|224:68,1,101.999996887207,4|2,0:0|0:0,0:0:0:0:
308,76,246914,1,8,0:0:0:0:
148,180,247080,1,2,0:0:0:0:
128,24,247247,1,2,0:0:0:0:
304,96,247414,1,2,0:0:0:0:
144,200,247580,5,8,0:0:0:0:
272,216,247747,1,2,0:0:0:0:
312,204,247830,1,0,0:0:0:0:
352,192,247914,1,2,0:0:0:0:
452,272,248080,1,2,0:0:0:0:
412,284,248163,1,0,0:0:0:0:
372,296,248247,1,8,0:0:0:0:
304,96,248414,1,2,0:0:0:0:
272,216,248580,6,0,L|272:332,1,101.999996887207,2|2,0:0|0:0,0:0:0:0:
452,272,248914,2,0,L|452:164,1,101.999996887207,8|2,0:0|0:0,0:0:0:0:
332,144,249247,5,4,0:0:0:0:
180,240,249414,1,2,0:0:0:0:
340,102,249580,1,8,0:0:0:0:
171,281,249747,1,2,0:0:0:0:
348,60,249914,1,2,0:0:0:0:
163,323,250081,1,2,0:0:0:0:
64,160,250247,1,8,0:0:0:0:
69,118,250330,1,0,0:0:0:0:
95,85,250413,1,2,0:0:0:0:
134,71,250497,1,0,0:0:0:0:
175,80,250580,6,0,L|212:40,1,50.9999984436036,2|0,0:0|0:0,0:0:0:0:
289,222,250747,2,0,L|288:276,1,50.9999984436036,2|0,0:0|0:0,0:0:0:0:
386,81,250913,2,0,L|336:80,1,50.9999984436036,8|0,0:0|0:0,0:0:0:0:
237,147,251080,2,0,L|188:172,1,50.9999984436036,2|0,0:0|0:0,0:0:0:0:
140,278,251247,2,0,P|110:313|48:336,1,101.999996887207,8|2,0:0|0:0,0:0:0:0:
144,152,251580,5,8,0:0:0:0:
220,252,251747,1,2,0:0:0:0:
260,264,251830,1,0,0:0:0:0:
300,276,251913,1,4,0:0:0:0:
376,376,252080,1,2,0:0:0:0:
204,92,252247,5,8,0:0:0:0:
280,192,252414,1,2,0:0:0:0:
320,204,252497,1,0,0:0:0:0:
360,216,252580,1,4,0:0:0:0:
436,316,252747,1,2,0:0:0:0:
264,32,252913,5,8,0:0:0:0:
340,132,253080,1,2,0:0:0:0:
380,144,253163,1,0,0:0:0:0:
420,156,253246,1,4,0:0:0:0:
280,192,253413,5,2,0:0:0:0:
320,204,253496,1,0,0:0:0:0:
360,216,253579,1,4,0:0:0:0:
220,252,253747,5,2,0:0:0:0:
260,264,253830,1,0,0:0:0:0:
300,276,253913,1,4,0:0:0:0:
420,156,254080,6,0,B|328:128|328:128|296:64|200:64,1,212.5,4|0,0:0|0:0,0:0:0:0:
172,52,254580,6,0,B|96:72|96:72|36:128,1,152.999995330811,4|0,0:0|0:0,0:0:0:0:
16,236,254913,2,0,L|80:268,1,50.9999984436036,8|0,0:0|0:0,0:0:0:0:
96,320,255080,2,0,L|96:164,1,152.999995330811,2|0,0:0|0:0,0:0:0:0:
196,111,255413,2,0,L|144:128,1,50.9999984436036,2|0,0:0|0:0,0:0:0:0:
164,196,255580,2,0,L|268:160,1,101.999996887207,8|0,0:0|0:0,0:0:0:0:
316,84,255913,5,2,0:0:0:0:
284,260,256080,1,2,0:0:0:0:
464,104,256247,1,8,0:0:0:0:
384,288,256414,1,2,0:0:0:0:
238,92,256580,2,0,P|253:131|308:160,1,101.999996887207,2|0,0:0|0:0,0:0:0:0:
460,244,256913,1,8,0:0:0:0:
460,244,256997,1,0,0:0:0:0:
460,244,257080,1,2,0:0:0:0:
460,244,257163,1,0,0:0:0:0:
460,244,257247,5,4,0:0:0:0:
388,348,257413,1,0,0:0:0:0:
380,220,257580,1,8,0:0:0:0:
272,288,257746,1,0,0:0:0:0:
160,224,257913,1,2,0:0:0:0:
156,352,258080,1,0,0:0:0:0:
254,187,258247,2,0,L|256:55,1,127.5,8|0,0:0|0:0,0:0:0:0:
295,76,258580,6,0,P|254:89|216:76,1,85,4|0,0:0|0:0,0:0:0:0:
136,44,258913,1,8,0:0:0:0:
72,100,259080,1,0,0:0:0:0:
254,187,259247,6,0,P|213:200|175:187,1,85,2|0,0:0|0:0,0:0:0:0:
95,155,259580,1,8,0:0:0:0:
31,211,259747,1,0,0:0:0:0:
323,134,259913,5,4,0:0:0:0:
331,238,260080,1,0,0:0:0:0:
235,278,260247,1,8,0:0:0:0:
167,199,260413,1,0,0:0:0:0:
221,110,260580,5,2,0:0:0:0:
323,134,260913,1,8,0:0:0:0:
221,110,261247,5,4,0:0:0:0:
167,199,261413,1,0,0:0:0:0:
235,278,261580,1,8,0:0:0:0:
331,238,261747,1,0,0:0:0:0:
108,203,261913,5,4,0:0:0:0:
368,96,262080,1,2,0:0:0:0:
221,335,262247,1,8,0:0:0:0:
199,55,262414,1,2,0:0:0:0:
381,268,262580,1,4,0:0:0:0:
256,192,262664,12,0,265247,0:0:0:0:
300,76,266247,6,0,P|244:108|184:88,1,127.5,8|0,0:0|0:0,0:0:0:0:
148,76,266580,6,0,L|76:64,1,42.5,2|0,0:0|0:0,0:0:0:0:
88,152,266747,2,0,L|28:194,1,42.5,2|0,0:0|0:0,0:0:0:0:
99,248,266913,1,8,0:0:0:0:
168,196,267080,2,0,P|240:208|272:280,1,127.5
296,308,267413,2,0,L|396:276,1,85,0|8,0:0|0:0,0:0:0:0:
472,184,267747,1,0,0:0:0:0:
472,184,267830,1,0,0:0:0:0:
472,184,267913,6,0,P|440:124|392:104,1,85,4|0,0:0|0:0,0:0:0:0:
271,107,268247,2,0,P|285:147|316:176,1,85,8|0,0:0|0:0,0:0:0:0:
427,115,268580,2,0,L|508:64,1,85,2|0,0:0|0:0,0:0:0:0:
316,176,268913,2,0,L|235:227,1,85,8|0,0:0|0:0,0:0:0:0:
144,304,269247,5,2,0:0:0:0:
264,348,269413,1,0,0:0:0:0:
144,200,269580,1,8,0:0:0:0:
320,272,269747,1,0,0:0:0:0:
320,272,269830,1,0,0:0:0:0:
320,272,269913,1,2,0:0:0:0:
440,224,270080,1,0,0:0:0:0:
264,348,270247,2,0,P|228:292|240:220,1,127.5,8|0,0:0|0:0,0:0:0:0:
268,180,270580,6,0,L|220:104,1,85,4|0,0:0|0:0,0:0:0:0:
348,96,270913,2,0,L|395:172,1,85,8|0,0:0|0:0,0:0:0:0:
258,168,271247,2,0,L|231:82,1,85,2|0,0:0|0:0,0:0:0:0:
357,107,271580,2,0,L|384:193,1,85,8|0,0:0|0:0,0:0:0:0:
304,288,271913,6,0,L|252:328,3,42.5,2|0|0|0,0:0|0:0|0:0|0:0,0:0:0:0:
216,280,272247,2,0,L|155:305,3,42.5,8|0|0|0,0:0|0:0|0:0|0:0,0:0:0:0:
133,249,272580,2,0,L|67:257,3,42.5,2|0|0|0,0:0|0:0|0:0|0:0,0:0:0:0:
60,197,272913,1,8,0:0:0:0:
60,197,272997,1,0,0:0:0:0:
60,197,273080,1,0,0:0:0:0:
60,197,273163,1,0,0:0:0:0:
60,197,273247,6,0,P|67:147|111:115,1,85,4|0,0:0|0:0,0:0:0:0:
204,196,273580,1,8,0:0:0:0:
207,68,273747,1,0,0:0:0:0:
227,62,273830,1,0,0:0:0:0:
247,57,273913,1,2,0:0:0:0:
267,51,273997,1,0,0:0:0:0:
287,46,274080,1,0,0:0:0:0:
294,172,274247,2,0,P|301:214|282:251,1,85,8|0,0:0|0:0,0:0:0:0:
139,253,274580,6,0,P|146:203|190:171,1,85,2|0,0:0|0:0,0:0:0:0:
283,252,274913,1,8,0:0:0:0:
286,124,275080,1,0,0:0:0:0:
306,118,275163,1,0,0:0:0:0:
326,113,275246,1,2,0:0:0:0:
346,107,275330,1,0,0:0:0:0:
366,102,275413,1,0,0:0:0:0:
374,229,275580,2,0,P|380:273|357:312,1,85,2|0,0:0|0:0,0:0:0:0:
236,335,275913,6,0,L|132:335,1,85,2|0,0:0|0:0,0:0:0:0:
92,220,276247,1,8,0:0:0:0:
199,324,276413,6,0,L|99:298,1,85,0|2,0:0|0:0,0:0:0:0:
78,135,276747,1,0,0:0:0:0:
167,305,276913,6,0,L|17:219,1,170,8|2,0:0|0:0,0:0:0:0:
78,135,277413,6,0,L|20:136,1,42.5
143,66,277580,2,0,B|187:116|163:176|163:176|180:204|209:217,1,170,4|8,0:0|0:0,0:0:0:0:
232,236,277997,1,0,0:0:0:0:
272,252,278080,1,0,0:0:0:0:
312,260,278163,1,0,0:0:0:0:
356,260,278247,1,2,0:0:0:0:
356,260,278330,1,2,0:0:0:0:
356,260,278413,1,2,0:0:0:0:
356,260,278497,1,2,0:0:0:0:
356,260,278580,6,0,P|380:308|412:316,2,85,4|0|8,0:0|0:0|0:0,0:0:0:0:
302,81,279080,2,0,L|232:236,1,170
236,300,279497,1,0,0:0:0:0:
236,300,279580,2,0,P|192:328|128:320,1,85,8|0,0:0|0:0,0:0:0:0:
64,244,279913,6,0,P|108:216|172:224,2,85,2|0|8,0:0|0:0|0:0,0:0:0:0:
64,244,280413,2,0,P|60:160|124:96,1,170
232,152,280913,1,8,0:0:0:0:
272,128,280997,1,0,0:0:0:0:
312,104,281080,1,0,0:0:0:0:
352,80,281163,1,0,0:0:0:0:
392,56,281247,5,4,0:0:0:0:
432,176,281413,1,2,0:0:0:0:
336,260,281580,1,2,0:0:0:0:
422,95,281747,5,4,0:0:0:0:
430,222,281913,1,2,0:0:0:0:
315,278,282080,1,2,0:0:0:0:
441,142,282247,5,4,0:0:0:0:
416,266,282413,1,2,0:0:0:0:
291,290,282580,1,2,0:0:0:0:
448,192,282747,5,4,0:0:0:0:
391,305,282913,1,2,0:0:0:0:
264,296,283080,1,2,0:0:0:0:
392,56,283247,5,4,0:0:0:0:
264,296,283413,1,4,0:0:0:0:
422,95,283580,1,4,0:0:0:0:
237,295,283747,1,4,0:0:0:0:
