osu file format v13

[General]
AudioFilename: fuss fuzz.mp3
AudioLeadIn: 500
PreviewTime: 64176
Countdown: 0
SampleSet: Soft
StackLeniency: 0.6
Mode: 0
LetterboxInBreaks: 0
WidescreenStoryboard: 0

[Editor]
DistanceSpacing: 1
BeatDivisor: 3
GridSize: 4
TimelineZoom: 5.899995

[Metadata]
Title:fuss fuzz
TitleUnicode:fuss fuzz
Artist:Kurosaki Maon
ArtistUnicode:黒崎真音
Creator:thou bad
Version:Insane
Source:学園黙示録 HIGHSCHOOL OF THE DEAD
Tags:HOTD ending7 Fycho
BeatmapID:389142
BeatmapSetID:159212

[Difficulty]
HPDrainRate:7
CircleSize:4
OverallDifficulty:7
ApproachRate:8.5
SliderMultiplier:1.4
SliderTickRate:1

[Events]
//Background and Video events
0,0,"bg.jpg",0,0
//Break Periods
//Storyboard Layer 0 (Background)
//Storyboard Layer 1 (Fail)
//Storyboard Layer 2 (Pass)
//Storyboard Layer 3 (Foreground)
//Storyboard Sound Samples
//Background Colour Transformations
3,100,0,128,255

[TimingPoints]
1650,315.789473684211,4,2,1,55,1,0
25650,-100,4,2,1,50,0,0
25860,-100,4,2,1,40,0,0
25965,-100,4,2,1,70,0,0
43018,-200,4,2,1,70,0,0
43544,-100,4,2,1,70,0,0
45544,-200,4,2,1,70,0,0
46071,-100,4,2,1,70,0,0
48071,-200,4,2,1,70,0,0
48597,-100,4,2,1,70,0,0
53123,-200,4,2,1,70,0,0
53650,-100,4,2,1,70,0,0
55650,-200,4,2,1,70,0,0
56176,-100,4,2,1,70,0,0
63228,-100,4,2,1,40,0,0
63439,-100,4,2,1,70,0,0
64176,-100,4,2,1,30,0,0
64807,-100,4,2,1,70,0,1
84058,315.789473684211,4,2,1,70,1,1
85005,315.789473684211,4,2,1,70,1,0
110268,-100,4,2,1,30,0,0

[Colours]
Combo1 : 192,192,192
Combo2 : 0,198,0
Combo3 : 128,128,192
Combo4 : 240,0,0

[HitObjects]
85,222,1649,5,4,0:3:0:0:
85,222,1965,1,0,1:0:0:0:
85,222,2281,2,0,P|150:243|204:200,1,140,0|0,0:0|1:0,0:0:0:0:
247,89,2807,1,0,0:0:0:0:
424,40,3123,1,0,0:0:0:0:
448,80,3228,2,0,L|432:172,1,93.3333333333333,0|0,1:0|0:0,0:0:0:0:
456,212,3544,2,0,B|405:199|405:199|370:232|324:221,1,140,0|0,0:0|1:0,0:0:0:0:
196,192,4071,5,0,0:0:0:0:
151,172,4176,1,4,0:3:0:0:
324,221,4492,1,0,1:0:0:0:
448,80,4807,1,0,0:0:0:0:
508,257,5123,1,0,1:0:0:0:
400,313,5334,1,0,0:0:0:0:
222,274,5650,1,0,0:0:0:0:
180,296,5755,2,0,P|135:306|92:290,1,93.3333333333333,0|0,1:0|0:0,0:0:0:0:
64,252,6071,2,0,L|36:112,1,140,0|0,0:0|1:0,0:0:0:0:
140,48,6597,5,0,0:0:0:0:
140,48,6702,2,0,L|140:196,2,140,4|0|0,0:3|1:0|0:0,0:0:0:0:
256,192,7650,1,0,1:0:0:0:
308,84,7860,1,0,0:0:0:0:
483,36,8176,1,0,0:0:0:0:
483,36,8281,2,0,L|464:127,1,93.3333333333333,0|0,1:0|0:0,0:0:0:0:
437,215,8597,2,0,L|418:123,1,93.3333333333333,0|0,0:0|1:0,0:0:0:0:
483,212,8913,2,0,L|464:303,1,93.3333333333333,0|0,1:0|0:0,0:0:0:0:
487,344,9228,5,4,0:3:0:0:
307,311,9544,1,0,1:0:0:0:
127,344,9860,1,0,0:0:0:0:
23,194,10176,1,0,1:0:0:0:
141,220,10386,1,4,0:3:0:0:
164,204,10702,1,0,0:0:0:0:
187,189,11018,5,4,0:3:0:0:
211,173,11123,1,0,0:0:0:0:
421,181,11334,1,4,0:3:0:0:
397,196,11439,1,0,1:0:0:0:
23,194,11755,5,4,0:3:0:0:
23,194,12071,1,0,1:0:0:0:
23,194,12386,2,0,P|88:215|142:172,1,140,4|0,0:3|1:0,0:0:0:0:
64,79,12913,1,4,0:3:0:0:
239,33,13228,1,4,0:3:0:0:
275,63,13334,2,0,L|379:48,1,93.3333333333333,0|0,1:0|0:0,0:0:0:0:
402,79,13650,2,0,P|446:131|429:197,1,140,4|0,0:3|1:0,0:0:0:0:
484,308,14176,5,0,0:0:0:0:
484,308,14281,1,4,0:3:0:0:
312,244,14597,1,0,1:0:0:0:
208,304,14807,1,0,0:0:0:0:
208,304,14913,2,0,P|139:316|77:253,1,140,4|0,0:3|1:0,0:0:0:0:
48,160,15439,1,4,0:3:0:0:
172,28,15755,1,4,0:3:0:0:
156,71,15860,1,0,1:0:0:0:
380,88,16176,2,0,P|311:75|242:85,1,140,4|0,0:3|1:0,0:0:0:0:
48,160,16807,5,4,0:3:0:0:
48,160,17123,1,0,1:0:0:0:
48,160,17439,2,0,P|117:173|186:163,1,140,4|0,0:3|1:0,0:0:0:0:
300,124,17965,1,4,0:3:0:0:
448,20,18281,1,4,0:3:0:0:
416,56,18386,2,0,L|428:156,1,93.3333333333333,0|0,1:0|0:0,0:0:0:0:
460,184,18702,2,0,P|396:160|332:188,1,140,4|0,0:3|1:0,0:0:0:0:
236,327,19228,5,0,0:0:0:0:
276,303,19334,2,0,L|293:211,1,93.3333333333333,4|4,0:3|0:3,0:0:0:0:
333,187,19650,1,0,1:0:0:0:
373,73,19860,1,4,0:3:0:0:
196,117,20176,1,0,1:0:0:0:
196,117,20281,2,0,L|104:127,1,93.3333333333333,4|4,0:3|0:3,0:0:0:0:
154,36,20597,2,0,L|246:26,1,93.3333333333333,0|4,1:0|0:3,0:0:0:0:
377,182,21123,6,0,L|237:198,1,140,4|4,0:3|0:3,0:0:0:0:
210,201,21544,1,0,1:0:0:0:
182,204,21650,1,0,1:0:0:0:
154,207,21755,1,0,1:0:0:0:
126,210,21860,5,4,1:0:0:0:
265,326,22176,1,0,1:0:0:0:
377,182,22492,2,0,P|388:113|353:55,1,140,4|0,0:3|1:0,0:0:0:0:
240,13,23018,1,4,0:3:0:0:
74,89,23334,1,4,0:3:0:0:
74,89,23439,2,0,P|87:129|75:184,1,93.3333333333333,0|0,1:0|0:0,0:0:0:0:
52,219,23755,2,0,L|188:147,1,140,4|0,0:3|1:0,0:0:0:0:
460,165,24386,6,0,L|324:237,1,140,4|0,0:3|1:0,0:0:0:0:
170,317,25018,2,0,P|154:277|164:222,1,93.3333333333333,4|0,0:3|0:0,0:0:0:0:
184,188,25334,1,0,1:0:0:0:
16,268,25544,1,4,0:3:0:0:
39,227,25650,2,0,P|46:182|30:139,1,93.3333333333333,4|4,0:3|0:3,0:0:0:0:
0,99,25965,2,0,P|63:128|128:110,1,140,0|4,1:0|0:3,0:0:0:0:
303,76,26597,2,0,P|259:60|207:76,1,93.3333333333333,0|0,1:0|0:0,0:0:0:0:
171,88,26913,5,4,0:3:0:0:
48,212,27228,1,0,1:0:0:0:
206,121,27544,1,4,0:3:0:0:
364,212,27860,1,0,1:0:0:0:
474,160,28071,1,4,0:3:0:0:
409,329,28386,1,4,0:3:0:0:
367,351,28492,2,0,P|322:361|279:345,1,93.3333333333333,0|0,1:0|0:0,0:0:0:0:
239,317,28807,2,0,L|216:227,1,93.3333333333333,4|0,0:3|0:0,0:0:0:0:
206,121,29123,2,0,L|174:208,1,93.3333333333333,0|0,1:0|0:0,0:0:0:0:
132,228,29439,6,0,P|76:260|12:228,2,140,4|0|4,0:3|1:0|0:3,0:0:0:0:
232,160,30281,1,0,1:0:0:0:
206,121,30386,1,0,1:0:0:0:
280,24,30597,1,4,0:3:0:0:
315,54,30702,2,0,P|360:64|403:48,1,93.3333333333333,0|0,1:0|1:0,0:0:0:0:
492,208,31228,1,0,1:0:0:0:
492,208,31334,2,0,L|512:112,1,93.3333333333333,4|4,0:3|0:0,0:0:0:0:
344,196,31860,5,0,1:0:0:0:
360,240,31965,1,4,1:0:0:0:
500,356,32281,1,0,1:0:0:0:
320,328,32597,1,4,0:3:0:0:
140,356,32913,1,0,1:0:0:0:
216,260,33123,1,4,0:3:0:0:
36,288,33439,1,4,0:3:0:0:
36,288,33544,2,0,L|8:200,1,93.3333333333333,0|0,1:0|0:0,0:0:0:0:
52,216,33860,2,0,L|24:128,1,93.3333333333333,4|0,0:3|0:0,0:0:0:0:
68,144,34176,1,0,1:0:0:0:
208,28,34492,5,4,0:3:0:0:
208,28,34807,2,0,P|272:60|332:28,1,140,0|4,1:0|0:3,0:0:0:0:
416,116,35334,1,0,0:0:0:0:
416,116,35439,2,0,L|444:24,1,93.3333333333333,0|4,1:0|0:3,0:0:0:0:
308,148,35965,1,4,0:3:0:0:
308,148,36071,2,0,L|336:240,1,93.3333333333333,0|0,1:0|0:0,0:0:0:0:
368,272,36386,2,0,P|323:262|280:278,1,93.3333333333333,4|0,0:3|0:0,0:0:0:0:
240,304,36702,2,0,P|196:320|151:310,1,93.3333333333333,0|4,1:0|0:3,0:0:0:0:
112,284,37018,5,4,0:3:0:0:
102,274,37334,1,0,1:0:0:0:
92,264,37650,1,4,0:3:0:0:
48,76,37965,1,0,1:0:0:0:
148,144,38176,1,4,0:3:0:0:
292,32,38492,1,4,0:3:0:0:
292,32,38597,1,0,1:0:0:0:
411,49,38807,1,0,0:0:0:0:
411,49,38913,2,0,P|432:90|429:136,1,93.3333333333333,4|0,0:3|0:0,0:0:0:0:
411,177,39228,2,0,P|407:222|429:263,1,93.3333333333333,0|0,1:0|0:0,0:0:0:0:
464,297,39544,6,0,L|372:269,1,93.3333333333333,4|0,0:3|0:0,0:0:0:0:
329,256,39860,1,0,1:0:0:0:
218,305,40071,1,4,0:3:0:0:
48,240,40386,1,4,0:3:0:0:
75,234,40492,1,0,1:0:0:0:
103,228,40597,1,0,1:0:0:0:
129,221,40702,1,0,1:0:0:0:
157,215,40807,5,0,1:0:0:0:
384,279,41018,2,0,P|319:253|244:283,1,140,4|4,0:3|0:3,0:0:0:0:
218,305,41439,1,0,1:0:0:0:
384,279,41650,2,0,P|338:226|342:145,1,140,4|0,0:3|0:0,0:0:0:0:
352,112,42071,1,4,1:0:0:0:
183,44,42386,6,0,P|135:56|91:44,1,93.3333333333333,0|0,1:0|0:0,0:0:0:0:
64,68,42702,2,0,L|40:164,1,93.3333333333333,4|4,0:3|0:3,0:0:0:0:
32,200,43018,6,0,P|84:176|148:200,1,116.666666666667,0|4,1:0|0:3,0:0:0:0:
142,239,43650,6,0,P|90:279|34:245,1,140,0|4,1:0|0:3,0:0:0:0:
64,68,44281,1,0,1:0:0:0:
244,80,44597,2,0,B|292:60|292:60|328:92|384:80,1,140,4|0,0:3|1:0,0:0:0:0:
488,36,45123,2,0,L|464:176,1,140,4|4,0:3|0:3,0:0:0:0:
456,216,45544,6,0,P|404:240|340:216,1,116.666666666667,0|4,1:0|0:3,0:0:0:0:
316,192,46176,6,0,L|332:284,1,93.3333333333333,0|4,1:0|0:3,0:0:0:0:
341,329,46492,1,4,0:3:0:0:
192,224,46807,1,0,1:0:0:0:
40,324,47123,1,4,0:3:0:0:
40,324,47439,1,0,1:0:0:0:
40,324,47755,2,0,L|51:229,1,93.3333333333333,4|4,0:3|0:3,0:0:0:0:
60,143,48071,6,0,L|90:256,1,116.666666666667,0|4,1:0|0:3,0:0:0:0:
129,280,48702,6,0,P|193:302|247:261,2,140,0|4|0,1:0|0:3|1:0,0:0:0:0:
49,114,49650,1,4,0:3:0:0:
49,114,49965,1,0,1:0:0:0:
49,114,50281,2,0,P|93:124|136:108,1,93.3333333333333,4|0,0:3|0:0,0:0:0:0:
178,86,50597,2,0,P|221:70|265:80,1,93.3333333333333,0|4,1:0|0:3,0:0:0:0:
447,106,51123,1,4,0:3:0:0:
428,63,51228,1,0,1:0:0:0:
341,207,51439,1,4,0:3:0:0:
360,164,51544,1,0,0:0:0:0:
447,308,51755,1,4,0:3:0:0:
428,265,51860,1,0,1:0:0:0:
124,327,52176,6,0,P|191:343|252:312,1,140,4|0,0:3|1:0,0:0:0:0:
176,216,52702,1,4,0:3:0:0:
136,192,52807,2,0,L|115:93,1,93.3333333333333,0|4,0:0|0:3,0:0:0:0:
102,13,53123,6,0,L|79:128,1,116.666666666667,0|4,1:0|0:3,0:0:0:0:
41,155,53755,5,0,1:0:0:0:
124,327,54071,2,0,P|188:359|248:327,1,140,4|0,0:3|1:0,0:0:0:0:
388,57,54702,2,0,P|324:25|264:57,1,140,4|0,0:3|1:0,0:0:0:0:
175,137,55228,1,0,0:0:0:0:
134,161,55334,2,0,P|89:172|45:158,1,93.3333333333333,4|4,0:3|0:3,0:0:0:0:
5,133,55650,6,0,L|34:246,1,116.666666666667,0|4,1:0|0:3,0:0:0:0:
7,284,56281,6,0,P|72:265|135:293,2,140,0|4|0,1:0|0:3|1:0,0:0:0:0:
134,161,57228,2,0,L|256:92,1,140,4|0,0:3|1:0,0:0:0:0:
404,200,57860,2,0,P|345:169|264:212,1,140,4|0,0:3|1:0,0:0:0:0:
185,270,58386,1,4,0:3:0:0:
21,188,58702,1,4,0:3:0:0:
21,188,58807,2,0,L|57:98,1,93.3333333333333,0|4,1:0|0:3,0:0:0:0:
90,70,59123,2,0,P|132:53|177:63,1,93.3333333333333,4|4,0:3|0:3,0:0:0:0:
215,89,59439,1,0,1:0:0:0:
371,182,59755,5,4,0:3:0:0:
371,182,60071,1,0,1:0:0:0:
371,182,60386,2,0,P|439:185|472:125,1,140,4|0,0:3|1:0,0:0:0:0:
372,56,60913,2,0,L|232:32,1,140,4|4,0:3|0:3,0:0:0:0:
188,24,61334,1,0,1:0:0:0:
224,140,61544,1,0,0:0:0:0:
224,140,61650,1,4,0:3:0:0:
125,212,61860,1,4,0:3:0:0:
115,238,61965,1,0,1:0:0:0:
105,264,62071,1,0,1:0:0:0:
95,290,62176,1,0,1:0:0:0:
84,316,62281,6,0,P|125:297|174:301,1,93.3333333333333,4|0,1:2|0:0,0:0:0:0:
215,314,62597,1,0,1:0:0:0:
262,314,62702,1,0,1:0:0:0:
306,300,62807,1,0,1:0:0:0:
344,273,62913,1,0,1:0:0:0:
439,53,63123,1,4,0:3:0:0:
439,53,63228,2,0,L|428:148,1,93.3333333333333,0|0,0:0|1:0,0:0:0:0:
80,128,64176,5,2,0:3:0:0:
80,128,64492,1,2,0:3:0:0:
80,128,64807,2,0,P|138:151|188:100,1,140,4|0,1:0|1:0,0:0:0:0:
432,256,65439,2,0,P|373:232|323:283,1,140,4|0,0:3|1:0,0:0:0:0:
220,344,65965,2,0,B|164:328|164:328|132:352|84:344,1,140,4|4,0:3|0:3,0:0:0:0:
40,336,66386,1,0,1:0:0:0:
152,192,66702,1,4,0:3:0:0:
40,48,67018,1,0,1:0:0:0:
180,168,67334,6,0,B|220:173|220:173|270:144|267:90,1,140,4|0,0:3|1:0,0:0:0:0:
161,31,67860,1,0,0:0:0:0:
161,31,67965,1,4,0:3:0:0:
42,169,68176,1,0,0:0:0:0:
42,169,68281,2,0,L|56:264,1,93.3333333333333,0|4,1:0|0:3,0:0:0:0:
204,368,68807,1,4,0:3:0:0:
204,368,68913,2,0,L|217:275,1,93.3333333333333,0|0,1:0|0:0,0:0:0:0:
233,252,69228,1,4,0:3:0:0:
250,230,69334,1,0,1:0:0:0:
266,207,69439,1,0,1:0:0:0:
283,184,69544,1,0,1:0:0:0:
220,72,69755,5,0,0:0:0:0:
220,72,69860,2,0,P|280:100|332:56,2,140,4|0|4,0:3|1:0|0:3,0:0:0:0:
48,132,70807,1,0,1:0:0:0:
108,240,71018,1,4,0:3:0:0:
92,284,71123,1,0,0:0:0:0:
212,304,71334,1,4,0:3:0:0:
228,348,71439,1,0,1:0:0:0:
460,279,71755,2,0,P|394:259|328:280,1,140,4|0,0:3|1:0,0:0:0:0:
95,348,72386,6,0,P|161:368|228:348,1,140,4|0,0:3|1:0,0:0:0:0:
328,280,72913,2,0,B|352:236|336:188|336:188|372:160,1,140
408,132,73334,1,0,1:0:0:0:
324,44,73544,2,0,L|184:64,1,140,4|0,0:3|1:0,0:0:0:0:
139,72,73965,2,0,P|168:105|169:154,1,93.3333333333333,4|4,0:3|0:3,0:0:0:0:
153,195,74281,5,0,1:0:0:0:
163,240,74386,1,0,1:0:0:0:
194,273,74492,1,0,1:0:0:0:
239,284,74597,1,0,1:0:0:0:
283,269,74702,1,0,1:0:0:0:
312,233,74807,1,0,1:0:0:0:
318,188,74913,6,0,P|339:130|408:131,1,140,4|0,1:0|1:0,0:0:0:0:
396,313,75544,1,4,0:3:0:0:
284,360,75755,1,0,0:0:0:0:
284,360,75860,1,0,1:0:0:0:
195,273,76071,2,0,P|135:241|75:273,1,140,4|4,0:3|0:3,0:0:0:0:
54,313,76492,2,0,L|28:175,1,140,0|4,1:0|0:3,0:0:0:0:
123,20,77123,1,0,1:0:0:0:
300,60,77439,6,0,B|356:44|356:44|388:68|436:60,1,140,4|0,0:3|1:0,0:0:0:0:
508,160,77965,2,0,B|452:176|452:176|420:152|372:160,1,140,0|0,0:0|0:0,0:0:0:0:
328,168,78386,1,0,1:0:0:0:
228,240,78597,2,0,P|169:270|120:228,1,140,4|4,0:3|0:3,0:0:0:0:
112,180,79018,2,0,L|98:87,1,93.3333333333333,0|4,1:0|0:3,0:0:0:0:
119,70,79334,1,4,0:3:0:0:
141,52,79439,1,0,1:0:0:0:
163,35,79544,1,0,1:0:0:0:
185,17,79650,2,0,L|199:110,1,93.3333333333333,0|0,1:0|0:0,0:0:0:0:
235,137,79965,5,4,0:3:0:0:
347,182,80176,1,0,0:0:0:0:
347,182,80281,1,0,1:0:0:0:
254,179,80597,5,4,0:3:0:0:
422,234,80807,1,0,0:0:0:0:
422,234,80913,1,0,1:0:0:0:
273,221,81228,5,4,0:3:0:0:
497,286,81439,1,0,0:0:0:0:
497,286,81544,1,0,1:0:0:0:
292,263,81860,6,0,P|248:279|204:267,1,93.3333333333333,4|4,0:3|0:3,0:0:0:0:
75,246,82176,2,0,P|118:230|162:242,1,93.3333333333333,0|4,1:0|0:3,0:0:0:0:
36,273,82492,2,0,L|15:182,1,93.3333333333333,4|0,0:3|0:0,0:0:0:0:
3,137,82807,1,0,1:0:0:0:
287,32,83334,1,4,0:3:0:0:
311,72,83439,2,0,L|295:164,1,93.3333333333333,0|0,1:0|0:0,0:0:0:0:
319,203,83755,6,0,P|255:179|191:204,1,135,4|0,0:3|1:0,0:0:0:0:
83,148,84268,1,4,0:3:0:0:
59,188,84373,2,0,L|75:280,1,93.3333333333333,0|4,1:0|0:3,0:0:0:0:
100,291,84689,1,0,1:0:0:0:
125,303,84794,1,0,1:0:0:0:
151,315,84900,1,0,1:0:0:0:
176,326,85005,1,4,0:3:0:0:
357,326,85321,5,2,0:0:0:0:
242,197,85952,1,2,0:0:0:0:
124,68,86584,1,2,0:0:0:0:
124,68,87110,1,4,0:3:0:0:
162,95,87215,1,0,1:0:0:0:
206,109,87321,1,0,1:0:0:0:
253,109,87426,1,0,1:0:0:0:
296,96,87531,6,0,P|364:76|429:100,2,140,4|0|4,1:0|1:0|0:3,0:0:0:0:
360,200,88373,1,0,0:0:0:0:
391,234,88479,1,0,1:0:0:0:
356,352,88689,2,0,B|300:336|300:336|268:360|220:352,1,140,4|4,0:3|0:3,0:0:0:0:
176,340,89110,1,0,1:0:0:0:
72,276,89321,1,0,0:0:0:0:
36,244,89426,2,0,L|16:104,1,140,4|0,0:3|1:0,0:0:0:0:
200,96,90058,6,0,P|136:109|95:53,1,140,4|0,0:3|1:0,0:0:0:0:
276,28,90689,2,0,P|339:14|380:70,1,140,4|0,0:3|1:0,0:0:0:0:
501,68,91215,2,0,L|465:204,1,140,4|4,0:3|0:3,0:0:0:0:
488,244,91636,2,0,P|424:217|360:239,1,140,0|4,1:0|0:3,0:0:0:0:
290,340,92163,1,4,0:3:0:0:
290,340,92268,2,0,P|353:366|418:344,1,140,0|4,1:0|0:3,0:0:0:0:
509,186,92900,5,0,1:0:0:0:
463,73,93110,1,0,0:0:0:0:
429,41,93215,1,4,0:3:0:0:
315,85,93426,1,0,0:0:0:0:
269,75,93531,1,0,1:0:0:0:
63,183,93742,2,0,P|123:155|195:171,1,140,4|4,0:3|0:3,0:0:0:0:
233,193,94163,2,0,P|277:209|329:193,1,93.3333333333333,0|0,1:0|0:0,0:0:0:0:
344,183,94479,1,4,0:3:0:0:
371,175,94584,1,0,0:0:0:0:
399,174,94689,1,0,0:0:0:0:
426,180,94794,1,0,1:0:0:0:
324,331,95110,6,0,L|340:306,1,23.3333333333333,4|0,0:3|0:0,0:0:0:0:
297,326,95215,2,0,L|305:297,1,23.3333333333333
269,327,95321,2,0,L|272:297,1,23.3333333333333
242,335,95426,2,0,P|177:322|128:267,1,140,0|0,1:0|0:3,0:0:0:0:
8,284,95952,1,0,1:0:0:0:
38,247,96058,2,0,L|21:152,1,93.3333333333333,0|4,1:0|0:3,0:0:0:0:
112,152,96373,2,0,L|95:57,1,93.3333333333333,0|0,1:0|1:0,0:0:0:0:
256,144,96900,1,0,1:0:0:0:
256,144,97005,1,4,0:3:0:0:
396,28,97215,1,0,1:0:0:0:
426,207,97531,5,0,1:0:0:0:
426,207,97636,2,0,L|439:300,1,93.3333333333333,4|0,1:0|0:0,0:0:0:0:
328,355,97952,2,0,L|341:262,1,93.3333333333333,0|0,1:0|0:0,0:0:0:0:
230,207,98268,2,0,L|243:300,1,93.3333333333333,4|0,0:3|0:0,0:0:0:0:
132,355,98584,2,0,L|145:262,1,93.3333333333333,0|4,1:0|0:3,0:0:0:0:
47,300,98900,6,0,L|34:207,1,93.3333333333333,0|4,0:0|0:3,0:0:0:0:
34,207,99215,1,0,1:0:0:0:
130,52,99426,1,0,0:0:0:0:
130,52,99531,2,0,P|174:36|218:48,1,93.3333333333333,4|0,0:3|0:0,0:0:0:0:
259,72,99847,2,0,P|303:85|347:69,1,93.3333333333333,0|0,1:0|0:0,0:0:0:0:
386,42,100163,6,0,L|345:177,1,140,4|0,0:3|1:0,0:0:0:0:
451,324,100794,1,4,0:3:0:0:
451,324,101110,1,0,1:0:0:0:
332,298,101321,2,0,P|260:289|197:308,1,140,4|4,0:3|0:3,0:0:0:0:
151,324,101742,2,0,P|95:289|94:221,1,140,0|4,1:0|0:3,0:0:0:0:
164,120,102268,1,0,0:0:0:0:
203,146,102373,2,0,L|299:134,1,93.3333333333333,0|4,1:0|0:3,0:0:0:0:
335,160,102689,6,0,P|379:212|362:278,1,140,4|0,0:3|1:0,0:0:0:0:
190,335,103321,2,0,B|134:319|134:319|102:343|54:335,1,140,4|0,0:3|1:0,0:0:0:0:
56,212,103847,2,0,B|68:224|76:240|76:240|104:188|84:136,1,140,4|4,0:3|0:3,0:0:0:0:
70,93,104268,1,0,1:0:0:0:
178,38,104479,1,0,0:0:0:0:
211,70,104584,2,0,P|275:94|339:70,1,140,4|0,0:3|1:0,0:0:0:0:
443,133,105110,5,0,0:0:0:0:
466,173,105215,2,0,L|444:265,1,93.3333333333333,4|0,0:3|0:0,0:0:0:0:
469,304,105531,2,0,P|425:288|381:300,1,93.3333333333333,0|4,1:0|0:3,0:0:0:0:
339,324,105847,1,0,0:0:0:0:
224,287,106058,1,4,0:3:0:0:
224,287,106163,1,0,1:0:0:0:
108,325,106373,5,0,0:0:0:0:
74,293,106479,2,0,L|64:200,1,93.3333333333333,4|4,0:3|0:3,0:0:0:0:
59,153,106794,1,0,1:0:0:0:
136,59,107005,2,0,B|181:54|211:81|211:81|268:70,1,140,4|4,0:3|0:3,0:0:0:0:
316,62,107426,1,0,1:0:0:0:
362,54,107532,1,0,1:0:0:0:
408,46,107637,1,0,1:0:0:0:
454,38,107742,1,0,1:0:0:0:
364,212,107952,5,0,0:0:0:0:
364,212,108058,2,0,L|344:308,1,93.3333333333333,2|0,0:0|0:0,0:0:0:0:
256,336,108373,2,0,L|276:240,1,93.3333333333333,2|0,0:0|0:0,0:0:0:0:
187,276,108689,2,0,L|167:367,1,93.3333333333333,2|4,0:0|0:0,0:0:0:0:
23,254,109215,5,0,0:0:0:0:
53,218,109321,2,0,L|33:126,1,93.3333333333333,2|0,0:0|0:0,0:0:0:0:
78,136,109636,1,4,0:3:0:0:
123,126,109742,1,0,1:0:0:0:
161,99,109847,1,0,1:0:0:0:
184,59,109952,2,0,L|180:153,1,93.3333333333333,0|4,1:0|1:0,0:0:0:0:
256,192,110268,12,0,115215,0:0:0:0:
