osu file format v12

[General]
AudioFilename: fuss fuzz.mp3
AudioLeadIn: 0
PreviewTime: 64176
Countdown: 1
SampleSet: Normal
StackLeniency: 0.7
Mode: 0
LetterboxInBreaks: 1
WidescreenStoryboard: 0

[Editor]
Bookmarks: 21860,42071,64807,85018,110281
DistanceSpacing: 0.8
BeatDivisor: 3
GridSize: 8

[Metadata]
Title:fuss fuzz
TitleUnicode:fuss fuzz
Artist:Kurosaki Maon
ArtistUnicode:黒崎真音
Creator:Xgor
Version:Hard
Source:Highschool of The Dead
Tags:beatmap contest
BeatmapID:282027
BeatmapSetID:107666

[Difficulty]
HPDrainRate:5
CircleSize:3
OverallDifficulty:6
ApproachRate:7
SliderMultiplier:1.1
SliderTickRate:1

[Events]
//Background and Video events
0,0,"Komuro-highschool-of-the-dead-wallpaper.jpg",0,0
//Break Periods
//Storyboard Layer 0 (Background)
//Storyboard Layer 1 (Fail)
//Storyboard Layer 2 (Pass)
//Storyboard Layer 3 (Foreground)
//Storyboard Sound Samples
//Background Colour Transformations
3,100,163,162,255

[TimingPoints]
1650,315.789473684211,4,1,0,80,1,0
21860,-83.3333333333333,4,1,0,80,0,0
64807,-83.3333333333333,4,1,0,80,0,1
85005,315.789473684211,4,1,0,80,1,0
85018,-100,4,1,0,80,0,0
88787,-83.3333333333333,4,1,0,80,0,0

[HitObjects]
152,320,11755,2,0,P|256:356|360:320,2,220,0|8|0,0:0|0:0|0:0,0:0:0:0:
80,272,13334,1,0,3:0:0:0:
8,224,13650,1,8,0:0:0:0:
96,72,14281,6,0,P|256:28|416:72,1,330,2|0,0:2|3:3,0:0:0:0:
456,152,15544,1,2,0:3:0:0:
360,160,15860,1,8,3:3:0:0:
320,248,16176,1,0,0:0:0:0:
416,240,16492,1,8,3:3:0:0:
360,320,16807,6,0,P|256:356|152:320,2,220,4|8|0,0:3|0:0|0:0,0:0:0:0:
432,272,18386,1,0,3:0:0:0:
504,224,18702,1,8,0:0:0:0:
320,192,19334,6,0,P|256:268|192:192,1,220,2|8,0:2|0:0,0:0:0:0:
212,108,20281,1,0,3:0:0:0:
300,108,20597,1,0,0:0:0:0:
300,108,20807,1,0,3:0:0:0:
256,32,21123,1,2,3:3:0:0:
32,144,21860,5,4,0:0:0:0:
120,208,22176,1,8,0:0:0:0:
208,272,22492,2,0,P|312:304|416:272,1,219.999993286133,0|0,0:3|3:0,0:0:0:0:
504,208,23334,1,2,3:0:0:0:
264,152,24071,5,8,0:0:0:0:
216,56,24386,1,2,0:1:0:0:
112,80,24702,1,8,0:0:0:0:
8,112,25018,2,0,P|0:200|88:288,1,219.999993286133,0|0,0:0|3:0,0:0:0:0:
184,320,25860,1,8,3:1:0:0:
292,348,26176,2,0,P|380:348|460:312,1,175.999994628906,2|8,3:2|0:0,0:0:0:0:
504,216,26913,5,12,0:3:0:0:
436,136,27228,1,8,0:0:0:0:
368,56,27544,2,0,B|248:56|152:96,1,219.999993286133,2|0,0:2|3:0,0:0:0:0:
56,144,28386,1,8,3:1:0:0:
148,196,28702,1,0,3:0:0:0:
248,232,29018,1,8,3:1:0:0:
172,300,29334,6,0,P|340:276|204:140,1,439.999986572266,2|8,3:1|0:0,0:0:0:0:
152,52,30702,1,2,0:1:0:0:
152,52,30913,1,0,0:0:0:0:
256,28,31228,1,0,3:0:0:0:
360,52,31544,1,2,3:0:0:0:
480,144,31965,5,4,0:0:0:0:
392,208,32281,1,8,0:0:0:0:
304,272,32597,2,0,P|200:304|96:272,1,219.999993286133,0|0,0:3|3:0,0:0:0:0:
8,208,33439,1,2,3:0:0:0:
248,152,34176,5,8,0:0:0:0:
296,56,34492,1,2,0:1:0:0:
400,80,34807,1,8,0:0:0:0:
504,112,35123,2,0,P|512:200|424:288,1,219.999993286133,0|0,0:0|3:0,0:0:0:0:
328,320,35965,1,8,3:1:0:0:
220,348,36281,2,0,P|132:348|52:312,1,175.999994628906,2|8,3:2|0:0,0:0:0:0:
8,216,37018,5,12,0:3:0:0:
76,136,37334,1,8,0:0:0:0:
144,56,37650,2,0,B|264:56|360:96,1,219.999993286133,2|0,0:2|3:0,0:0:0:0:
456,144,38492,1,8,3:1:0:0:
360,192,38807,1,0,3:0:0:0:
272,240,39123,6,0,L|104:312,1,175.999994628906,8|2,3:1|0:0,0:0:0:0:
8,352,39860,1,8,0:0:0:0:
8,352,40071,1,0,3:0:0:0:
8,248,40386,2,0,L|8:72,1,175.999994628906,2|8,3:1|0:0,0:0:0:0:
112,72,41123,1,0,0:0:0:0:
112,72,41334,2,0,P|184:29|256:72,1,175.999994628906,2|8,3:2|0:0,0:0:0:0:
256,176,42071,5,4,0:0:0:0:
312,263,42386,1,8,0:0:0:0:
376,176,42702,1,0,3:0:0:0:
376,72,43018,2,0,P|256:24|136:72,1,263.99999194336,2|8,0:0|0:0,0:0:0:0:
152,176,43965,1,0,3:0:0:0:
216,264,44281,1,8,0:0:0:0:
312,312,44597,6,0,P|424:256|440:128,1,263.99999194336
320,180,45544,1,8,0:0:0:0:
128,256,46176,1,0,0:0:0:0:
32,296,46492,1,2,0:2:0:0:
32,296,46702,1,0,3:0:0:0:
272,256,47439,5,8,0:0:0:0:
368,296,47755,1,0,3:0:0:0:
464,336,48071,2,0,P|464:216|360:120,1,263.99999194336,2|8,0:2|0:0,0:0:0:0:
264,88,49018,1,0,3:0:0:0:
168,48,49334,1,8,0:0:0:0:
64,64,49650,5,4,0:0:0:0:
64,64,49965,1,8,0:0:0:0:
64,64,50281,2,0,P|48:160|152:200,1,219.999993286133,2|4,0:0|0:0,0:0:0:0:
256,184,51123,1,8,0:0:0:0:
360,168,51439,2,0,P|448:208|456:288,1,175.999994628906,2|8,0:0|0:0,0:0:0:0:
200,279,52492,5,8,0:0:0:0:
136,192,52807,1,0,3:0:0:0:
136,88,53123,2,0,P|256:40|376:88,1,263.99999194336,2|8,0:0|0:0,0:0:0:0:
376,192,54071,1,0,3:0:0:0:
312,280,54386,1,8,0:0:0:0:
208,312,54702,6,0,P|96:272|56:176,1,219.999993286133,2|8,0:0|3:3,0:0:0:0:
192,176,55650,1,8,0:0:0:0:
384,256,56281,1,0,0:0:0:0:
480,296,56597,1,2,0:2:0:0:
480,296,56807,1,0,3:0:0:0:
456,64,57544,5,8,0:0:0:0:
352,88,57860,1,0,0:0:0:0:
248,104,58176,1,8,0:0:0:0:
248,104,58386,2,0,P|192:160|96:184,1,175.999994628906,2|8,3:2|0:0,0:0:0:0:
0,184,59123,1,0,3:0:0:0:
72,264,59439,1,8,0:0:0:0:
152,336,59755,5,2,0:2:0:0:
256,340,60071,1,8,0:0:0:0:
256,340,60281,2,0,P|404:192|100:192,1,703.999978515626,2|8,3:0|0:0,0:0:0:0:
104,288,62281,5,4,0:0:0:0:
200,248,62597,1,8,0:0:0:0:
304,248,62913,1,0,0:0:0:0:
408,288,63228,1,8,0:0:0:0:
408,288,63439,1,2,3:2:0:0:
460,48,64176,5,2,1:2:0:0:
360,32,64492,1,8,0:0:0:0:
256,24,64807,1,4,0:0:0:0:
152,32,65123,1,8,0:0:0:0:
48,48,65439,1,0,0:0:0:0:
48,48,65650,1,8,0:0:0:0:
48,152,65965,2,0,P|136:168|200:224,1,175.999994628906,2|8,3:1|0:0,0:0:0:0:
256,312,66702,1,0,0:0:0:0:
320,224,67018,1,8,0:0:0:0:
376,136,67334,5,2,0:0:0:0:
424,40,67650,1,8,0:0:0:0:
424,40,67860,1,2,3:0:0:0:
320,64,68176,1,8,3:1:0:0:
216,88,68492,2,0,P|128:144|80:296,1,263.99999194336,2|4,3:1|0:2,0:0:0:0:
408,320,70176,5,8,0:0:0:0:
464,232,70492,1,2,0:2:0:0:
432,128,70807,1,8,0:0:0:0:
344,72,71123,1,0,0:0:0:0:
256,128,71439,1,8,0:0:0:0:
168,72,71755,1,2,0:0:0:0:
80,16,72071,1,8,0:0:0:0:
24,104,72386,2,0,P|16:216|96:280,1,219.999993286133,2|0,0:2|1:0,0:0:0:0:
192,240,73228,1,8,3:1:0:0:
184,344,73544,1,2,1:3:0:0:
368,192,74281,5,0,0:0:0:0:
312,104,74597,1,8,0:0:0:0:
256,16,74913,1,4,0:0:0:0:
360,32,75228,1,8,0:0:0:0:
464,48,75544,1,0,0:0:0:0:
464,48,75755,1,8,0:0:0:0:
464,152,76071,2,0,P|376:168|312:224,1,175.999994628906,2|8,3:1|0:0,0:0:0:0:
256,312,76807,1,0,0:0:0:0:
192,224,77123,1,8,0:0:0:0:
136,136,77439,5,2,0:0:0:0:
88,40,77755,1,8,0:0:0:0:
88,40,77965,1,0,3:0:0:0:
192,64,78281,1,8,3:1:0:0:
296,88,78597,2,0,P|384:144|432:296,1,263.99999194336,2|4,3:1|0:2,0:0:0:0:
80,200,80281,5,8,0:0:0:0:
120,296,80597,1,0,0:0:0:0:
224,296,80913,1,8,0:0:0:0:
256,200,81228,1,2,0:0:0:0:
288,104,81544,1,8,0:0:0:0:
392,104,81860,1,0,0:0:0:0:
432,200,82176,1,8,0:0:0:0:
432,200,82386,2,0,P|256:312|80:200,1,439.999986572266,4|8,3:2|0:0,0:0:0:0:
152,120,83755,1,2,0:0:0:0:
360,120,84386,1,8,0:0:0:0:
256,192,85005,12,4,87531,1:0:0:0:
256,248,88794,5,2,0:0:0:0:
344,304,89110,1,8,0:0:0:0:
432,360,89426,1,0,0:0:0:0:
432,152,90057,5,0,0:0:0:0:
344,96,90373,1,8,0:0:0:0:
256,40,90689,2,0,P|264:129|198:243,1,219.999993286133,0|2,0:0|3:0,0:0:0:0:
115,180,91531,2,0,P|160:119|144:22,1,175.999994628906,8|0,3:1|0:0,0:0:0:0:
56,88,92268,1,2,0:0:0:0:
0,296,92899,5,8,0:0:0:0:
104,320,93215,1,0,0:0:0:0:
208,344,93531,1,8,0:0:0:0:
208,344,93741,2,0,P|288:212|428:212,1,307.999990600586
504,288,94794,1,2,0:0:0:0:
400,312,95110,6,0,B|208:280|328:72|112:48,1,395.999987915039,4|8,0:2|0:0,0:0:0:0:
32,24,96373,1,2,0:0:0:0:
0,128,96689,1,8,0:0:0:0:
0,128,96899,1,0,3:0:0:0:
344,128,97952,5,8,0:0:0:0:
448,152,98268,1,2,0:3:0:0:
376,224,98583,1,8,0:0:0:0:
288,280,98899,1,0,0:0:0:0:
288,280,99110,2,0,P|152:328|0:272,1,307.999990600586,2|8,3:1|0:0,0:0:0:0:
88,216,100162,6,0,P|152:232|216:216,2,131.99999597168,8|8|0,0:3|0:0|0:0,0:0:0:0:
152,136,101110,1,8,0:0:0:0:
152,136,101320,2,0,P|256:42|360:136,1,307.999990600586,2|0,3:0|0:0,0:0:0:0:
376,240,102373,1,8,0:0:0:0:
384,344,102689,6,0,L|248:344,1,131.99999597168,2|8,0:0|0:0,0:0:0:0:
144,344,103320,1,0,0:0:0:0:
40,344,103636,1,8,0:0:0:0:
40,344,103847,2,0,P|80:264|160:216,1,175.999994628906,2|8,3:1|0:0,0:0:0:0:
248,184,104583,1,8,3:0:0:0:
352,152,104899,1,8,0:0:0:0:
432,88,105215,5,2,0:0:0:0:
328,56,105531,1,8,0:0:0:0:
224,24,105847,1,0,0:0:0:0:
224,24,106057,2,0,P|168:72|168:168,1,175.999994628906,2|0,3:1|0:0,0:0:0:0:
72,216,106794,1,8,0:0:0:0:
72,216,107005,2,0,P|72:136|0:72,1,175.999994628906,2|8,3:1|0:0,0:0:0:0:
48,296,108057,5,4,0:2:0:0:
152,296,108373,1,0,0:0:0:0:
256,296,108689,1,8,0:0:0:0:
256,296,108899,2,0,L|256:120,1,175.999994628906,2|8,0:1|0:0,0:0:0:0:
360,120,109636,1,0,0:0:0:0:
464,120,109952,1,8,0:0:0:0:
464,120,110162,1,4,0:0:0:0:
