osu file format v14

[General]
AudioFilename: fuss fuzz.mp3
AudioLeadIn: 0
PreviewTime: 42071
Countdown: 1
SampleSet: Normal
StackLeniency: 0.7
Mode: 0
LetterboxInBreaks: 1
WidescreenStoryboard: 0

[Editor]
Bookmarks: 11755,21860,31965,42071,52492,64807,74913,87531,110268
DistanceSpacing: 1.5
BeatDivisor: 6
GridSize: 4
TimelineZoom: 0.8

[Metadata]
Title:fuss fuzz
TitleUnicode:fuss fuzz
Artist:Kurosaki Maon
ArtistUnicode:Kurosaki Maon
Creator:Kert
Version:Insane
Source:Highschool of The Dead
Tags:beatmap contest
BeatmapID:340162
BeatmapSetID:135825

[Difficulty]
HPDrainRate:6
CircleSize:4
OverallDifficulty:8
ApproachRate:8
SliderMultiplier:1.5
SliderTickRate:1

[Events]
//Background and Video events
0,0,"d9042571049143b59ecc348ad6e5efa0ccd9be61.jpg",0,0
//Break Periods
//Storyboard Layer 0 (Background)
//Storyboard Layer 1 (Fail)
//Storyboard Layer 2 (Pass)
//Storyboard Layer 3 (Foreground)
//Storyboard Sound Samples

[TimingPoints]
1650,315.789473684211,4,1,0,80,1,0
5807,-100,4,1,0,70,0,0
5860,-100,4,1,0,60,0,0
5913,-100,4,1,0,50,0,0
5965,-100,4,1,0,40,0,0
6071,-100,4,1,0,30,0,0
6386,-100,4,1,0,40,0,0
6492,-100,4,1,0,50,0,0
6597,-100,4,1,0,60,0,0
6702,-100,4,1,0,80,0,0
11755,-90.9090909090909,4,1,0,80,0,0
34492,-90.9090909090909,4,1,0,70,0,0
34807,-90.9090909090909,4,1,0,80,0,0
35123,-90.9090909090909,4,1,0,70,0,0
35334,-90.9090909090909,4,1,0,80,0,0
42071,-90.9090909090909,4,1,0,80,0,1
57228,-90.9090909090909,4,1,0,80,0,0
64176,-133.333333333333,4,1,0,65,0,0
64807,-80,4,1,0,80,0,1
83755,-90.9090909090909,4,1,0,80,0,0
85005,315.789473684211,4,1,0,50,1,0
87110,-90.9090909090909,4,1,0,80,0,0
115215,-90.9090909090909,4,1,0,50,0,0

[Colours]
Combo1 : 240,240,0
Combo2 : 248,128,29
Combo3 : 209,252,158
Combo4 : 55,160,5

[HitObjects]
248,336,386,5,0,0:0:0:0:
243,289,492,2,0,L|286:264,2,50,0|0|0,0:0|0:0|0:0,0:0:0:0:
215,251,807,1,0,0:0:0:0:
176,228,913,1,0,0:0:0:0:
134,215,1018,2,0,B|94:180|94:180|79:128,1,100,0|4,0:0|0:0,0:0:0:0:
252,40,1544,1,0,0:0:0:0:
284,72,1650,5,0,0:0:0:0:
500,136,1965,1,8,0:0:0:0:
288,216,2281,1,0,0:0:0:0:
508,316,2597,1,8,0:0:0:0:
508,316,2807,2,0,L|348:332,1,150,0|2,0:0|0:0,0:0:0:0:
320,308,3228,1,8,0:0:0:0:
192,308,3439,1,0,0:0:0:0:
154,330,3544,2,0,L|4:315,1,150,0|8,0:0|0:0,0:0:0:0:
48,172,4071,1,0,0:0:0:0:
80,196,4176,5,0,0:0:0:0:
256,56,4492,1,8,0:0:0:0:
36,8,4807,1,0,0:0:0:0:
200,160,5123,1,8,0:0:0:0:
200,160,5334,2,0,P|264:210|336:218,1,150
374,207,5755,2,0,L|389:233,5,25,2|0|0|0|0|0,0:0|0:0|0:0|0:0|0:0|0:0,0:0:0:0:
386,185,6071,2,0,L|357:160,11,25
396,168,6702,6,0,L|363:20,1,150,2|8,0:0|0:0,0:0:0:0:
148,40,7334,2,0,L|184:200,1,150,0|8,0:0|0:0,0:0:0:0:
292,284,7860,6,0,P|189:317|146:371,2,150,0|2|0,0:0|0:0|0:0,0:0:0:0:
364,300,8597,2,0,B|380:244|380:244|408:200,1,100,0|0,0:0|0:0,0:0:0:0:
460,160,8913,2,0,B|488:172|488:172|508:200,2,50,8|0|0,0:0|0:0|0:0,0:0:0:0:
484,88,9228,2,0,B|432:56|432:56|384:48,1,100
336,100,9544,1,8,0:0:0:0:
120,36,9860,1,0,0:0:0:0:
32,244,10176,5,10,0:0:0:0:
124,336,10386,2,0,P|224:312|272:260,1,150
288,212,10807,1,8,0:0:0:0:
200,92,11018,2,0,L|352:108,1,150,0|0,0:0|0:0,0:0:0:0:
424,96,11439,2,0,P|464:48|464:12,1,100,8|0,0:0|0:0,0:0:0:0:
400,172,11755,6,0,L|440:340,1,165.000005035401,4|8,0:0|0:0,0:0:0:0:
280,140,12386,2,0,L|200:304,1,165.000005035401,0|8,0:0|0:0,0:0:0:0:
84,188,12913,6,0,P|60:108|108:32,1,165.000005035401,0|2,0:0|0:0,0:0:0:0:
168,84,13334,1,8,0:0:0:0:
428,196,13650,2,0,P|452:276|416:340,1,110.000003356934
388,360,13965,2,0,P|364:280|400:216,1,110.000003356934,8|0,0:0|0:0,0:0:0:0:
344,180,14281,6,0,L|156:144,1,165.000005035401,0|8,0:0|0:0,0:0:0:0:
48,56,14807,1,0,0:0:0:0:
48,56,14913,2,0,L|236:36,1,165.000005035401,0|8,0:0|0:0,0:0:0:0:
376,60,15439,1,0,0:0:0:0:
376,60,15544,2,0,P|404:140|460:180,1,110.000003356934,0|0,0:0|0:0,0:0:0:0:
456,232,15860,6,10,L|328:264,1,110.000003356934,2|0,0:0|0:0,0:0:0:0:
316,184,16176,2,0,L|188:216,1,110.000003356934,0|0,0:0|0:0,0:0:0:0:
192,128,16492,2,0,L|64:160,1,110.000003356934,10|0,0:0|0:0,0:0:0:0:
48,228,16807,6,0,P|120:280|196:280,1,165.000005035401,0|8,0:0|0:0,0:0:0:0:
464,156,17439,2,0,P|392:104|318:103,1,165.000005035401,0|8,0:0|0:0,0:0:0:0:
164,156,17965,6,0,L|96:312,1,165.000005035401,2|0,0:0|0:0,0:0:0:0:
16,328,18386,1,8,0:0:0:0:
104,84,18702,2,0,P|212:80|268:136,1,165.000005035401,0|8,0:0|0:0,0:0:0:0:
312,356,19334,5,0,0:0:0:0:
400,216,19544,2,0,L|453:227,1,55.0000016784668,0|2,0:0|0:0,0:0:0:0:
292,196,19860,2,0,L|238:184,1,55.0000016784668,0|0,0:0|0:0,0:0:0:0:
72,204,20176,6,2,L|56:256,1,55.0000016784668,8|0,0:0|0:0,0:0:0:0:
106,98,20492,2,0,L|121:45,1,55.0000016784668,0|8,0:0|0:0,0:0:0:0:
284,68,20807,1,0,0:0:0:0:
468,232,21123,1,0,0:0:0:0:
256,360,21439,5,0,0:0:0:0:
256,360,21544,1,0,0:0:0:0:
256,360,21650,1,0,0:0:0:0:
256,360,21755,1,0,0:0:0:0:
256,360,21860,1,4,0:0:0:0:
256,360,22176,5,2,0:0:0:0:
256,360,22492,2,0,P|168:372|80:340,1,165.000005035401,0|0,0:0|0:0,0:0:0:0:
28,200,23018,1,2,0:0:0:0:
28,200,23123,2,0,L|76:96,1,110.000003356934,0|0,0:0|0:0,0:0:0:0:
156,120,23439,2,0,B|208:132|208:132|296:104,1,110.000003356934,8|0,0:0|0:0,0:0:0:0:
340,84,23755,1,0,0:0:0:0:
340,84,23965,5,0,0:0:0:0:
412,44,24071,2,0,P|444:108|436:156,1,110.000003356934,8|0,0:0|0:0,0:0:0:0:
428,224,24386,2,0,L|304:208,1,110.000003356934,0|0,0:0|0:0,0:0:0:0:
276,280,24702,2,0,L|152:296,1,110.000003356934,8|0,0:0|0:0,0:0:0:0:
84,308,25018,1,2,0:0:0:0:
84,308,25228,1,2,0:0:0:0:
28,68,25544,6,0,P|120:80|184:132,1,165.000005035401
224,192,25965,1,8,0:0:0:0:
336,312,26176,1,0,0:0:0:0:
416,292,26281,2,0,P|456:248|472:188,1,110.000003356934,0|2,0:0|0:0,0:0:0:0:
400,160,26597,2,0,P|384:72|396:44,1,110.000003356934,8|0,0:0|0:0,0:0:0:0:
468,32,26913,1,0,0:0:0:0:
276,188,27228,5,2,0:0:0:0:
276,188,27544,2,0,P|176:220|84:184,1,165.000005035401
144,44,28071,1,0,0:0:0:0:
144,44,28386,1,2,0:0:0:0:
144,44,28492,2,0,L|328:64,2,165.000005035401,8|2|8,0:0|0:0|0:0,0:0:0:0:
24,160,29334,5,0,0:0:0:0:
60,232,29439,2,0,B|108:248|108:248|184:236,1,110.000003356934,2|0,0:0|0:0,0:0:0:0:
224,300,29755,2,0,L|352:268,1,110.000003356934,8|0,0:0|0:0,0:0:0:0:
408,304,30071,1,0,0:0:0:0:
496,164,30281,5,8,0:0:0:0:
484,124,30386,1,0,0:0:0:0:
344,36,30597,1,0,0:0:0:0:
332,76,30702,1,6,0:0:0:0:
380,236,30913,1,0,0:0:0:0:
156,344,31228,1,0,0:0:0:0:
16,140,31544,6,0,P|64:80|176:52,1,165.000005035401,0|0,0:0|0:0,0:0:0:0:
224,80,31965,1,4,0:0:0:0:
460,260,32281,5,2,0:0:0:0:
460,260,32597,2,0,B|400:269|382:333|300:325,1,165.000005035401
152,284,33123,1,2,0:0:0:0:
52,56,33439,5,0,0:0:0:0:
52,56,33544,1,8,0:0:0:0:
204,120,33755,1,0,0:0:0:0:
204,120,33860,2,0,P|256:160|288:212,1,110.000003356934,0|0,0:0|0:0,0:0:0:0:
352,240,34176,2,0,B|408:248|408:248|464:216,1,110.000003356934,8|0,0:0|0:0,0:0:0:0:
480,144,34492,5,4,0:2:0:0:
256,40,34807,1,0,0:0:0:0:
32,144,35123,1,4,0:2:0:0:
32,144,35334,1,0,0:0:0:0:
184,340,35650,6,0,P|272:328|320:272,1,165.000005035401,0|0,0:0|0:0,0:0:0:0:
372,208,36071,2,0,L|344:100,1,110.000003356934,8|0,0:0|0:0,0:0:0:0:
404,44,36386,1,0,0:0:0:0:
496,180,36597,1,0,0:0:0:0:
496,180,36702,2,8,L|468:288,1,110.000003356934,8|0,0:0|0:0,0:0:0:0:
404,336,37018,6,0,B|360:360|360:360|280:364|236:320,1,165.000005035401,2|0,0:0|0:0,0:0:0:0:
108,47,37650,2,0,B|152:24|152:24|232:20|261:51,1,165.000005035401,2|0,0:0|0:0,0:0:0:0:
376,172,38176,2,0,L|404:336,2,165.000005035401,4|0|0,0:0|0:0|0:0,0:0:0:0:
136,212,39123,5,0,0:0:0:0:
204,168,39228,2,2,P|204:104|176:56,1,110.000003356934,2|0,0:0|0:0,0:0:0:0:
104,36,39544,2,8,L|272:44,1,165.000005035401,4|8,0:0|0:0,0:0:0:0:
272,48,40071,1,2,0:0:0:0:
512,20,40386,1,2,0:0:0:0:
256,192,40807,12,4,42071,0:0:0:0:
472,96,42386,5,8,0:0:0:0:
328,176,42597,1,0,0:0:0:0:
312,216,42702,1,2,0:0:0:0:
204,92,42913,1,0,0:0:0:0:
168,68,43018,6,0,P|76:96|28:152,1,165.000005035401,8|0,0:0|0:0,0:0:0:0:
28,304,43544,1,0,0:0:0:0:
96,268,43650,2,0,L|256:312,2,165.000005035401,8|2|8,0:0|0:0|0:0,0:0:0:0:
256,71,44597,6,0,L|420:48,1,165.000005035401,0|8,0:0|0:0,0:0:0:0:
380,200,45123,1,0,0:0:0:0:
320,248,45228,2,0,L|340:360,1,110.000003356934,2|0,0:0|0:0,0:0:0:0:
264,372,45544,1,8,0:0:0:0:
108,312,45755,6,0,P|57:240|96:132,1,165.000005035401
113,106,46176,1,8,0:0:0:0:
381,62,46386,1,0,0:0:0:0:
444,104,46492,2,0,P|464:157|446:221,1,110.000003356934,2|0,0:0|0:0,0:0:0:0:
418,274,46807,1,8,0:0:0:0:
256,304,47018,1,0,0:0:0:0:
256,304,47123,1,0,0:0:0:0:
112,112,47439,6,0,B|180:84|208:148|284:124,1,165.000005035401,8|2,0:0|0:0,0:0:0:0:
400,240,47965,1,0,0:0:0:0:
400,240,48071,2,0,B|332:212|304:276|228:252,1,165.000005035401,8|0,0:0|0:0,0:0:0:0:
76,292,48597,5,0,0:0:0:0:
56,252,48702,1,8,0:0:0:0:
172,136,48913,1,0,0:0:0:0:
192,96,49018,2,0,P|268:48|380:64,1,165.000005035401,2|8,0:0|0:0,0:0:0:0:
440,344,49650,6,0,L|272:316,1,165.000005035401,0|8,0:0|0:0,0:0:0:0:
428,256,50176,2,0,L|260:228,1,165.000005035401,0|0,0:0|0:0,0:0:0:0:
184,216,50597,1,8,0:0:0:0:
104,80,50807,6,0,P|187:63|267:126,1,165.000005035401,2|0,0:0|0:0,0:0:0:0:
292,168,51228,1,8,0:0:0:0:
376,312,51439,1,0,0:0:0:0:
444,276,51544,2,0,B|484:240|484:240|500:184,1,110.000003356934,0|0,0:0|0:0,0:0:0:0:
428,148,51860,2,0,B|436:96|436:96|408:36,1,110.000003356934,8|0,0:0|0:0,0:0:0:0:
336,80,52176,1,4,0:0:0:0:
176,304,52492,5,8,0:0:0:0:
40,212,52702,1,0,0:0:0:0:
20,168,52807,1,2,0:0:0:0:
152,68,53018,1,0,0:0:0:0:
196,44,53123,6,0,P|292:48|360:112,1,165.000005035401,8|0,0:0|0:0,0:0:0:0:
380,252,53650,1,0,0:0:0:0:
448,296,53755,2,0,B|480:240|480:240|480:200|480:200|508:140,2,165.000005035401,8|2|10,0:0|0:0|0:0,0:0:0:0:
240,168,54702,6,0,P|144:172|76:236,1,165.000005035401,0|8,0:0|0:0,0:0:0:0:
140,372,55228,2,0,P|236:368|288:327,1,165.000005035401,0|0,0:0|0:0,0:0:0:0:
320,252,55650,1,8,0:0:0:0:
232,64,55860,6,0,L|40:24,1,165.000005035401
4,72,56281,1,8,0:0:0:0:
40,224,56492,2,0,L|96:208,1,55.0000016784668,0|2,0:0|0:0,0:0:0:0:
212,308,56807,2,0,L|268:324,1,55.0000016784668,0|8,0:0|0:0,0:0:0:0:
424,272,57123,1,0,0:0:0:0:
424,272,57228,1,0,0:0:0:0:
504,36,57544,6,0,L|336:44,1,165.000005035401,8|2,0:0|0:0,0:0:0:0:
100,108,58176,1,8,0:0:0:0:
100,108,58386,2,0,L|108:276,1,165.000005035401,0|0,0:0|0:0,0:0:0:0:
164,332,58807,6,0,B|204:368|204:368|260:380,1,110.000003356934,8|0,0:0|0:0,0:0:0:0:
304,308,59123,2,0,L|408:272,1,110.000003356934,2|0,0:0|0:0,0:0:0:0:
364,200,59439,2,0,P|408:164|432:112,1,110.000003356934,8|0,0:0|0:0,0:0:0:0:
384,44,59755,1,0,0:0:0:0:
140,76,60071,5,8,0:0:0:0:
140,76,60281,2,0,P|120:152|148:236,1,165.000005035401
212,280,60702,1,8,0:0:0:0:
40,172,60913,2,0,L|208:148,1,165.000005035401,2|0,0:0|0:0,0:0:0:0:
284,136,61334,1,8,0:0:0:0:
436,196,61544,2,0,L|416:252,1,55.0000016784668,0|0,0:0|0:0,0:0:0:0:
32,268,61965,5,8,0:0:0:0:
60,300,62071,1,0,0:0:0:0:
92,332,62176,1,0,0:0:0:0:
120,364,62281,2,0,L|232:348,1,110.000003356934,2|0,0:0|0:0,0:0:0:0:
376,288,62597,2,0,L|272:252,1,110.000003356934,8|0,0:0|0:0,0:0:0:0:
92,176,62913,2,0,B|144:164|144:164|224:112,1,110.000003356934,2|0,0:0|0:0,0:0:0:0:
384,148,63228,5,8,0:0:0:0:
256,24,63439,1,0,0:0:0:0:
256,24,64176,2,0,L|256:144,1,112.500004291535,2|0,0:0|0:0,0:0:0:0:
472,324,64807,6,0,B|432:284|424:228|424:228|444:132,2,187.5,4|8|0,0:0|0:0|0:0,0:0:0:0:
348,132,65650,2,0,P|260:96|152:112,1,187.5,0|0,0:0|0:0,0:0:0:0:
208,212,66071,2,0,P|115:234|37:311,2,187.5,0|8|0,0:0|0:0|0:0,0:0:0:0:
420,288,66913,5,0,0:0:0:0:
440,248,67018,1,8,0:0:0:0:
332,52,67228,1,0,0:0:0:0:
284,36,67334,2,0,B|184:20|192:76|80:44,1,187.5,2|8,0:0|0:0,0:0:0:0:
180,260,67860,2,0,B|280:244|272:300|384:268,1,187.5,0|0,0:0|0:0,0:0:0:0:
56,136,68492,6,0,P|16:212|44:320,1,187.5,2|0,0:0|0:0,0:0:0:0:
104,352,68913,1,8,0:0:0:0:
320,292,69123,1,0,0:0:0:0:
300,252,69228,1,0,0:0:0:0:
140,96,69439,1,0,0:0:0:0:
164,60,69544,1,8,0:0:0:0:
200,36,69650,1,0,0:0:0:0:
244,28,69755,1,0,0:0:0:0:
288,28,69860,6,0,B|348:40|348:40|400:28|400:28|476:40,2,187.5,0|8|0,0:0|0:0|0:0,0:0:0:0:
476,308,70807,1,8,0:0:0:0:
216,92,71123,2,0,B|156:104|156:104|104:92|104:92|28:104,2,187.5,0|8|0,0:0|0:0|0:0,0:0:0:0:
8,360,72071,1,8,0:0:0:0:
284,168,72386,6,0,P|376:140|480:176,1,187.5,0|8,0:0|0:0,0:0:0:0:
228,216,72913,2,0,P|136:244|32:208,1,187.5,0|0,0:0|0:0,0:0:0:0:
12,152,73334,1,8,0:0:0:0:
196,20,73544,6,0,B|212:48|212:48|220:88,1,62.5
428,132,73860,2,0,B|400:148|400:148|360:156,1,62.5,0|8,0:0|0:0,0:0:0:0:
316,364,74176,2,0,B|300:336|300:336|292:296,1,62.5,0|2,0:0|0:0,0:0:0:0:
84,252,74492,2,0,B|112:236|112:236|152:228,3,62.5,0|8|0|0,0:0|0:0|0:0|0:0,0:0:0:0:
124,320,74913,6,0,B|160:348|160:348|316:336,2,187.5,4|8|0,0:0|0:0|0:0,0:0:0:0:
344,272,75755,2,0,L|440:112,1,187.5,0|0,0:0|0:0,0:0:0:0:
336,68,76176,2,0,B|248:68|216:12|128:20,2,187.5,0|8|0,0:0|0:0|0:0,0:0:0:0:
436,272,77018,5,0,0:0:0:0:
412,308,77123,1,8,0:0:0:0:
192,356,77334,1,0,0:0:0:0:
152,340,77439,2,0,P|80:276|64:188,1,187.5,2|8,0:0|0:0,0:0:0:0:
216,24,77965,2,0,P|312:18|385:69,1,187.5,0|0,0:0|0:0,0:0:0:0:
416,136,78386,1,8,0:0:0:0:
224,256,78597,6,0,L|28:232,1,187.5,2|0,0:0|0:0,0:0:0:0:
28,156,79018,1,8,0:0:0:0:
288,128,79228,2,0,L|484:152,1,187.5
504,80,79650,1,8,0:0:0:0:
288,24,79860,2,0,L|220:36,1,62.5
256,372,80281,5,8,0:0:0:0:
512,264,80597,1,2,0:0:0:0:
396,20,80913,1,8,0:0:0:0:
332,266,81228,6,0,P|269:295|212:300,1,125
282,88,81544,2,0,P|338:128|371:175,1,125,8|0,0:0|0:0,0:0:0:0:
152,221,81860,2,0,P|160:152|184:100,1,125,2|0,0:0|0:0,0:0:0:0:
256,192,82176,1,8,0:0:0:0:
256,192,82386,1,0,0:0:0:0:
256,192,82492,12,0,83755,0:0:0:0:
256,192,83860,12,0,85005,0:0:0:0:
256,192,85110,12,4,86899,0:0:0:0:
0,208,87110,5,0,0:0:0:0:
20,244,87215,1,8,0:0:0:0:
112,336,87426,1,0,0:0:0:0:
128,296,87531,2,2,B|236:248|340:344|456:276,1,330.000010070801,6|2,0:0|0:0,0:0:0:0:
512,148,88373,6,0,L|492:96,1,55.0000016784668,0|8,0:0|0:0,0:0:0:0:
356,140,88689,2,0,P|292:152|146:69,1,220.000006713867,0|8,0:0|0:0,0:0:0:0:
20,128,89320,5,0,0:0:0:0:
60,148,89426,1,0,0:0:0:0:
172,236,89636,1,0,0:0:0:0:
132,256,89741,1,8,0:0:0:0:
8,328,89952,5,0,0:0:0:0:
8,328,90057,2,0,B|32:356|32:356|156:348,1,110.000003356934,2|0,0:0|0:0,0:0:0:0:
172,376,90373,2,0,L|316:368,1,110.000003356934,8|0,0:0|0:0,0:0:0:0:
308,304,90689,2,0,L|452:296,1,110.000003356934
488,316,91005,1,8,0:0:0:0:
424,188,91215,6,0,P|392:128|408:32,1,165.000005035401,0|0,0:0|0:0,0:0:0:0:
468,92,91636,2,0,P|404:115|311:86,2,165.000005035401,8|2|8,0:0|0:0|0:0,0:0:0:0:
264,160,92583,6,0,L|236:328,1,165.000005035401,0|8,0:0|0:0,0:0:0:0:
80,268,93110,2,0,B|144:308,1,55.0000016784668,0|2,0:0|0:0,0:0:0:0:
56,148,93426,2,0,B|-8:188,1,55.0000016784668,0|8,0:0|0:0,0:0:0:0:
116,44,93741,6,0,P|184:76|304:60,1,165.000005035401,2|0,0:0|0:0,0:0:0:0:
340,48,94162,2,0,P|412:32|512:52,2,165.000005035401,8|0|8,0:0|0:0|0:0,0:0:0:0:
176,188,95110,5,0,0:0:0:0:
244,316,95320,1,0,0:0:0:0:
288,304,95426,1,8,0:0:0:0:
400,216,95636,1,0,0:0:0:0:
412,172,95741,1,0,0:0:0:0:
324,60,95952,2,0,L|252:80,1,55.0000016784668,0|8,0:0|0:0,0:0:0:0:
132,48,96268,5,0,0:0:0:0:
64,24,96373,2,2,P|24:80|28:160,1,110.000003356934,2|2,0:0|0:0,0:0:0:0:
204,232,96899,1,0,0:0:0:0:
272,208,97005,2,0,P|312:264|308:344,1,110.000003356934
360,360,97320,1,8,0:0:0:0:
500,344,97531,5,0,0:0:0:0:
456,284,97636,2,0,L|468:168,1,110.000003356934,0|0,0:0|0:0,0:0:0:0:
404,88,97952,2,0,L|392:204,1,110.000003356934,8|0,0:0|0:0,0:0:0:0:
316,244,98268,2,0,L|327:134,1,110.000003356934,2|0,0:0|0:0,0:0:0:0:
280,72,98583,1,8,0:0:0:0:
208,196,98794,5,0,0:0:0:0:
180,260,98899,2,0,P|106:282|66:269,1,110.000003356934
118,207,99215,2,0,P|50:171|31:133,1,110.000003356934,8|0,0:0|0:0,0:0:0:0:
120,132,99531,2,0,P|87:62|95:20,1,110.000003356934,2|0,0:0|0:0,0:0:0:0:
164,20,99847,1,8,0:0:0:0:
300,64,100057,6,0,L|316:124,1,55.0000016784668,0|0,0:0|0:0,0:0:0:0:
456,104,100373,1,0,0:0:0:0:
456,104,100478,1,8,0:0:0:0:
480,244,100689,2,0,L|464:304,1,55.0000016784668,0|2,0:0|0:0,0:0:0:0:
324,284,101005,1,0,0:0:0:0:
324,284,101110,1,8,0:0:0:0:
196,352,101320,5,0,0:0:0:0:
196,352,101426,2,0,P|112:344|60:304,1,110.000003356934
40,284,101741,2,0,P|16:188|40:120,2,165.000005035401,8|0|8,0:0|0:0|0:0,0:0:0:0:
164,216,102583,5,0,0:0:0:0:
164,216,102689,2,2,B|284:192|308:300|444:236,1,275.000008392334,2|0,0:0|0:0,0:0:0:0:
496,212,103320,1,0,0:0:0:0:
500,356,103531,1,0,0:0:0:0:
500,356,103636,1,8,0:0:0:0:
352,344,103847,6,0,P|328:236|408:128,1,220.000006713867,0|8,0:0|0:0,0:0:0:0:
508,80,104478,2,0,L|480:28,1,55.0000016784668
340,48,104794,2,0,L|256:36,1,55.0000016784668,0|8,0:0|0:0,0:0:0:0:
144,44,105110,5,0,0:0:0:0:
144,44,105215,2,0,P|96:84|76:144,1,110.000003356934,2|0,0:0|0:0,0:0:0:0:
108,192,105531,1,8,0:0:0:0:
12,300,105741,2,0,L|44:348,1,55.0000016784668,0|0,0:0|0:0,0:0:0:0:
184,316,106057,6,0,P|284:274|328:182,1,165.000005035401,2|0,0:0|0:0,0:0:0:0:
336,160,106478,1,2,0:0:0:0:
456,240,106689,2,0,L|444:296,1,55.0000016784668,0|8,0:0|0:0,0:0:0:0:
308,316,107005,2,2,B|265:363|209:364|209:364|133:322|64:362|21:256,1,330.000010070801,2|0,0:0|0:0,0:0:0:0:
228,208,107952,5,0,0:0:0:0:
270,201,108057,2,0,P|323:176|349:108,1,110.000003356934,0|0,0:0|0:0,0:0:0:0:
334,34,108373,2,0,P|282:58|256:127,1,110.000003356934,2|0,0:0|0:0,0:0:0:0:
348,135,108689,1,8,0:0:0:0:
432,59,108899,1,0,0:0:0:0:
432,59,109215,1,0,0:0:0:0:
432,59,109320,2,0,L|476:163,1,110.000003356934,0|0,0:0|0:0,0:0:0:0:
484,199,109636,5,2,0:0:0:0:
444,219,109741,1,0,0:0:0:0:
412,251,109847,1,0,0:0:0:0:
400,295,109952,1,8,0:0:0:0:
400,295,110162,1,4,0:0:0:0:
256,192,110268,12,2,115215,0:3:0:0:
