osu file format v12

[General]
AudioFilename: fuss fuzz.mp3
AudioLeadIn: 0
PreviewTime: 64176
Countdown: 0
SampleSet: Normal
StackLeniency: 0.7
Mode: 0
LetterboxInBreaks: 0
WidescreenStoryboard: 0

[Editor]
DistanceSpacing: 1
BeatDivisor: 3
GridSize: 32
TimelineZoom: 1

[Metadata]
Title:fuss fuzz
TitleUnicode:fuss fuzz
Artist:Kurosaki Maon
ArtistUnicode:黒崎真音
Creator:DakeDekaane
Version:Normal
Source:学園黙示録 HIGHSCHOOL OF THE DEAD
Tags:Gakuen Mokushiroku HOTD HSOTD Ending ED
BeatmapID:305431
BeatmapSetID:118861

[Difficulty]
HPDrainRate:4
CircleSize:3
OverallDifficulty:4
ApproachRate:5
SliderMultiplier:1.1
SliderTickRate:1

[Events]
//Background and Video events
0,0,"HOTDBG.jpg",0,0
//Break Periods
//Storyboard Layer 0 (Background)
//Storyboard Layer 1 (Fail)
//Storyboard Layer 2 (Pass)
//Storyboard Layer 3 (Foreground)
//Storyboard Sound Samples
//Background Colour Transformations
3,100,0,0,0

[TimingPoints]
1650,315.789473684211,4,1,0,50,1,0
42386,-100,4,1,0,45,0,0
61965,-100,4,1,0,50,0,0
62597,-100,4,1,0,55,0,0
63439,-100,4,1,0,60,0,0
64176,-100,4,1,0,30,0,0
64492,-100,4,1,0,45,0,0
64807,-100,4,1,0,60,0,1
85005,315.789473684211,4,1,0,50,1,0
85005,-133.333333333333,4,3,0,50,0,0
86899,-100,4,1,0,50,0,0
107741,-100,4,2,0,50,0,0
109636,-100,4,1,0,50,0,0
110268,-100,4,1,0,50,0,0

[Colours]
Combo1 : 128,45,255
Combo2 : 128,255,0
Combo3 : 255,128,0
Combo4 : 45,128,255

[HitObjects]
447,256,11755,6,0,P|478:211|479:157,2,110,6|8|2,0:0|0:0|0:0,0:0:0:0:
347,301,12702,2,0,L|273:295,1,73.3333333333333,8|2,0:0|0:0,0:0:0:0:
165,283,13228,2,0,P|105:244|92:173,1,146.666666666667,2|2,0:0|0:0,0:0:0:0:
121,68,13965,1,8,0:0:0:0:
231,68,14281,6,0,L|336:36,2,110,2|8|2,0:0|0:0|0:0,0:0:0:0:
124,94,15228,2,0,P|111:128|114:164,1,73.3333333333333,8|2,0:0|0:0,0:0:0:0:
214,272,15860,2,0,P|265:288|318:274,2,110,8|2|8,0:0|0:0|0:0,0:0:0:0:
128,202,16807,6,0,L|74:298,2,110,2|8|2,0:0|0:0|0:0,0:0:0:0:
220,141,17755,2,0,L|255:76,1,73.3333333333333,8|2,0:0|0:0,0:0:0:0:
357,35,18281,2,0,P|428:41|472:97,1,146.666666666667,2|2,0:0|0:0,0:0:0:0:
480,206,19018,1,8,0:0:0:0:
432,305,19334,6,0,L|323:319,1,110,2|10,0:0|0:0,0:0:0:0:
329,246,19860,2,0,L|219:259,1,110,2|2,0:0|0:0,0:0:0:0:
82,312,20597,6,0,L|33:257,1,73.3333333333333,2|2,0:0|0:0,0:0:0:0:
20,147,21123,1,2,0:0:0:0:
20,147,21439,2,0,P|93:150|152:109,1,146.666666666667,0|6,3:0|0:0,0:0:0:0:
251,63,22176,6,0,L|358:89,1,110,8|2,0:0|0:0,0:0:0:0:
400,191,22807,2,0,L|328:173,1,73.3333333333333,8|2,0:0|0:0,0:0:0:0:
218,192,23334,2,0,P|156:227|127:293,1,146.666666666667,2|2,0:0|0:0,0:0:0:0:
38,359,24071,5,8,0:0:0:0:
27,249,24386,2,0,L|58:143,1,110,2|8,0:0|0:0,0:0:0:0:
144,73,25018,1,2,0:0:0:0:
231,139,25334,2,0,L|304:126,1,73.3333333333333,8|2,0:0|0:0,0:0:0:0:
448,149,25965,2,0,P|464:200|453:254,1,110,8|2,0:0|0:0,0:0:0:0:
363,318,26597,1,10,0:0:0:0:
257,346,26913,6,0,L|149:324,1,110,2|8,0:0|0:0,0:0:0:0:
166,215,27544,1,2,0:0:0:0:
166,215,27860,2,0,L|160:141,1,73.3333333333333,8|2,0:0|0:0,0:0:0:0:
115,41,28386,2,0,L|7:25,2,110,2|2|2,0:0|0:0|0:0,0:0:0:0:
218,81,29334,2,0,L|471:118,1,256.666666666667,2|2,0:0|0:0,0:0:0:0:
511,221,30386,5,8,0:0:0:0:
466,321,30702,2,0,L|392:320,1,73.3333333333333,2|2,0:0|0:0,0:0:0:0:
286,292,31228,2,0,P|233:276|179:282,1,110,0|4,0:0|0:2,0:0:0:0:
64,192,31965,1,4,0:2:0:0:
171,169,32281,6,0,L|186:60,1,110,8|2,0:0|0:0,0:0:0:0:
296,50,32913,2,0,L|285:122,1,73.3333333333333,8|2,0:0|0:0,0:0:0:0:
263,229,33439,2,0,P|205:273|133:273,1,146.666666666667,2|2,0:0|0:0,0:0:0:0:
47,341,34176,5,8,0:0:0:0:
32,231,34492,2,0,L|47:122,1,110,2|8,0:0|0:0,0:0:0:0:
132,51,35123,1,2,0:0:0:0:
223,111,35439,2,0,L|296:111,1,73.3333333333333,0|2,0:0|0:0,0:0:0:0:
305,257,36071,2,0,L|414:257,1,110,8|2,0:0|0:0,0:0:0:0:
502,192,36702,5,10,0:0:0:0:
448,96,37018,2,0,L|341:67,1,110,2|8,0:0|0:0,0:0:0:0:
233,84,37650,1,2,0:0:0:0:
233,84,37965,2,0,L|190:144,1,73.3333333333333,8|2,0:0|0:0,0:0:0:0:
137,240,38492,2,0,P|144:293|174:339,1,110,2|2,0:0|0:0,0:0:0:0:
320,352,39228,5,8,0:0:0:0:
419,308,39544,2,0,P|459:271|462:217,1,110,2|8,0:0|0:0,0:0:0:0:
425,153,40071,2,0,L|363:61,1,110,0|0,0:2|0:0,0:0:0:0:
216,63,40807,6,0,L|242:169,1,110,2|0,0:0|0:0,0:0:0:0:
175,200,41334,2,0,L|201:306,1,110,0|4,0:0|0:2,0:0:0:0:
337,360,42071,1,0,0:2:0:0:
337,360,42386,6,0,P|391:348|433:314,1,110,10|2,0:0|0:0,0:0:0:0:
477,213,43018,2,0,P|467:112|366:111,1,220,10|10,0:0|0:0,0:0:0:0:
292,192,43965,1,2,0:0:0:0:
185,220,44281,1,8,0:0:0:0:
79,187,44597,6,0,P|37:110|84:36,1,183.333333333333,2|2,0:0|0:0,0:0:0:0:
229,20,45544,2,0,P|303:91|257:183,1,220,10|10,0:0|0:0,0:0:0:0:
166,245,46492,2,0,L|118:300,1,73.3333333333333,2|2,0:0|0:0,0:0:0:0:
256,352,47123,6,0,L|474:316,1,220,2|2,0:0|0:0,0:0:0:0:
489,206,48071,2,0,L|271:242,1,220,10|10,0:0|0:0,0:0:0:0:
170,284,49018,1,2,0:0:0:0:
170,284,49334,1,8,0:0:0:0:
64,256,49650,5,2,0:0:0:0:
64,256,49965,2,0,L|52:130,1,110,10|2,0:0|0:0,0:0:0:0:
194,28,50807,2,0,L|203:137,1,110,2|2,0:0|0:0,0:0:0:0:
308,170,51439,2,0,L|311:206,1,36.6666666666667,0|2,0:0|0:0,0:0:0:0:
164,369,52176,5,4,0:0:0:0:
164,369,52492,2,0,L|288:352,1,110,10|2,0:0|0:0,0:0:0:0:
381,336,53123,2,0,P|471:283|469:178,1,220,10|10,0:0|0:0,0:0:0:0:
393,99,54071,1,2,0:0:0:0:
284,110,54386,1,8,0:0:0:0:
232,207,54702,6,0,L|49:227,1,183.333333333333,2|2,0:0|0:0,0:0:0:0:
128,352,55650,2,0,L|345:327,1,220,8|8,0:0|0:0,0:0:0:0:
400,230,56597,2,0,L|466:198,1,73.3333333333333,2|0,0:0|0:0,0:0:0:0:
456,52,57228,5,2,0:0:0:0:
351,85,57544,2,0,P|297:72|254:38,2,110,10|2|8,0:0|0:0|0:0,0:0:0:0:
414,122,58386,2,0,L|443:265,1,146.666666666667,2|8,0:0|0:0,0:0:0:0:
375,353,59123,5,2,0:0:0:0:
273,309,59439,1,8,0:0:0:0:
177,363,59755,1,2,0:0:0:0:
75,319,60071,1,8,0:0:0:0:
73,209,60386,2,0,B|105:153|201:145|265:209|265:209|329:273|425:264|457:209,1,440,2|2,0:0|0:0,0:0:0:0:
472,99,61965,5,0,0:0:0:0:
472,99,62281,2,0,L|364:75,1,110,4|0,0:2|0:0,0:0:0:0:
256,96,62913,1,4,0:2:0:0:
159,76,63228,2,0,L|87:60,1,73.3333333333333,8|4,0:0|0:0,0:0:0:0:
48,285,64176,5,0,0:3:0:0:
48,285,64492,1,0,0:3:0:0:
48,285,64807,2,0,P|94:312|148:304,1,110,6|10,0:0|0:0,0:0:0:0:
255,279,65439,2,0,L|328:285,1,73.3333333333333,2|0,0:0|0:0,0:0:0:0:
417,350,65965,2,0,P|407:278|437:212,1,146.666666666667,2|10,0:0|0:0,0:0:0:0:
507,127,66702,5,2,0:0:0:0:
416,64,67018,1,10,0:0:0:0:
346,149,67334,2,0,L|237:132,1,110,2|10,0:0|0:0,0:0:0:0:
164,122,67860,2,0,P|127:163|123:217,1,110,2|2,0:0|0:0,0:0:0:0:
191,302,68492,2,0,L|336:288,1,146.666666666667,2|8,0:0|0:0,0:0:0:0:
399,248,69123,2,0,P|457:140|384:42,1,256.666666666667,2|4,0:3|0:2,0:0:0:0:
277,67,70176,5,8,0:0:0:0:
230,167,70492,1,2,0:0:0:0:
298,252,70807,1,8,0:0:0:0:
298,252,71123,2,0,L|407:266,1,110,2|8,0:0|0:0,0:0:0:0:
465,172,71755,2,0,L|355:157,1,110,2|8,0:0|0:0,0:0:0:0:
313,57,72386,2,0,P|247:139|281:238,1,220,2|2,0:0|0:0,0:0:0:0:
372,300,73334,1,8,0:0:0:0:
330,360,73544,2,0,L|184:351,1,146.666666666667,2|10,0:0|0:0,0:0:0:0:
74,367,74281,5,2,0:0:0:0:
59,257,74597,1,0,0:0:0:0:
168,242,74913,2,0,P|174:187|152:137,1,110,6|10,0:0|0:0,0:0:0:0:
87,48,75544,2,0,L|159:34,1,73.3333333333333,2|0,0:0|0:0,0:0:0:0:
258,81,76071,2,0,P|285:150|288:221,1,146.666666666667,2|10,0:0|0:0,0:0:0:0:
252,326,76807,5,2,0:0:0:0:
174,248,77123,1,10,0:0:0:0:
284,239,77439,2,0,L|392:254,1,110,2|10,0:0|0:0,0:0:0:0:
465,263,77965,2,0,P|500:221|507:167,1,110,2|2,0:0|0:0,0:0:0:0:
493,58,78597,2,0,P|426:35|369:76,1,146.666666666667,2|8,0:0|0:0,0:0:0:0:
370,150,79228,2,0,L|115:114,1,256.666666666667,2|4,0:3|0:2,0:0:0:0:
24,51,80281,5,8,0:0:0:0:
16,160,80597,1,2,0:0:0:0:
105,223,80913,1,8,0:0:0:0:
105,223,81228,2,0,L|214:236,1,110,2|8,0:0|0:0,0:0:0:0:
299,166,81860,2,0,P|353:160|404:181,1,110,2|8,0:0|0:0,0:0:0:0:
464,222,82386,2,0,L|446:368,1,146.666666666667,2|8,0:0|0:0,0:0:0:0:
256,256,83439,5,8,0:0:0:0:
171,325,83755,2,0,P|72:297|71:194,1,220,2|4,0:0|0:2,0:0:0:0:
160,128,84702,1,8,0:0:0:0:
255,72,85005,6,0,P|377:215|415:31,1,467.50001783371,4|0,0:2|0:0,0:0:0:0:
195,20,87531,6,0,L|90:55,1,110,4|8,0:0|0:0,0:0:0:0:
4,123,88162,1,2,0:0:0:0:
90,191,88478,2,0,L|94:264,1,73.3333333333333,8|2,0:0|0:0,0:0:0:0:
57,367,89005,2,0,B|77:345|77:345|121:353|151:324|151:324|188:321,1,146.666666666667,0|2,0:0|0:0,0:0:0:0:
284,369,89741,1,10,0:0:0:0:
383,321,90057,6,0,L|489:346,2,110,2|8|2,0:0|0:0|0:0,0:0:0:0:
292,258,91005,2,0,P|279:223|283:187,1,73.3333333333333,8|0,0:0|0:0,0:0:0:0:
374,72,91636,2,0,P|425:56|478:70,2,110,10|0|8,0:0|0:0|0:0,0:0:0:0:
310,162,92583,6,0,L|277:266,1,110,2|8,0:0|0:0,0:0:0:0:
181,321,93215,1,2,0:0:0:0:
128,224,93531,2,0,L|149:154,1,73.3333333333333,8|2,0:0|0:0,0:0:0:0:
63,84,94057,2,0,B|42:154|42:154|12:175|12:175|1:210,1,146.666666666667,2|0,0:0|0:0,0:0:0:0:
32,315,94794,1,10,0:0:0:0:
138,353,95110,6,0,L|247:367,1,110,2|10,0:0|0:0,0:0:0:0:
303,273,95741,2,0,L|193:258,1,110,0|8,0:0|0:0,0:0:0:0:
111,185,96373,2,0,P|106:131|140:89,1,110,2|10,0:0|0:0,0:0:0:0:
208,63,96899,2,2,B|244:65|244:65|295:92|346:54|346:54|401:33|453:65,1,256.666666666667,2|4,0:0|0:2,0:0:0:0:
510,160,97952,5,10,0:0:0:0:
457,256,98268,1,2,0:0:0:0:
389,169,98583,1,10,0:0:0:0:
337,265,98899,2,0,L|266:284,1,73.3333333333333,2|2,0:0|0:0,0:0:0:0:
123,318,99531,2,8,P|72:297|37:256,1,110,2|10,0:0|0:0,0:0:0:0:
51,147,100162,6,0,P|101:167|136:208,1,110,2|8,0:0|0:0,0:0:0:0:
224,275,100794,2,2,L|333:262,1,110,2|10,0:0|0:0,0:0:0:0:
294,200,101320,2,2,L|392:150,1,110,2|2,0:0|0:0,0:0:0:0:
425,45,101952,1,2,0:0:0:0:
499,126,102268,2,0,L|510:178,1,36.6666666666667,2|8,0:0|0:0,0:0:0:0:
417,227,102689,6,2,P|322:192|335:91,1,220,2|2,0:0|0:0,0:0:0:0:
232,52,103636,2,0,L|162:32,1,73.3333333333333,8|2,0:0|0:0,0:0:0:0:
55,132,104268,2,2,L|2:36,2,110,10|2|10,0:0|0:0|0:0,0:0:0:0:
100,233,105215,6,0,L|209:223,1,110,2|10,0:0|0:0,0:0:0:0:
309,271,105847,2,0,L|382:264,1,73.3333333333333,2|2,0:0|0:0,0:0:0:0:
486,160,106478,1,2,0:0:0:0:
448,56,106794,1,8,0:0:0:0:
374,55,107005,2,2,B|344:80|305:62|305:62|262:63|250:102,1,146.666666666667,2|10,0:0|0:0,0:0:0:0:
198,277,107952,6,0,L|162:287,1,36.6666666666667,0|2,0:0|0:0,0:0:0:0:
131,181,108373,1,2,0:0:0:0:
131,181,108689,2,0,L|32:160,1,73.3333333333333,0|4,0:0|0:2,0:0:0:0:
8,303,109320,5,2,0:0:0:0:
117,291,109636,2,0,L|224:313,1,110,2|0,3:0|0:0,0:0:0:0:
295,331,110162,1,4,0:0:0:0:
256,192,110268,12,0,115215,3:0:0:0:
