osu file format v12

[General]
AudioFilename: Kurosaki Maon X-encounter.mp3
AudioLeadIn: 0
PreviewTime: 45746
Countdown: 0
SampleSet: Soft
StackLeniency: 0.7
Mode: 0
LetterboxInBreaks: 0
WidescreenStoryboard: 1

[Editor]
DistanceSpacing: 0.6
BeatDivisor: 4
GridSize: 4

[Metadata]
Title:X-encounter (TV Size)
TitleUnicode:X-encounter (TV Size)
Artist:Kurosaki Maon
ArtistUnicode:黒崎 真音
Creator:Konei
Version:Insane
Source:Tokyo Ravens
Tags:op opening irreversible 東京レイヴンズ
BeatmapID:319546
BeatmapSetID:125533

[Difficulty]
HPDrainRate:7
CircleSize:4
OverallDifficulty:8
ApproachRate:8
SliderMultiplier:1.8
SliderTickRate:1

[Events]
//Background and Video events
Video,280,"Video.avi"
0,0,"BG.jpg",0,0
//Break Periods
//Storyboard Layer 0 (Background)
//Storyboard Layer 1 (Fail)
//Storyboard Layer 2 (Pass)
//Storyboard Layer 3 (Foreground)
//Storyboard Sound Samples
//Background Colour Transformations
3,100,163,162,255

[TimingPoints]
641,434.751104992392,4,2,1,50,1,0
8575,-100,4,2,1,30,0,0
8683,-100,4,2,1,50,0,0
45856,-100,4,2,1,70,0,1
59659,-100,4,2,1,70,0,0
59768,-100,4,2,1,70,0,1
73680,-100,4,2,1,70,0,0
78896,-100,4,2,1,75,0,0
79222,-100,4,2,1,70,0,0
79548,-100,4,2,1,80,0,0
79765,-100,4,2,1,50,0,0
80635,-100,4,2,1,70,0,0
87592,-100,4,2,1,55,0,0
87699,-100,4,2,1,5,0,0

[Colours]
Combo1 : 233,146,92
Combo2 : 60,121,223
Combo3 : 152,189,203
Combo4 : 221,225,64

[HitObjects]
255,76,4119,1,4,0:0:0:0:
213,165,4336,2,0,L|206:220,1,45,0|0,0:0|1:0,0:0:0:0:
304,209,4662,2,0,L|299:165,1,45,0|0,0:0|1:0,0:0:0:0:
70,68,5314,1,0,0:0:0:0:
70,68,5423,2,0,L|46:167,1,90,0|0,1:0|0:0,0:0:0:0:
41,186,5749,1,0,0:0:0:0:
32,216,5858,6,0,P|77:238|125:232,1,90,0|0,1:0|0:0,0:0:0:0:
213,126,6292,2,0,L|198:173,1,45,0|0,0:0|1:0,0:0:0:0:
299,126,6618,2,0,L|314:173,1,45,0|0,0:0|1:0,0:0:0:0:
148,285,7162,2,0,L|168:295,6,22.5
98,229,7597,6,0,P|91:180|105:129,1,90,0|0,1:0|0:0,0:0:0:0:
114,108,7923,1,0,1:0:0:0:
213,125,8140,2,0,L|250:159,1,45,0|0,0:0|1:0,0:0:0:0:
300,263,8466,2,0,L|333:293,1,45,0|0,0:0|1:0,0:0:0:0:
409,201,8792,2,0,L|375:170,1,45,0|0,0:0|1:0,0:0:0:0:
305,57,9118,1,0,1:0:0:0:
305,57,9227,1,0,0:0:0:0:
305,57,9336,6,0,P|351:51|403:61,1,90,0|0,1:0|1:0,0:0:0:0:
472,118,9770,1,0,0:0:0:0:
472,118,9879,1,0,1:0:0:0:
463,249,10096,1,0,0:0:0:0:
463,249,10205,1,0,1:0:0:0:
343,172,10422,1,0,0:0:0:0:
256,104,10640,2,0,L|230:97,6,22.5
316,163,11075,6,0,L|306:259,1,90,0|0,1:0|0:0,0:0:0:0:
304,283,11401,1,0,1:0:0:0:
365,372,11618,2,0,L|394:332,1,45,0|0,0:0|1:0,0:0:0:0:
256,103,12379,1,0,1:0:0:0:
256,103,12596,1,0,1:0:0:0:
256,103,12814,6,0,L|358:103,1,90,0|0,1:0|0:0,0:0:0:0:
417,138,13140,2,0,L|379:177,1,45,0|0,0:0|1:0,0:0:0:0:
309,241,13466,1,0,0:0:0:0:
309,241,13574,1,0,0:0:0:0:
309,241,13683,1,0,1:0:0:0:
166,192,14118,1,0,1:0:0:0:
95,88,14335,1,0,1:0:0:0:
95,88,14444,1,0,1:0:0:0:
95,88,14553,6,0,L|194:68,1,90,0|0,1:0|0:0,0:0:0:0:
214,64,14879,1,0,1:0:0:0:
312,136,15096,2,0,L|358:155,1,45,0|0,0:0|1:0,0:0:0:0:
425,319,15748,1,0,0:0:0:0:
425,319,15857,1,0,1:0:0:0:
323,282,16074,1,0,1:0:0:0:
217,234,16292,6,0,L|166:316,1,90,0|0,1:0|0:0,0:0:0:0:
217,153,16726,2,0,B|212:111|212:111|193:91|182:61,1,90,0|0,1:0|0:0,0:0:0:0:
157,48,17052,1,0,1:0:0:0:
122,38,17161,1,0,1:0:0:0:
85,36,17270,1,0,1:0:0:0:
50,46,17378,1,0,1:0:0:0:
27,74,17487,1,0,1:0:0:0:
13,107,17596,2,0,L|10:142,6,22.5
34,203,18031,6,0,P|69:228|197:205,1,180,4|0,1:0|1:0,0:0:0:0:
255,126,18683,1,0,0:0:0:0:
303,221,18900,2,0,P|342:246|410:246,1,90
457,183,19335,2,0,L|466:134,1,45,0|0,1:0|0:0,0:0:0:0:
474,90,19552,1,0,0:0:0:0:
346,43,19770,6,0,P|311:65|263:65,1,90
164,64,20204,1,0,1:0:0:0:
78,138,20422,2,0,P|133:180|241:147,1,180
331,139,21074,1,0,1:0:0:0:
331,139,21182,1,0,3:0:0:0:
331,139,21291,1,0,3:0:0:0:
433,245,21509,6,0,P|390:278|355:277,1,90
188,101,21943,2,0,L|217:187,1,90,0|0,1:0|0:0,0:0:0:0:
256,348,22378,2,0,L|256:258,1,90
323,100,22813,2,0,L|295:186,1,90,0|0,1:0|0:0,0:0:0:0:
155,277,23248,2,0,P|111:274|79:245,1,90,2|0,0:0|0:0,0:0:0:0:
63,227,23574,5,0,1:0:0:0:
54,211,23682,1,0,1:0:0:0:
51,193,23791,1,0,1:0:0:0:
53,174,23900,1,0,1:0:0:0:
61,157,24008,1,0,1:0:0:0:
75,144,24117,1,0,1:0:0:0:
92,136,24226,1,0,1:0:0:0:
110,134,24334,1,0,1:0:0:0:
128,138,24443,1,0,1:0:0:0:
144,148,24552,1,0,1:0:0:0:
156,163,24660,1,0,1:0:0:0:
163,180,24769,1,0,1:0:0:0:
163,199,24878,1,0,1:0:0:0:
159,218,24987,6,0,L|256:224,1,90,4|0,1:0|0:0,0:0:0:0:
340,221,25421,1,0,1:0:0:0:
340,221,25530,2,0,P|366:186|463:177,1,135,0|2,0:0|0:0,0:0:0:0:
425,267,26073,1,0,0:0:0:0:
338,315,26291,1,0,1:0:0:0:
256,259,26508,1,0,0:0:0:0:
174,315,26726,5,2,0:0:0:0:
87,267,26943,1,2,0:0:0:0:
172,221,27160,1,0,1:0:0:0:
172,221,27269,1,0,0:0:0:0:
172,221,27378,2,0,L|206:135,1,90
220,109,27704,1,0,0:0:0:0:
234,81,27812,1,2,0:0:0:0:
250,54,27921,1,0,0:0:0:0:
267,27,28030,2,0,L|359:27,1,90,0|0,1:0|0:0,0:0:0:0:
408,124,28465,6,0,B|445:155|445:155|490:155,1,90,2|0,0:0|0:0,0:0:0:0:
484,253,28899,1,0,1:0:0:0:
402,309,29117,1,2,0:0:0:0:
377,323,29225,1,0,0:0:0:0:
353,338,29334,1,0,0:0:0:0:
329,353,29443,1,0,0:0:0:0:
303,368,29551,2,0,P|261:375|197:358,1,90,0|0,0:0|1:0,0:0:0:0:
154,287,29986,1,2,0:0:0:0:
203,91,30204,6,0,P|173:54|116:42,1,90,2|0,0:0|0:0,0:0:0:0:
214,174,30638,2,0,B|256:189|256:189|311:169,1,90,0|0,1:0|0:0,0:0:0:0:
330,160,30964,1,0,1:0:0:0:
361,146,31073,1,0,1:0:0:0:
378,41,31290,2,0,P|336:55|309:90,1,90,2|0,0:0|1:0,0:0:0:0:
255,215,31725,1,0,1:0:0:0:
255,215,31834,1,0,0:0:0:0:
255,215,31943,6,0,L|255:308,1,90,2|0,0:0|0:0,0:0:0:0:
159,331,32377,2,0,L|156:233,1,90,0|0,1:0|0:0,0:0:0:0:
355,241,32812,2,0,L|353:331,1,90,0|0,0:0|0:0,0:0:0:0:
374,349,33138,1,0,0:0:0:0:
401,354,33247,2,0,P|447:346|474:312,1,90,0|2,1:0|0:0,0:0:0:0:
488,290,33573,1,0,0:0:0:0:
494,262,33682,6,0,L|494:171,1,90,0|0,0:0|0:0,0:0:0:0:
435,92,34116,1,0,1:0:0:0:
365,160,34334,1,0,0:0:0:0:
255,128,34551,2,0,P|210:122|154:131,1,90,2|0,0:0|0:0,0:0:0:0:
140,143,34877,1,0,0:0:0:0:
120,166,34986,1,0,1:0:0:0:
91,260,35203,1,2,0:0:0:0:
211,325,35421,6,0,P|263:337|299:324,1,90,0|2,0:0|0:0,0:0:0:0:
348,241,35855,1,0,1:0:0:0:
340,214,35964,1,0,0:0:0:0:
332,187,36073,2,0,L|307:96,1,90
255,19,36507,1,2,0:0:0:0:
255,19,36616,1,0,0:0:0:0:
255,19,36725,1,0,1:0:0:0:
115,146,36942,1,0,0:0:0:0:
115,146,37051,1,0,0:0:0:0:
115,146,37160,6,0,P|165:160|205:152,1,90,0|0,1:0|1:0,0:0:0:0:
299,141,37594,1,0,1:0:0:0:
269,267,37812,1,0,1:0:0:0:
269,267,37920,1,0,1:0:0:0:
269,267,38029,1,0,1:0:0:0:
367,341,38246,1,0,1:0:0:0:
367,341,38355,1,0,1:0:0:0:
367,341,38464,1,0,1:0:0:0:
403,220,38681,1,0,0:0:0:0:
254,141,38899,6,0,P|208:135|157:145,1,90,4|0,1:0|0:0,0:0:0:0:
93,210,39333,1,0,1:0:0:0:
65,114,39551,1,2,0:0:0:0:
173,221,39768,1,0,0:0:0:0:
157,134,39985,1,0,0:0:0:0:
31,264,40203,1,0,1:0:0:0:
168,298,40420,6,0,B|214:294|238:258|238:258|295:251|331:289,1,180,2|0,0:0|0:0,0:0:0:0:
348,308,40964,1,0,0:0:0:0:
362,335,41072,2,0,L|457:299,1,90,0|2,1:0|0:0,0:0:0:0:
452,204,41507,1,0,0:0:0:0:
436,176,41616,1,0,0:0:0:0:
420,149,41724,1,0,0:0:0:0:
405,121,41833,1,0,0:0:0:0:
386,95,41942,2,0,P|350:68|305:53,1,90,0|0,1:0|0:0,0:0:0:0:
213,149,42377,6,0,B|256:163|256:163|301:149,1,90,2|0,0:0|0:0,0:0:0:0:
204,53,42811,2,0,P|161:68|126:95,1,90,0|0,1:0|0:0,0:0:0:0:
116,193,43246,1,0,0:0:0:0:
194,253,43463,1,0,0:0:0:0:
296,148,43681,1,0,1:0:0:0:
318,253,43898,1,0,0:0:0:0:
418,103,44116,5,0,1:0:0:0:
488,29,44333,1,0,1:0:0:0:
488,29,44442,1,0,1:0:0:0:
488,29,44550,1,0,1:0:0:0:
365,189,44768,1,0,1:0:0:0:
365,189,44876,1,0,1:0:0:0:
365,189,44985,1,0,1:0:0:0:
389,15,45202,1,2,0:0:0:0:
102,46,45420,5,2,0:0:0:0:
129,44,45529,1,0,0:0:0:0:
155,44,45637,1,2,0:0:0:0:
182,42,45746,1,0,0:0:0:0:
209,42,45855,6,0,L|190:88,1,45,4|0,1:2|0:0,0:0:0:0:
168,192,46182,1,0,0:0:0:0:
168,192,46290,1,0,1:0:0:0:
255,314,46508,2,0,L|255:206,1,90,2|0,0:0|0:0,0:0:0:0:
144,102,46942,1,0,0:0:0:0:
368,102,47160,1,0,1:0:0:0:
344,192,47377,1,0,0:0:0:0:
300,40,47595,5,2,1:2:0:0:
300,40,47703,1,0,0:0:0:0:
255,212,47921,1,0,0:0:0:0:
255,212,48029,1,0,1:0:0:0:
255,212,48138,2,0,L|255:156,1,45,0|2,0:0|0:0,0:0:0:0:
215,42,48464,1,0,0:0:0:0:
171,193,48681,2,0,L|170:285,1,90,2|0,0:0|1:0,0:0:0:0:
169,382,49116,1,0,0:0:0:0:
306,289,49334,5,2,1:2:0:0:
306,289,49442,1,0,0:0:0:0:
423,192,49660,1,0,0:0:0:0:
423,192,49768,1,0,1:0:0:0:
441,335,49986,1,2,0:0:0:0:
337,211,50203,1,0,0:0:0:0:
357,359,50420,1,2,0:0:0:0:
483,266,50638,1,2,1:2:0:0:
483,266,50747,1,0,0:0:0:0:
483,266,50855,1,0,0:0:0:0:
483,266,50964,1,0,0:0:0:0:
483,266,51073,6,0,L|491:212,1,45,2|0,1:2|0:0,0:0:0:0:
408,116,51399,2,0,L|400:170,1,45,0|0,0:0|1:0,0:0:0:0:
387,258,51725,1,2,0:0:0:0:
294,191,51942,1,0,0:0:0:0:
296,309,52159,1,4,0:0:0:0:
219,191,52377,1,0,1:0:0:0:
218,191,52486,1,0,0:0:0:0:
218,191,52594,1,0,0:0:0:0:
218,191,52703,1,0,0:0:0:0:
219,191,52812,6,0,L|177:97,1,90,4|0,1:0|0:0,0:0:0:0:
191,78,53138,1,0,0:0:0:0:
209,53,53246,1,0,1:0:0:0:
226,26,53355,2,0,L|275:26,1,45
344,92,53681,1,0,0:0:0:0:
344,92,53790,1,0,0:0:0:0:
344,92,53899,1,0,0:0:0:0:
433,133,54116,1,0,1:0:0:0:
427,154,54225,1,0,0:0:0:0:
419,175,54333,1,0,0:0:0:0:
413,196,54442,1,0,0:0:0:0:
406,217,54551,6,0,L|374:310,1,90,2|0,1:2|0:0,0:0:0:0:
348,370,54876,2,0,L|292:373,1,45,0|0,0:0|1:0,0:0:0:0:
209,317,55203,1,2,0:0:0:0:
106,215,55420,1,0,0:0:0:0:
132,353,55638,1,2,0:0:0:0:
69,289,55854,1,0,1:0:0:0:
69,290,55963,1,0,0:0:0:0:
69,289,56072,1,0,0:0:0:0:
190,227,56289,6,0,L|200:128,1,90,2|0,1:2|0:0,0:0:0:0:
276,133,56615,2,0,L|270:201,1,45,0|0,0:0|1:0,0:0:0:0:
268,264,56941,1,0,0:0:0:0:
329,341,57158,2,0,P|395:337|424:321,1,90,0|0,0:0|0:0,0:0:0:0:
436,309,57484,1,0,0:0:0:0:
452,287,57593,1,0,1:0:0:0:
494,191,57810,1,0,0:0:0:0:
340,142,58028,6,0,P|288:158|250:151,1,90,2|0,1:2|0:0,0:0:0:0:
231,137,58354,1,0,0:0:0:0:
207,123,58462,2,0,L|105:123,1,90,0|0,1:0|0:0,0:0:0:0:
15,209,58897,1,0,1:0:0:0:
15,209,59006,1,0,0:0:0:0:
15,209,59115,1,0,0:0:0:0:
73,309,59332,1,2,0:0:0:0:
99,314,59441,1,0,0:0:0:0:
125,317,59549,1,0,0:0:0:0:
151,319,59658,1,0,0:0:0:0:
177,321,59767,6,0,L|325:315,1,135,4|0,1:0|0:0,0:0:0:0:
341,314,60201,1,0,1:0:0:0:
341,155,60419,2,0,L|305:62,1,90,0|2,0:0|0:0,0:0:0:0:
208,71,60854,1,0,0:0:0:0:
192,192,61071,1,0,1:0:0:0:
192,192,61180,1,0,0:0:0:0:
192,192,61288,1,0,0:0:0:0:
192,192,61397,1,0,0:0:0:0:
192,192,61506,6,0,L|212:295,1,90,2|0,1:2|0:0,0:0:0:0:
195,355,61832,2,0,P|228:354|246:350,1,45,0|0,0:0|1:0,0:0:0:0:
330,308,62158,2,0,P|366:275|376:231,1,90,2|0,0:0|0:0,0:0:0:0:
318,122,62593,1,0,0:0:0:0:
443,137,62810,1,0,1:0:0:0:
299,236,63027,1,0,0:0:0:0:
192,124,63245,6,0,L|171:71,1,45,2|0,1:2|0:0,0:0:0:0:
77,46,63571,1,0,0:0:0:0:
77,46,63679,1,0,1:0:0:0:
121,183,63897,1,0,0:0:0:0:
121,183,64005,1,0,0:0:0:0:
121,183,64114,1,0,0:0:0:0:
73,290,64332,1,2,0:0:0:0:
22,138,64549,1,2,1:2:0:0:
157,260,64766,1,0,0:0:0:0:
157,260,64875,1,0,0:0:0:0:
157,260,64984,6,0,L|214:239,1,45,2|0,1:2|0:0,0:0:0:0:
256,136,65310,1,0,0:0:0:0:
256,136,65418,1,0,1:0:0:0:
152,37,65636,1,2,0:0:0:0:
185,171,65853,1,0,0:0:0:0:
255,18,66071,1,4,0:0:0:0:
327,171,66288,1,2,0:0:0:0:
349,193,66397,1,0,0:0:0:0:
369,216,66505,1,0,0:0:0:0:
387,241,66614,1,0,0:0:0:0:
406,266,66723,6,0,L|432:311,1,45,4|0,1:0|0:0,0:0:0:0:
337,362,67049,1,0,0:0:0:0:
319,334,67157,1,0,1:0:0:0:
298,298,67266,2,0,L|272:253,1,45,0|0,0:0|0:0,0:0:0:0:
212,182,67592,1,0,0:0:0:0:
179,60,67810,2,0,L|132:85,1,45
58,164,68027,2,0,L|98:143,2,45,0|0|0,1:0|0:0|0:0,0:0:0:0:
49,194,68353,1,0,0:0:0:0:
47,225,68462,38,0,P|46:275|68:323,1,90,2|0,1:2|0:0,0:0:0:0:
79,337,68788,1,0,0:0:0:0:
107,348,68896,1,0,1:0:0:0:
138,351,69005,1,0,0:0:0:0:
169,353,69114,1,2,0:0:0:0:
256,278,69331,1,0,0:0:0:0:
314,82,69549,2,0,P|385:79|443:121,1,135,2|2,0:0|0:0,0:0:0:0:
449,141,69983,1,2,0:0:0:0:
454,172,70092,1,0,0:0:0:0:
454,203,70201,22,0,P|409:211|357:200,1,90,2|0,1:2|0:0,0:0:0:0:
335,193,70527,1,0,0:0:0:0:
306,179,70635,1,0,1:0:0:0:
208,104,70853,2,0,P|126:86|19:111,1,180,2|2,0:0|0:0,0:0:0:0:
17,202,71505,1,0,1:0:0:0:
76,314,71722,1,2,0:0:0:0:
146,209,71940,38,0,L|241:229,1,90,2|0,1:2|1:0,0:0:0:0:
264,236,72266,1,0,3:0:0:0:
294,241,72374,1,0,3:0:0:0:
324,248,72483,1,0,3:0:0:0:
354,255,72592,1,0,3:0:0:0:
445,127,72809,2,0,L|462:170,3,45,0|0|0|0,3:0|0:0|3:0|0:0,0:0:0:0:
473,198,73244,1,0,3:0:0:0:
484,227,73353,1,0,3:0:0:0:
492,257,73461,1,0,3:0:0:0:
501,287,73570,1,0,3:0:0:0:
505,318,73679,38,0,P|442:344|318:310,2,180,4|0|0,1:0|1:0|0:0,0:0:0:0:
388,218,74766,2,0,L|323:190,1,45,0|0,0:0|0:0,0:0:0:0:
361,121,74983,2,0,L|402:138,2,45,0|0|0,1:0|0:0|0:0,0:0:0:0:
197,72,75418,22,0,P|133:60|60:77,1,135,2|0,0:0|0:0,0:0:0:0:
50,102,75852,1,0,1:0:0:0:
134,181,76070,1,0,0:0:0:0:
208,265,76287,2,0,L|194:355,1,90,0|0,0:0|0:0,0:0:0:0:
317,353,76722,2,0,L|304:265,1,90,0|0,1:0|0:0,0:0:0:0:
308,129,77157,22,0,P|343:78|457:86,1,180,2|0,0:0|1:0,0:0:0:0:
394,155,77809,1,0,0:0:0:0:
409,304,78026,2,0,P|352:275|271:285,1,135,2|0,0:0|0:0,0:0:0:0:
259,294,78461,1,0,1:0:0:0:
241,315,78570,1,0,0:0:0:0:
234,341,78678,1,0,0:0:0:0:
162,223,78896,38,0,L|58:109,2,135,2|2|2,0:0|0:0|0:0,0:0:0:0:
286,237,79765,1,0,1:0:0:0:
387,276,79983,1,0,1:0:0:0:
448,186,80200,1,0,1:0:0:0:
345,153,80417,1,0,1:0:0:0:
276,306,80635,6,0,P|230:351|148:349,1,135,4|0,1:2|0:0,0:0:0:0:
130,337,81069,1,0,1:0:0:0:
46,251,81287,1,0,0:0:0:0:
126,154,81504,2,0,P|185:142|261:156,1,135
280,169,81939,1,0,1:0:0:0:
299,187,82048,1,0,0:0:0:0:
316,207,82156,1,0,0:0:0:0:
365,326,82374,22,0,L|482:235,2,135,2|2|2,0:2|0:0|0:0,0:0:0:0:
256,303,83243,1,0,0:0:0:0:
179,226,83461,1,0,0:0:0:0:
143,329,83678,1,0,1:0:0:0:
256,303,83895,1,0,0:0:0:0:
332,193,84113,22,0,P|398:184|475:197,1,135,4|0,1:0|1:0,0:0:0:0:
485,217,84547,1,0,1:0:0:0:
437,323,84765,2,0,L|336:357,1,90,4|0,1:0|0:0,0:0:0:0:
256,303,85200,1,0,0:0:0:0:
181,195,85417,2,0,L|139:161,1,45,0|0,1:0|1:0,0:0:0:0:
36,27,85852,22,0,P|91:21|137:33,1,90,4|0,1:0|1:0,0:0:0:0:
155,35,86178,1,0,1:0:0:0:
182,49,86286,1,0,1:0:0:0:
255,131,86504,1,0,1:0:0:0:
272,153,86612,1,0,1:0:0:0:
294,170,86721,1,0,1:0:0:0:
320,181,86830,1,0,1:0:0:0:
347,185,86938,1,0,1:0:0:0:
479,238,87156,21,0,1:0:0:0:
479,265,87265,1,0,1:0:0:0:
478,291,87373,1,0,1:0:0:0:
478,318,87482,1,0,0:0:0:0:
477,345,87591,1,0,1:0:0:0:
256,192,87699,12,0,89330,0:0:0:0:
