osu file format v12

[General]
AudioFilename: Kurosaki Maon X-encounter.mp3
AudioLeadIn: 0
PreviewTime: 45746
Countdown: 0
SampleSet: Soft
StackLeniency: 0.7
Mode: 0
LetterboxInBreaks: 0
WidescreenStoryboard: 1

[Editor]
DistanceSpacing: 1.1
BeatDivisor: 4
GridSize: 4

[Metadata]
Title:X-encounter (TV Size)
TitleUnicode:X-encounter (TV Size)
Artist:Kurosaki Maon
ArtistUnicode:黒崎 真音
Creator:Konei
Version:Hard
Source:Tokyo Ravens
Tags:op opening irreversible 東京レイヴンズ
BeatmapID:319545
BeatmapSetID:125533

[Difficulty]
HPDrainRate:6
CircleSize:4
OverallDifficulty:6
ApproachRate:7
SliderMultiplier:1.5
SliderTickRate:1

[Events]
//Background and Video events
Video,280,"Video.avi"
0,0,"BG.jpg",0,0
//Break Periods
//Storyboard Layer 0 (Background)
//Storyboard Layer 1 (Fail)
//Storyboard Layer 2 (Pass)
//Storyboard Layer 3 (Foreground)
//Storyboard Sound Samples
//Background Colour Transformations
3,100,163,162,255

[TimingPoints]
641,434.751104992392,4,2,1,50,1,0
45856,-100,4,2,1,70,0,1
59659,-100,4,2,1,70,0,0
59768,-100,4,2,1,70,0,1
73680,-100,4,2,1,70,0,0
87592,-100,4,2,1,5,0,0

[Colours]
Combo1 : 233,146,92
Combo2 : 60,121,223
Combo3 : 152,189,203
Combo4 : 221,225,64

[HitObjects]
255,84,4119,1,4,0:0:0:0:
210,153,4336,2,0,P|177:195|108:202,1,112.5
52,107,4988,2,0,P|90:58|184:51,1,150,0|0,0:0|1:0,0:0:0:0:
249,78,5640,1,0,1:0:0:0:
300,142,5858,5,0,1:0:0:0:
340,213,6075,2,0,P|373:255|442:262,2,112.5
179,172,7162,1,0,1:0:0:0:
255,141,7379,1,0,1:0:0:0:
330,175,7597,5,0,1:0:0:0:
411,187,7814,2,0,L|453:315,2,112.5
328,44,8901,1,0,1:0:0:0:
221,177,9336,6,0,L|214:332,1,150,0|0,1:0|0:0,0:0:0:0:
297,325,9988,2,0,L|290:175,1,150,0|0,0:0|0:0,0:0:0:0:
255,99,10640,1,0,1:0:0:0:
106,24,11075,5,0,1:0:0:0:
70,98,11292,2,0,P|129:103|177:66,2,112.5
40,174,12161,2,0,L|43:229,2,37.5,0|0|0,0:0|0:0|1:0,0:0:0:0:
0,102,12596,1,0,1:0:0:0:
30,24,12814,5,0,1:0:0:0:
109,46,13031,2,0,P|160:37|229:49,1,112.5
256,163,13683,1,0,1:0:0:0:
416,126,14118,1,0,1:0:0:0:
380,274,14553,5,0,1:0:0:0:
314,324,14770,2,0,B|281:330|256:315|256:315|231:329|188:324,2,112.5
445,223,15857,1,0,1:0:0:0:
316,119,16292,6,0,L|295:34,1,75,0|0,1:0|1:0,0:0:0:0:
215,46,16726,2,0,L|197:118,1,75,0|0,1:0|1:0,0:0:0:0:
256,234,17161,2,0,L|256:154,1,75,0|0,1:0|1:0,0:0:0:0:
329,196,17596,2,0,L|342:209,4,18.75
374,111,18031,6,0,P|411:105|457:115,1,75,4|0,1:0|0:0,0:0:0:0:
477,187,18465,1,0,1:0:0:0:
435,258,18683,2,0,L|425:345,1,75
354,373,19117,1,0,0:0:0:0:
281,333,19335,1,0,1:0:0:0:
216,281,19552,6,0,B|203:245|203:245|173:214|173:161|191:143,1,150
256,185,20204,1,0,1:0:0:0:
321,143,20422,2,0,B|339:161|339:214|309:245|309:245|294:284,1,150
255,354,21074,1,0,1:0:0:0:
172,352,21291,1,0,0:0:0:0:
122,285,21509,6,0,L|39:147,1,150,2|0,0:0|1:0,0:0:0:0:
118,119,22161,2,0,L|157:186,1,75
219,235,22595,2,0,P|256:243|302:231,1,75,0|0,0:0|1:0,0:0:0:0:
254,162,23030,1,0,0:0:0:0:
356,183,23248,6,0,L|394:119,1,75,2|0,0:0|0:0,0:0:0:0:
436,48,23682,1,0,1:0:0:0:
473,122,23900,1,0,1:0:0:0:
445,199,24117,2,0,L|452:255,3,37.5,0|0|0|0,1:0|1:0|0:0|0:0,0:0:0:0:
386,269,24552,2,0,L|393:325,3,37.5,0|0|0|0,1:0|0:0|0:0|0:0,0:0:0:0:
328,340,24987,6,0,L|201:340,2,112.5,4|0|2,1:0|0:0|0:0,0:0:0:0:
304,261,25856,2,0,L|217:171,2,112.5,0|0|2,0:0|0:0|0:0,0:0:0:0:
386,254,26726,5,2,0:0:0:0:
404,334,26943,2,0,P|451:304|466:237,2,112.5,2|0|2,0:0|0:0|0:0,0:0:0:0:
304,261,27921,1,2,0:0:0:0:
255,146,28247,1,2,0:0:0:0:
185,191,28465,6,0,B|145:192|145:192|109:203|109:203|65:203,2,112.5,2|0|2,0:0|0:0|0:0,0:0:0:0:
171,109,29334,1,2,0:0:0:0:
255,219,29660,1,2,0:0:0:0:
378,209,29986,1,2,0:0:0:0:
460,212,30204,6,0,P|441:269|348:285,1,150,2|2,0:0|0:0,0:0:0:0:
378,209,30856,2,0,L|293:71,1,150,2|0,0:0|0:0,0:0:0:0:
255,11,31508,1,2,1:2:0:0:
214,82,31725,1,0,0:0:0:0:
136,110,31943,5,2,0:0:0:0:
110,188,32160,2,0,P|75:229|16:238,2,112.5,2|0|2,0:0|0:0|0:0,0:0:0:0:
190,171,33029,2,0,L|232:163,1,37.5,2|0,0:0|0:0,0:0:0:0:
350,149,33464,1,2,0:0:0:0:
393,219,33682,5,0,0:0:0:0:
446,156,33899,2,0,L|494:47,2,112.5,2|0|2,0:0|0:0|0:0,0:0:0:0:
440,279,34877,1,2,0:0:0:0:
323,319,35203,1,2,0:0:0:0:
255,270,35421,5,0,0:0:0:0:
191,322,35638,2,0,B|147:322|147:322|115:333|115:333|57:333,2,112.5,2|0|2,0:0|0:0|0:0,0:0:0:0:
203,198,36616,1,2,0:0:0:0:
253,85,36942,1,2,0:0:0:0:
253,85,37051,1,0,0:0:0:0:
253,85,37160,6,0,P|312:83|350:95,1,75,0|0,1:0|0:0,0:0:0:0:
387,186,37594,2,0,P|328:188|290:176,1,75,0|0,1:0|0:0,0:0:0:0:
258,247,38029,2,0,L|251:326,1,75,0|0,1:0|0:0,0:0:0:0:
161,282,38464,2,0,L|168:203,1,75,0|0,1:0|0:0,0:0:0:0:
174,124,38899,5,4,0:0:0:0:
256,118,39116,1,0,0:0:0:0:
338,122,39333,1,0,1:0:0:0:
382,191,39551,2,0,P|388:270|377:343,1,150
297,317,40203,1,0,1:0:0:0:
217,319,40420,6,0,P|206:244|214:158,1,150
149,117,41072,2,0,P|129:88|84:72,1,75,0|0,1:0|0:0,0:0:0:0:
70,152,41507,2,0,P|52:186|24:210,1,75,0|0,0:0|0:0,0:0:0:0:
17,292,41942,1,0,1:0:0:0:
77,348,42159,1,0,0:0:0:0:
159,339,42377,6,0,L|207:278,1,75,0|0,0:0|0:0,0:0:0:0:
256,212,42811,1,0,1:0:0:0:
192,159,43029,2,0,P|176:123|145:86,1,75
256,119,43463,2,0,L|256:44,1,75,0|0,0:0|1:0,0:0:0:0:
320,159,43898,6,0,P|336:123|366:81,1,75,0|0,0:0|1:0,0:0:0:0:
410,30,44333,1,0,1:0:0:0:
454,99,44550,2,0,L|484:142,2,37.5,0|0|0,1:0|0:0|0:0,0:0:0:0:
418,183,44985,2,0,L|448:226,2,37.5,0|0|0,1:0|0:0|0:0,0:0:0:0:
345,223,45420,1,2,0:0:0:0:
255,83,45855,6,0,L|216:55,1,37.5,4|0,1:2|0:0,0:0:0:0:
141,57,46181,2,0,L|29:105,1,112.5,2|0,0:0|0:0,0:0:0:0:
77,261,46941,2,0,L|221:201,1,150,2|0,0:0|0:0,0:0:0:0:
255,130,47594,6,0,L|255:77,1,37.5,2|0,1:2|0:0,0:0:0:0:
330,57,47920,2,0,L|422:63,1,75,2|0,0:0|0:0,0:0:0:0:
433,91,48246,2,0,P|443:161|430:246,1,150,2|2,0:0|0:0,0:0:0:0:
255,312,49115,1,2,0:0:0:0:
191,258,49333,6,0,L|147:226,1,37.5,2|0,1:2|0:0,0:0:0:0:
97,182,49659,1,2,0:0:0:0:
155,72,49985,1,2,0:0:0:0:
256,201,50419,2,0,P|293:209|342:193,1,75,2|2,0:0|0:0,0:0:0:0:
442,80,51072,6,0,L|471:120,1,37.5,2|0,1:2|0:0,0:0:0:0:
496,186,51398,2,0,L|465:308,1,112.5,2|2,0:0|0:0,0:0:0:0:
328,207,52158,2,0,P|277:200|197:211,1,112.5,4|0,0:0|0:0,0:0:0:0:
154,291,52811,6,0,P|104:254|99:196,2,112.5,4|0|0,1:0|0:0|0:0,0:0:0:0:
320,315,53898,1,2,0:0:0:0:
396,285,54115,2,0,L|444:273,1,37.5,2|0,0:0|0:0,0:0:0:0:
459,182,54441,6,0,L|459:132,1,37.5,0|2,0:0|1:2,0:0:0:0:
365,71,54876,2,0,P|312:60|236:74,1,112.5,2|2,0:0|0:0,0:0:0:0:
98,97,55637,2,0,P|126:145|204:160,1,112.5,2|2,0:0|0:0,0:0:0:0:
254,67,56289,5,2,1:2:0:0:
314,174,56615,1,2,0:0:0:0:
395,81,56941,1,2,0:0:0:0:
402,162,57158,2,0,L|472:208,1,75,0|2,0:0|0:0,0:0:0:0:
398,253,57593,2,0,L|460:294,1,75,0|2,0:0|0:0,0:0:0:0:
418,365,58028,6,0,L|299:364,2,112.5,2|2|2,1:2|0:0|0:0,0:0:0:0:
461,295,58897,1,2,0:0:0:0:
384,168,59332,1,2,0:0:0:0:
255,64,59767,6,0,P|199:58|134:67,2,112.5,4|0|2,1:0|0:0|0:0,0:0:0:0:
318,115,60636,1,0,0:0:0:0:
373,53,60854,1,2,0:0:0:0:
311,292,61506,6,0,P|252:304|187:287,2,112.5,2|0|2,1:2|0:0|0:0,0:0:0:0:
458,217,62593,2,0,P|466:153|441:62,1,150,2|2,0:0|0:0,0:0:0:0:
362,72,63245,6,0,L|308:104,1,37.5,2|0,1:2|0:0,0:0:0:0:
256,129,63571,2,0,L|256:249,1,112.5,2|2,0:0|0:0,0:0:0:0:
121,337,64332,1,2,0:0:0:0:
121,337,64549,1,2,0:2:0:0:
110,172,64984,6,0,L|105:109,1,37.5,2|0,1:2|0:0,0:0:0:0:
163,74,65310,2,0,P|216:64|282:77,1,112.5,2|2,0:0|0:0,0:0:0:0:
299,236,66071,2,0,P|354:245|409:235,1,112.5,4|2,0:0|0:0,0:0:0:0:
449,118,66723,6,0,L|454:58,1,37.5,4|0,1:0|0:0,0:0:0:0:
377,45,67049,2,0,P|338:41|293:46,1,75,2|0,0:0|0:0,0:0:0:0:
273,74,67375,2,0,L|261:224,1,150,2|2,0:0|0:0,0:0:0:0:
244,346,68136,1,2,0:0:0:0:
130,296,68462,6,0,L|44:195,1,112.5,2|2,1:2|0:0,0:0:0:0:
107,145,69005,2,0,L|136:176,1,37.5,0|2,0:0|0:0,0:0:0:0:
256,281,69549,1,2,0:0:0:0:
362,344,69875,2,0,L|438:323,1,75,2|0,0:0|0:0,0:0:0:0:
448,285,70201,6,0,P|456:224|445:162,1,112.5,2|0,1:2|0:0,0:0:0:0:
380,127,70744,1,0,0:0:0:0:
380,127,70853,2,0,P|317:107|232:128,1,150,2|2,0:0|0:0,0:0:0:0:
127,248,71722,1,2,0:0:0:0:
201,284,71940,6,0,P|195:337|145:364,2,112.5,2|2|2,1:2|0:0|0:0,0:0:0:0:
311,284,72809,2,0,P|317:337|367:364,2,112.5,2|2|2,1:2|0:0|0:0,0:0:0:0:
255,223,73679,5,4,1:0:0:0:
105,154,74113,2,0,P|142:93|217:80,1,150,0|0,1:0|0:0,0:0:0:0:
285,122,74766,1,0,0:0:0:0:
285,122,74874,2,0,P|332:122|372:126,1,75,2|0,0:0|0:0,0:0:0:0:
401,125,75200,1,0,0:0:0:0:
450,191,75418,2,0,P|458:244|450:308,2,112.5,2|0|2,0:0|0:0|0:0,0:0:0:0:
400,125,76287,1,0,0:0:0:0:
317,119,76505,2,0,P|247:144|169:113,1,150,2|0,0:0|0:0,0:0:0:0:
99,146,77157,38,0,L|132:306,1,150,2|0,0:0|1:0,0:0:0:0:
294,282,78026,2,0,L|271:163,1,112.5,2|0,0:0|0:0,0:0:0:0:
219,107,78570,2,0,L|240:60,1,37.5,0|2,0:0|0:0,0:0:0:0:
307,34,78896,2,0,L|425:34,2,112.5,2|0|2,0:0|0:0|0:0,0:0:0:0:
307,115,79764,2,0,L|425:115,2,112.5,2|2|2,0:0|0:0|0:0,0:0:0:0:
215,192,80635,6,0,L|99:193,2,112.5,4|0|2,1:2|0:0|0:0,0:0:0:0:
297,192,81504,2,0,L|413:193,1,112.5,2|2,0:0|0:0,0:0:0:0:
465,254,82048,2,0,L|456:296,1,37.5,0|2,0:0|0:0,0:0:0:0:
382,325,82374,2,0,P|330:325|288:279,2,112.5,2|2|2,1:2|0:0|0:0,0:0:0:0:
432,167,83461,1,2,0:0:0:0:
317,50,83895,1,2,0:0:0:0:
317,50,84113,22,0,P|246:65|157:44,1,150,4|0,1:0|1:0,0:0:0:0:
107,103,84765,2,0,L|124:259,1,150,4|0,1:0|0:0,0:0:0:0:
156,327,85417,2,0,L|205:314,1,37.5,0|0,1:0|1:0,0:0:0:0:
254,208,85852,2,0,P|316:195|409:212,1,150,4|0,1:0|1:0,0:0:0:0:
404,291,86504,2,0,P|485:277|463:159,1,225,2|2,0:0|0:0,0:0:0:0:
256,192,87591,12,0,89330,0:0:0:0:
