osu file format v12

[General]
AudioFilename: Kurosaki Maon X-encounter.mp3
AudioLeadIn: 0
PreviewTime: 45746
Countdown: 0
SampleSet: Soft
StackLeniency: 0.7
Mode: 0
LetterboxInBreaks: 0
WidescreenStoryboard: 0

[Editor]
DistanceSpacing: 1
BeatDivisor: 2
GridSize: 4

[Metadata]
Title:X-encounter (TV Size)
TitleUnicode:X-encounter (TV Size)
Artist:Kurosaki Maon
ArtistUnicode:黒崎 真音
Creator:Konei
Version:Easy
Source:Tokyo Ravens
Tags:op opening irreversible 東京レイヴンズ
BeatmapID:319544
BeatmapSetID:125533

[Difficulty]
HPDrainRate:2
CircleSize:2
OverallDifficulty:2
ApproachRate:3
SliderMultiplier:0.9
SliderTickRate:1

[Events]
//Background and Video events
Video,280,"Video.avi"
0,0,"BG.jpg",0,0
//Break Periods
//Storyboard Layer 0 (Background)
//Storyboard Layer 1 (Fail)
//Storyboard Layer 2 (Pass)
//Storyboard Layer 3 (Foreground)
//Storyboard Sound Samples
//Background Colour Transformations
3,100,163,162,255

[TimingPoints]
641,434.751104992392,4,2,1,50,1,0
45856,-100,4,2,1,70,0,1
59659,-100,4,2,1,70,0,0
59768,-100,4,2,1,70,0,1
73680,-100,4,2,1,70,0,0
87592,-100,4,2,1,5,0,0

[Colours]
Combo1 : 233,146,92
Combo2 : 60,121,223
Combo3 : 152,189,203
Combo4 : 221,225,64

[HitObjects]
186,66,4119,1,4,0:0:0:0:
254,340,5858,5,0,1:0:0:0:
326,66,7597,5,0,1:0:0:0:
74,323,9336,5,0,1:0:0:0:
196,191,10205,1,0,1:0:0:0:
328,312,11075,5,0,1:0:0:0:
76,54,12814,5,0,1:0:0:0:
408,191,14553,5,0,1:0:0:0:
48,191,16292,6,0,L|33:88,1,90,0|0,1:0|1:0,0:0:0:0:
124,90,17161,2,0,L|139:193,1,90,0|0,1:0|1:0,0:0:0:0:
159,266,18031,6,0,P|194:322|359:265,1,270,4|0,1:0|1:0,0:0:0:0:
314,191,19770,2,0,L|299:92,1,90,0|0,0:0|1:0,0:0:0:0:
210,104,20639,2,0,L|196:192,1,90,0|0,0:0|1:0,0:0:0:0:
254,265,21509,6,0,P|305:308|498:259,1,270,2|0,0:0|1:0,0:0:0:0:
458,186,23247,2,0,P|435:139|396:113,1,90,2|0,0:0|1:0,0:0:0:0:
315,115,24117,1,2,0:0:0:0:
256,46,24552,1,0,1:0:0:0:
196,113,24987,6,0,P|128:130|53:99,2,135,4|0|0,1:0|0:0|1:0,0:0:0:0:
256,179,26726,2,0,L|256:322,2,135,2|0|0,0:0|0:0|1:0,0:0:0:0:
311,108,28465,6,0,P|379:125|454:94,2,135,2|0|0,0:0|0:0|1:0,0:0:0:0:
255,36,30204,2,0,P|207:29|153:38,1,90,0|0,0:0|1:0,0:0:0:0:
125,120,31073,2,0,P|175:126|228:115,1,90,0|0,0:0|1:0,0:0:0:0:
255,199,31943,6,0,L|255:347,2,135,2|0|0,0:0|0:0|1:0,0:0:0:0:
302,122,33682,2,0,B|352:105|352:105|386:125|412:137|437:132,2,135,2|0|0,0:0|0:0|1:0,0:0:0:0:
211,121,35421,6,0,B|161:104|161:104|127:124|101:136|76:131,2,135,2|0|0,0:0|0:0|1:0,0:0:0:0:
256,43,37160,2,0,P|324:33|398:47,1,135,2|0,0:0|1:0,0:0:0:0:
389,133,38246,2,0,P|321:143|247:129,1,135,0|4,1:0|0:0,0:0:0:0:
175,92,39333,5,0,1:0:0:0:
185,181,39768,2,0,L|216:284,1,90,0|0,0:0|1:0,0:0:0:0:
301,267,40638,2,0,L|326:180,1,90,0|0,0:0|1:0,0:0:0:0:
337,92,41507,1,0,0:0:0:0:
418,129,41942,1,0,1:0:0:0:
423,218,42377,6,0,P|414:303|338:345,1,180,2|0,0:0|0:2,0:0:0:0:
255,311,43681,1,0,1:0:0:0:
173,345,44116,2,0,P|97:304|89:218,1,180,2|2,1:2|1:2,0:0:0:0:
211,107,45855,6,0,P|183:73|85:56,2,135,4|0|0,1:2|0:0|1:0,0:0:0:0:
301,107,47594,2,0,P|329:73|427:56,2,135,2|0|0,1:2|0:0|1:0,0:0:0:0:
302,197,49333,6,0,B|303:256|303:256|314:297|352:323,2,135,2|0|0,1:2|0:0|1:0,0:0:0:0:
211,197,51072,2,0,B|210:256|210:256|199:297|161:323,2,135,2|0|0,1:2|0:0|1:0,0:0:0:0:
211,106,52811,6,0,B|178:66|178:66|158:51|111:49|82:62,2,135,4|0|0,1:0|0:0|1:0,0:0:0:0:
301,106,54550,2,0,B|334:66|334:66|354:51|401:49|430:62,2,135,2|0|0,1:2|0:0|1:0,0:0:0:0:
302,196,56289,6,0,L|302:299,1,90,2|0,1:2|1:0,0:0:0:0:
211,286,57158,2,0,L|211:196,1,90,0|0,0:0|1:0,0:0:0:0:
210,105,58028,2,0,P|165:58|80:57,2,135,0|0|2,1:0|0:0|0:0,0:0:0:0:
300,106,59767,6,0,P|345:59|430:58,2,135,4|0|0,1:0|0:0|1:0,0:0:0:0:
256,184,61505,2,0,L|256:328,2,135,2|0|0,1:2|0:0|1:0,0:0:0:0:
175,144,63244,6,0,B|152:102|152:102|140:64|140:64|106:22,2,135,2|0|0,1:2|0:0|1:0,0:0:0:0:
211,226,64984,2,0,B|188:268|188:268|176:306|176:306|142:348,2,135,2|0|0,1:2|0:0|1:0,0:0:0:0:
301,226,66723,6,0,B|324:268|324:268|336:306|336:306|370:348,2,135,4|0|0,1:0|0:0|1:0,0:0:0:0:
336,143,68461,2,0,B|359:101|359:101|371:63|371:63|405:21,2,135,2|0|0,1:2|0:0|1:0,0:0:0:0:
256,185,70201,6,0,B|209:185|209:185|171:202|171:202|112:202,2,135,2|0|0,1:2|0:0|1:0,0:0:0:0:
256,274,71939,2,0,L|256:368,1,90,0|0,1:0|1:0,0:0:0:0:
344,346,72809,2,0,L|344:256,1,90,0|0,1:0|1:0,0:0:0:0:
341,165,73679,5,4,1:0:0:0:
256,135,74113,2,0,B|195:135|195:135|144:151|144:151|72:151,1,180,0|0,1:0|1:0,0:0:0:0:
27,225,75418,1,2,0:0:0:0:
27,314,75852,2,0,B|88:314|88:314|139:298|139:298|212:298,1,180,0|0,1:0|1:0,0:0:0:0:
257,224,77157,38,0,P|247:181|263:131,1,90,0|0,0:0|1:0,0:0:0:0:
335,184,78026,2,0,P|378:194|428:178,1,90,0|0,0:0|1:0,0:0:0:0:
500,138,78896,2,0,P|510:181|494:231,1,90,0|0,0:0|1:0,0:0:0:0:
456,304,79765,1,0,1:0:0:0:
366,294,80200,1,0,1:0:0:0:
301,228,80635,6,0,L|301:83,2,135,4|0|0,1:2|0:0|1:0,0:0:0:0:
211,231,82374,2,0,L|211:86,2,135,2|0|0,1:2|0:0|1:0,0:0:0:0:
211,321,84113,22,0,B|182:346|146:358|146:358|107:340|72:348,2,135,4|2|0,1:0|0:0|1:0,0:0:0:0:
301,319,85852,2,0,B|330:344|366:356|366:356|405:338|440:346,2,135,4|2|2,1:0|0:0|0:0,0:0:0:0:
256,192,87591,12,0,89330,0:0:0:0:
