osu file format v13

[General]
AudioFilename: kurosaki_maon_-_under_shaft__tv_size_.mp3
AudioLeadIn: 3000
PreviewTime: 48944
Countdown: 0
SampleSet: Normal
StackLeniency: 0.7
Mode: 0
LetterboxInBreaks: 0
WidescreenStoryboard: 1

[Editor]
Bookmarks: 15853,61680
DistanceSpacing: 1.1
BeatDivisor: 4
GridSize: 4
TimelineZoom: 1.5

[Metadata]
Title:UNDER/SHAFT (TV Size)
TitleUnicode:UNDER/SHAFT (TV Size)
Artist:Kurosaki Maon
ArtistUnicode:黒崎真音
Creator:Mei
Version:Normal
Source:Jormungand PERFECT ORDER
Tags:ヨルムンガンド opening
BeatmapID:537827
BeatmapSetID:113006

[Difficulty]
HPDrainRate:3
CircleSize:3.5
OverallDifficulty:3
ApproachRate:5
SliderMultiplier:1.1
SliderTickRate:1

[Events]
//Background and Video events
0,0,"bg.jpg",0,0
//Break Periods
//Storyboard Layer 0 (Background)
//Storyboard Layer 1 (Fail)
//Storyboard Layer 2 (Pass)
//Storyboard Layer 3 (Foreground)
//Storyboard Sound Samples
//Background Colour Transformations
3,100,163,162,255

[TimingPoints]
226,363.636363636364,4,1,1,50,1,0
49680,-100,4,1,1,50,0,1
70044,-100,4,1,1,50,0,0
88953,-100,4,1,1,5,0,0

[Colours]
Combo1 : 0,128,192
Combo2 : 255,128,0
Combo3 : 128,128,128

[HitObjects]
17,91,226,6,0,P|28:138|128:135,1,165
157,93,953,2,0,L|275:72,1,110
352,8,1680,1,0,0:0:0:0:
447,61,2044,1,0,0:0:0:0:
377,146,2407,2,0,P|374:174|389:269,1,110
494,293,3135,6,0,P|454:346|354:361,1,165
340,316,3862,2,0,P|303:310|216:304,1,110
140,364,4589,1,0,0:0:0:0:
100,260,4953,1,0,0:0:0:0:
200,220,5316,2,0,P|217:190|204:56,1,165
164,32,6044,1,0,0:0:0:0:
256,192,6226,12,0,7862,0:0:0:0:
36,76,8953,6,0,L|108:64,1,55
136,108,9316,2,0,P|164:144|236:140,1,110
296,48,10044,2,0,L|412:36,1,110
468,140,10771,2,0,B|484:180|484:180|468:244,1,110
376,320,11498,2,0,L|252:324,1,110
148,352,12226,6,0,P|128:320|124:232,1,110
12,196,12953,2,0,P|28:156|80:96,1,110
184,68,13680,2,0,L|300:56,1,110
384,136,14407,2,0,L|500:124,1,110
488,248,15135,5,0,0:0:0:0:
256,316,15862,1,0,0:0:0:0:
24,248,16589,1,0,0:0:0:0:
256,180,17316,1,0,0:0:0:0:
370,141,17680,6,0,P|373:196|356:248,2,110,0|0|0,0:0|0:0|0:0,0:0:0:0:
296,48,18771,1,0,0:0:0:0:
352,40,18953,2,0,P|404:32|472:32,1,110
500,76,19498,1,0,0:0:0:0:
492,196,19862,2,0,L|480:312,2,110,0|0|0,0:0|0:0|0:0,0:0:0:0:
392,156,20953,6,0,L|260:140,1,110
236,168,21498,2,0,P|196:144|196:64,1,110
232,56,22044,2,0,L|60:52,1,165
12,148,22953,1,0,0:0:0:0:
28,200,23135,2,0,L|12:260,2,55,0|0|0,0:0|0:0|0:0,0:0:0:0:
116,268,23862,6,0,P|156:296|228:280,1,110
336,304,24589,1,0,0:0:0:0:
368,252,24771,2,0,P|380:208|384:124,1,110
324,40,25498,2,0,L|200:28,1,110
164,64,26044,2,0,L|156:124,2,55,0|0|0,0:0|0:0|0:0,0:0:0:0:
60,28,26771,6,0,P|60:96|52:144,1,110
100,236,27498,1,0,0:0:0:0:
140,200,27680,2,0,L|264:192,1,110
328,284,28407,2,0,B|340:336|324:376|324:376|296:364,1,110
252,352,28953,2,0,L|136:360,1,110
52,276,29680,5,0,0:0:0:0:
88,160,30044,1,0,0:0:0:0:
116,44,30407,1,0,0:0:0:0:
224,100,30771,2,0,P|276:108|324:100,2,82.5,0|0|0,0:0|0:0|0:0,0:0:0:0:
176,136,31498,2,0,B|164:168|176:204|176:204|156:228|156:228|172:260|172:260|160:304,1,165
176,348,32226,5,0,0:0:0:0:
296,352,32589,2,0,L|420:340,1,110
496,260,33316,1,0,0:0:0:0:
396,192,33680,2,0,L|272:180,1,110
180,240,34407,2,0,B|168:304|168:304|176:340,2,82.5,0|0|0,0:0|0:0|0:0,0:0:0:0:
104,76,35498,6,0,P|152:80|224:48,1,110
328,36,36226,1,0,0:0:0:0:
292,152,36589,2,0,L|280:272,1,110
380,332,37316,2,0,B|444:332|444:332|480:352,2,82.5,0|0|0,0:0|0:0|0:0,0:0:0:0:
324,360,38044,1,0,0:0:0:0:
216,308,38407,6,0,P|168:304|88:308,1,110
28,212,39135,1,0,0:0:0:0:
120,136,39498,2,0,P|128:84|132:16,2,110,0|0|0,0:0|0:0|0:0,0:0:0:0:
240,128,40589,1,0,0:0:0:0:
276,176,40771,6,0,L|400:172,1,110
436,204,41316,2,0,P|428:252|440:320,1,110
328,368,42044,1,0,0:0:0:0:
280,332,42226,2,0,L|152:324,1,110
64,352,42953,2,0,P|48:296|52:232,1,110
64,184,43498,1,0,0:0:0:0:
140,88,43862,6,0,B|188:60|188:60|236:60,2,82.5,0|0|0,0:0|0:0|0:0,0:0:0:0:
223,344,45316,2,0,B|175:316|175:316|151:275,2,82.5,0|0|0,0:0|0:0|0:0,0:0:0:0:
404,143,46771,2,0,B|404:199|404:199|380:240,2,82.5,0|0|0,0:0|0:0|0:0,0:0:0:0:
256,192,48044,12,0,48953,0:0:0:0:
64,104,49680,6,0,L|176:84,1,110
232,92,50226,1,0,0:0:0:0:
340,148,50589,2,0,B|376:180|376:180|376:248,1,110
304,340,51316,1,0,0:0:0:0:
248,320,51498,2,0,L|180:316,1,55
76,352,52044,2,0,P|60:300|64:180,1,165
88,72,52953,5,0,0:0:0:0:
136,112,53135,2,0,L|264:88,1,110
364,76,53862,2,0,P|376:124|380:192,1,110
368,244,54407,2,0,P|320:232|248:228,1,110
196,332,55135,1,0,0:0:0:0:
76,344,55498,6,0,P|72:296|76:220,1,110
128,204,56044,2,0,P|160:192|176:112,1,110
136,84,56589,1,0,0:0:0:0:
84,52,56771,2,0,L|256:36,1,165
352,100,57680,2,0,P|368:164|368:208,1,110
364,268,58226,2,0,L|192:276,1,165
76,296,59135,6,0,P|54:324|44:356,2,55,0|0|0,0:0|0:0|0:0,0:0:0:0:
104,244,59680,2,0,P|120:200|128:128,2,110,0|0|0,0:0|0:0|0:0,0:0:0:0:
220,280,60771,2,0,L|348:272,1,110
368,228,61316,6,0,P|400:192|392:112,1,110
360,88,61862,1,0,0:0:0:0:
244,120,62226,2,0,B|192:140|192:140|128:136,1,110
100,248,62952,1,0,0:0:0:0:
132,300,63135,2,0,L|248:296,1,110
268,240,63680,2,0,P|304:216|404:264,1,165
320,352,64589,5,0,0:0:0:0:
264,332,64771,2,0,L|148:320,1,110
56,248,65498,2,0,P|52:200|68:140,1,110
128,124,66044,2,0,L|188:120,2,55,0|0|0,0:0|0:0|0:0,0:0:0:0:
52,28,66771,1,0,0:0:0:0:
16,144,67135,6,0,P|0:196|4:251,1,110,0|0,0:0|0:0,0:0:0:0:
112,332,67862,2,0,L|236:328,1,110
268,288,68407,2,0,L|292:228,2,55,0|0|0,0:0|0:0|0:0,0:0:0:0:
256,192,69135,12,0,70771,0:0:0:0:
128,92,71680,6,0,L|112:28,2,55,0|0|0,0:0|0:0|0:0,0:0:0:0:
120,152,72226,2,0,P|104:200|104:268,1,110
176,356,72953,2,0,L|248:352,1,55
328,280,73498,2,0,P|344:232|344:164,2,110,0|0|0,0:0|0:0|0:0,0:0:0:0:
208,264,74589,2,0,L|80:268,1,110
284,28,75862,6,0,P|324:16|356:12,1,55
428,92,76407,2,0,P|448:140|448:212,2,110,0|0|0,0:0|0:0|0:0,0:0:0:0:
308,108,77498,2,0,P|256:120|192:116,1,110
72,320,78771,5,0,0:0:0:0:
188,284,79135,2,0,L|196:208,2,55,0|0|0,0:0|0:0|0:0,0:0:0:0:
300,332,79862,2,0,P|336:352|412:336,1,110
468,240,80589,2,0,L|484:120,1,110
416,32,81316,1,0,0:0:0:0:
348,132,81680,6,0,L|348:192,2,55,0|0|0,0:0|0:0|0:0,0:0:0:0:
256,52,82407,2,0,P|204:40|136:48,1,110
128,164,83135,2,0,P|168:180|248:168,1,110
348,132,83862,1,0,0:0:0:0:
388,248,84226,1,0,0:0:0:0:
292,320,84589,5,0,0:0:0:0:
292,320,86044,2,0,B|196:304,2,82.5,0|0|0,0:0|0:0|0:0,0:0:0:0:
256,192,86771,12,0,88953,0:0:0:0:
