osu file format v13

[General]
AudioFilename: kurosaki_maon_-_under_shaft__tv_size_.mp3
AudioLeadIn: 3000
PreviewTime: 48944
Countdown: 0
SampleSet: Normal
StackLeniency: 0.7
Mode: 0
LetterboxInBreaks: 0
WidescreenStoryboard: 1

[Editor]
Bookmarks: 15853
DistanceSpacing: 0.5
BeatDivisor: 4
GridSize: 4
TimelineZoom: 1.5

[Metadata]
Title:UNDER/SHAFT (TV Size)
TitleUnicode:UNDER/SHAFT (TV Size)
Artist:Kurosaki Maon
ArtistUnicode:黒崎真音
Creator:Mei
Version:Insane
Source:Jormungand PERFECT ORDER
Tags:ヨルムンガンド opening
BeatmapID:293396
BeatmapSetID:113006

[Difficulty]
HPDrainRate:7
CircleSize:4
OverallDifficulty:7
ApproachRate:9
SliderMultiplier:1.7
SliderTickRate:1

[Events]
//Background and Video events
0,0,"bg.jpg",0,0
//Break Periods
//Storyboard Layer 0 (Background)
//Storyboard Layer 1 (Fail)
//Storyboard Layer 2 (Pass)
//Storyboard Layer 3 (Foreground)
//Storyboard Sound Samples
//Background Colour Transformations
3,100,163,162,255

[TimingPoints]
226,363.636363636364,4,1,1,50,1,0
226,-133.333333333333,4,1,1,50,0,0
6044,-100,4,1,1,50,0,0
7862,-200,4,1,1,50,0,0
8135,-100,4,1,1,5,0,0
8226,-100,4,1,1,50,0,0
49680,-83.3333333333333,4,1,1,50,0,1
70044,-100,4,1,1,50,0,0
88953,-100,4,1,1,5,0,0

[Colours]
Combo1 : 0,128,192
Combo2 : 255,128,0
Combo3 : 128,128,128

[HitObjects]
128,24,226,5,0,0:0:0:0:
172,132,407,1,0,0:0:0:0:
268,28,589,2,0,L|176:36,1,63.7500024318696,0|0,0:0|0:0,0:0:0:0:
252,136,953,2,0,P|276:168|368:152,1,127.500004863739,8|0,0:0|0:0,0:0:0:0:
408,36,1498,1,0,0:0:0:0:
480,156,1680,6,0,P|492:208|496:240,1,63.7500024318696,0|0,0:0|0:0,0:0:0:0:
412,292,2044,2,0,P|396:332|376:356,1,63.7500024318696,0|0,0:0|0:0,0:0:0:0:
292,288,2407,2,0,P|248:312|144:300,1,127.500004863739,8|0,0:0|0:0,0:0:0:0:
76,264,2953,1,0,0:0:0:0:
72,152,3135,6,0,B|75:105|75:105|128:32,1,127.500004863739,0|0,0:0|0:0,0:0:0:0:
208,144,3680,1,0,0:0:0:0:
320,28,3862,2,0,L|232:36,1,63.7500024318696,8|0,0:0|0:0,0:0:0:0:
308,180,4226,1,0,0:0:0:0:
404,96,4407,1,0,0:0:0:0:
404,96,4498,1,0,0:0:0:0:
404,96,4589,6,0,L|408:208,1,95.6250036478044,0|0,0:0|0:0,0:0:0:0:
412,272,4953,2,0,P|364:300|328:300,1,63.7500024318696,8|4,0:0|0:0,0:0:0:0:
160,252,5316,2,0,P|212:248|300:276,1,127.500004863739,0|8,0:0|0:0,0:0:0:0:
75,311,5862,2,0,P|65:299|59:285,1,31.8750012159348,8|0,0:0|0:0,0:0:0:0:
92,204,6044,6,0,L|112:84,1,85,4|0,0:0|0:0,0:0:0:0:
460,152,6589,1,0,0:0:0:0:
320,108,6771,2,0,L|277:120,3,28.3333333333333,0|0|0|0,0:0|0:0|0:0|0:0,0:0:0:0:
356,216,7135,1,2,0:0:0:0:
400,20,7316,1,2,0:0:0:0:
476,340,7680,6,0,L|420:328,1,42.5,0|0,0:0|0:0,0:0:0:0:
352,332,7862,6,0,L|276:340,1,63.75,0|0,0:0|0:0,0:0:0:0:
196,328,8226,6,0,L|188:292,13,21.25,0|0|0|0|0|0|0|0|0|0|0|0|0|0,0:0|0:0|0:0|0:0|0:0|0:0|0:0|0:0|0:0|0:0|0:0|0:0|0:0|0:0,0:0:0:0:
168,232,8953,5,4,0:0:0:0:
280,104,9135,1,0,0:0:0:0:
120,32,9316,2,0,P|120:88|128:132,1,85,8|0,0:0|0:0,0:0:0:0:
344,52,9680,2,0,P|296:24|196:80,1,170,0|8,0:0|0:0,0:0:0:0:
244,272,10226,1,0,0:0:0:0:
313,181,10407,6,0,P|301:140|280:104,1,85,0|0,0:0|0:0,0:0:0:0:
11,248,10771,1,8,0:0:0:0:
75,328,10953,1,0,0:0:0:0:
159,272,11135,2,0,L|244:272,1,85,0|0,0:0|0:0,0:0:0:0:
360,368,11498,1,8,0:0:0:0:
444,216,11680,1,0,0:0:0:0:
452,240,11771,1,0,0:0:0:0:
460,264,11862,5,4,0:0:0:0:
312,180,12044,1,0,0:0:0:0:
444,48,12226,2,0,P|436:104|428:140,1,85,8|0,0:0|0:0,0:0:0:0:
360,256,12589,1,0,0:0:0:0:
500,160,12771,1,0,0:0:0:0:
343,66,12953,2,0,L|260:80,1,85,8|0,0:0|0:0,0:0:0:0:
76,152,13316,6,0,P|112:200|200:196,1,127.5,0|0,0:0|0:0,0:0:0:0:
248,216,13680,2,0,P|296:212|352:228,1,85,8|0,0:0|0:0,0:0:0:0:
200,336,14044,1,0,0:0:0:0:
152,136,14226,1,0,0:0:0:0:
152,136,14316,1,0,0:0:0:0:
152,136,14407,1,8,0:0:0:0:
292,292,14589,1,0,0:0:0:0:
68,256,14771,6,0,P|120:252|168:244,1,85,4|0,0:0|0:0,0:0:0:0:
380,200,15135,2,0,P|320:176|208:192,1,170,8|0,0:0|0:0,0:0:0:0:
432,312,15680,1,0,0:0:0:0:
448,32,15862,2,0,L|460:208,1,170,8|0,0:0|0:0,0:0:0:0:
256,40,16407,1,0,0:0:0:0:
64,144,16589,2,0,B|204:124|204:124|160:96,1,170,8|0,0:0|0:0,0:0:0:0:
92,36,17135,1,0,0:0:0:0:
24,244,17316,2,0,P|32:304|112:324,1,127.5,8|0,0:0|0:0,0:0:0:0:
160,324,17680,6,0,L|248:312,1,85,4|0,0:0|0:0,0:0:0:0:
412,352,18044,1,8,0:0:0:0:
336,144,18226,1,0,0:0:0:0:
332,168,18316,1,0,0:0:0:0:
328,192,18407,1,2,0:0:0:0:
472,296,18589,2,0,L|492:340,2,42.5,0|0|8,0:0|0:0|0:0,0:0:0:0:
496,152,18953,2,0,B|516:108|500:56|500:56|480:84|452:84,1,127.5,2|0,0:0|0:0,0:0:0:0:
408,84,19316,5,0,0:0:0:0:
404,64,19407,1,0,0:0:0:0:
400,44,19498,2,0,L|292:28,1,85,10|0,0:0|0:0,0:0:0:0:
176,72,19862,2,0,L|148:88,6,21.25,2|0|0|0|0|0|0,0:0|0:0|0:0|0:0|0:0|0:0|0:0,0:0:0:0:
52,136,20226,2,0,L|-12:148,1,42.5,0|0,0:0|0:0,0:0:0:0:
156,200,20407,2,0,L|220:212,1,42.5,2|0,0:0|0:0,0:0:0:0:
88,312,20589,6,0,P|68:252|64:192,1,85,4|0,0:0|0:0,0:0:0:0:
168,352,20953,2,0,P|212:360|272:356,1,85,8|0,0:0|0:0,0:0:0:0:
384,248,21316,1,0,0:0:0:0:
336,348,21498,1,0,0:0:0:0:
308,212,21680,1,8,0:0:0:0:
444,312,21862,1,0,0:0:0:0:
488,160,22044,6,0,L|380:164,1,85,0|0,0:0|0:0,0:0:0:0:
256,28,22407,1,8,0:0:0:0:
172,108,22589,2,0,P|132:152|48:120,1,127.5,0|0,0:0|0:0,0:0:0:0:
24,84,22953,2,0,L|32:184,1,85,0|8,0:0|0:0,0:0:0:0:
88,312,23316,1,0,0:0:0:0:
216,248,23498,6,0,P|152:232|116:228,1,85,0|0,0:0|0:0,0:0:0:0:
312,280,23862,1,8,0:0:0:0:
184,336,24044,1,0,0:0:0:0:
312,280,24226,2,0,L|324:176,1,85,0|0,0:0|0:0,0:0:0:0:
312,172,24498,1,0,0:0:0:0:
300,152,24589,1,8,0:0:0:0:
408,80,24771,2,0,P|336:68|232:64,1,170,0|0,0:0|0:0,0:0:0:0:
164,8,25316,5,8,0:0:0:0:
104,132,25498,2,0,L|96:36,1,85,0|0,0:0|0:0,0:0:0:0:
216,208,25862,2,0,L|224:304,2,85,0|8|0,0:0|0:0|0:0,0:0:0:0:
8,300,26407,6,0,P|40:344|124:324,1,127.5,4|0,0:0|0:0,0:0:0:0:
180,360,26771,2,0,P|244:352|280:352,1,85,8|0,0:0|0:0,0:0:0:0:
384,368,27135,1,0,0:0:0:0:
328,228,27316,1,0,0:0:0:0:
488,264,27498,1,8,0:0:0:0:
328,228,27680,2,0,L|220:232,1,85,0|0,0:0|0:0,0:0:0:0:
408,136,28044,5,0,0:0:0:0:
344,0,28226,1,8,0:0:0:0:
408,136,28407,2,0,P|424:196|424:232,1,85,0|0,0:0|0:0,0:0:0:0:
288,148,28771,1,0,0:0:0:0:
428,56,28953,1,8,0:0:0:0:
248,44,29135,1,0,0:0:0:0:
224,188,29316,2,0,P|272:220|336:204,1,127.5,0|0,0:0|0:0,0:0:0:0:
368,136,29680,6,0,L|352:296,1,127.5,12|0,0:0|0:0,0:0:0:0:
292,336,30044,2,0,B|264:316|264:316|240:320|204:340|152:308,1,127.5,4|0,0:0|0:0,0:0:0:0:
96,344,30407,2,0,B|88:292|104:264|104:264|124:248|132:208,1,127.5,12|0,0:0|0:0,0:0:0:0:
80,160,30771,5,0,0:0:0:0:
232,56,30953,2,0,L|244:-4,2,42.5,0|0|0,0:0|0:0|0:0,0:0:0:0:
268,204,31316,2,0,L|372:196,2,85,0|0|0,0:0|0:0|0:0,0:0:0:0:
416,64,31862,1,8,0:0:0:0:
416,64,31953,1,0,0:0:0:0:
416,64,32044,1,0,0:0:0:0:
416,64,32135,1,0,0:0:0:0:
416,64,32226,5,2,0:0:0:0:
360,276,32407,1,2,0:0:0:0:
508,140,32589,1,2,0:0:0:0:
280,112,32771,1,0,0:0:0:0:
424,364,32953,2,0,P|444:312|456:256,1,85,0|0,0:0|0:0,0:0:0:0:
268,204,33316,2,0,P|248:256|236:312,1,85,8|0,0:0|0:0,0:0:0:0:
288,356,33680,5,0,0:0:0:0:
56,188,34044,1,4,0:0:0:0:
344,64,34407,1,4,0:0:0:0:
268,204,34589,1,4,0:0:0:0:
268,204,34680,2,0,L|272:136,1,42.5,0|4,0:0|0:0,0:0:0:0:
120,56,34953,2,0,L|122:98,1,42.5,4|0,0:0|0:0,0:0:0:0:
132,188,35135,5,8,0:0:0:0:
244,44,35316,1,8,0:0:0:0:
0,72,35498,1,2,0:0:0:0:
144,300,35680,1,0,0:0:0:0:
216,248,35862,2,0,L|232:136,1,85,2|0,0:0|0:0,0:0:0:0:
28,296,36226,1,2,0:0:0:0:
136,376,36407,1,0,0:0:0:0:
248,336,36589,6,0,P|308:320|428:324,1,170,2|8,0:0|0:0,0:0:0:0:
488,240,37135,1,0,0:0:0:0:
480,232,37226,1,0,0:0:0:0:
472,224,37316,2,0,P|456:168|452:112,1,85,0|0,0:0|0:0,0:0:0:0:
508,28,37680,2,0,L|404:36,1,85,10|0,0:0|0:0,0:0:0:0:
232,16,38044,5,4,0:0:0:0:
280,192,38226,1,0,0:0:0:0:
419,90,38407,2,0,P|344:76|308:72,1,85,8|0,0:0|0:0,0:0:0:0:
112,144,38771,2,0,P|187:129|223:125,1,85,0|0,0:0|0:0,0:0:0:0:
352,272,39135,2,0,P|368:192|368:168,1,85,8|0,0:0|0:0,0:0:0:0:
152,216,39498,5,0,0:0:0:0:
280,192,39680,1,0,0:0:0:0:
192,340,39862,2,0,L|76:332,1,85,8|0,0:0|0:0,0:0:0:0:
304,336,40226,2,0,P|344:356|428:276,1,170,0|8,0:0|0:0,0:0:0:0:
504,148,40771,1,0,0:0:0:0:
476,128,40862,1,0,0:0:0:0:
444,116,40953,6,0,L|328:120,1,85,0|0,0:0|0:0,0:0:0:0:
292,16,41316,1,8,0:0:0:0:
224,184,41498,1,0,0:0:0:0:
224,184,41589,1,0,0:0:0:0:
224,184,41680,2,0,L|212:72,1,85,0|0,0:0|0:0,0:0:0:0:
112,40,42044,1,12,0:0:0:0:
144,216,42226,6,0,P|180:264|296:236,1,170,0|0,0:0|0:0,0:0:0:0:
464,124,42771,2,0,L|364:100,1,85,8|0,0:0|0:0,0:0:0:0:
152,128,43135,1,0,0:0:0:0:
256,100,43316,1,0,0:0:0:0:
280,16,43498,1,8,0:0:0:0:
224,184,43680,1,0,0:0:0:0:
376,196,43862,6,0,B|448:204|448:204|508:252,2,127.5,0|0|0,0:0|0:0|0:0,0:0:0:0:
256,100,44589,2,0,L|171:109,1,85
252,288,44953,2,0,L|336:297,1,85
120,216,45316,6,0,B|48:208|48:208|-12:160,2,127.5,0|0|0,0:0|0:0|0:0,0:0:0:0:
336,204,46044,2,0,L|352:104,1,85
156,200,46407,2,0,L|169:283,1,85
256,48,46771,5,0,0:0:0:0:
256,192,47044,1,0,0:0:0:0:
256,336,47316,1,0,0:0:0:0:
400,64,47498,5,0,0:0:0:0:
60,184,47862,1,0,0:0:0:0:
480,224,48226,5,0,0:0:0:0:
404,144,48407,1,8,0:0:0:0:
372,280,48589,1,4,0:0:0:0:
512,112,48771,1,0,0:0:0:0:
296,168,48953,2,0,L|260:160,8,21.25,0|0|0|0|0|0|0|0|0,0:0|0:0|0:0|0:0|0:0|0:0|0:0|0:0|0:0,0:0:0:0:
164,96,49498,1,0,0:0:0:0:
273,254,49680,5,2,0:0:0:0:
145,316,49862,5,0,0:0:0:0:
145,316,50044,1,8,0:0:0:0:
372,280,50226,2,0,P|320:264|252:252,1,101.999996887207,0|2,0:0|0:0,0:0:0:0:
128,240,50589,1,0,0:0:0:0:
128,240,50771,1,8,0:0:0:0:
416,212,50953,2,0,P|361:210|292:216,1,101.999996887207,0|2,0:0|0:0,0:0:0:0:
114,163,51317,1,0,0:0:0:0:
114,163,51499,1,8,0:0:0:0:
456,144,51680,2,0,P|402:156|338:179,1,101.999996887207,0|6,0:0|0:0,0:0:0:0:
204,232,52044,5,0,0:0:0:0:
180,28,52226,1,4,0:0:0:0:
288,148,52407,1,2,0:0:0:0:
80,128,52589,6,0,L|196:120,1,101.999996887207,6|0,0:0|0:0,0:0:0:0:
312,276,52953,1,8,0:0:0:0:
108,352,53135,2,0,P|104:288|104:224,1,101.999996887207,2|0,0:0|0:0,0:0:0:0:
288,188,53498,1,2,0:0:0:0:
317,369,53680,2,0,L|216:372,1,101.999996887207,8|2,0:0|0:0,0:0:0:0:
356,148,54044,5,2,0:0:0:0:
456,252,54226,2,0,P|455:302|451:353,1,101.999996887207,2|8,0:0|0:0,0:0:0:0:
276,272,54589,1,2,0:0:0:0:
368,56,54771,2,0,L|476:48,1,101.999996887207,0|2,0:0|0:0,0:0:0:0:
378,279,55135,2,0,L|270:271,1,101.999996887207,10|0,0:0|0:0,0:0:0:0:
252,280,55407,1,0,0:0:0:0:
228,288,55498,6,0,P|200:204|224:88,1,203.999993774414,6|8,0:0|0:0,0:0:0:0:
484,136,56044,2,0,L|380:144,1,101.999996887207,2|0,0:0|0:0,0:0:0:0:
260,28,56407,1,2,0:0:0:0:
328,200,56589,1,8,0:0:0:0:
112,124,56771,1,2,0:0:0:0:
112,124,56953,6,0,L|216:132,1,101.999996887207,2|0,0:0|0:0,0:0:0:0:
104,256,57316,2,0,P|48:284|-8:256,1,101.999996887207,10|0,0:0|0:0,0:0:0:0:
188,320,57680,2,0,P|252:296|344:320,1,152.999995330811,2|0,0:0|0:0,0:0:0:0:
388,364,58044,2,0,L|376:236,1,101.999996887207,10|2,0:0|0:0,0:0:0:0:
472,136,58407,5,2,0:0:0:0:
404,24,58589,1,0,0:0:0:0:
300,92,58771,2,0,L|192:92,1,101.999996887207,10|0,0:0|0:0,0:0:0:0:
28,136,59135,1,0,0:0:0:0:
84,248,59316,1,2,0:0:0:0:
176,20,59498,1,10,0:0:0:0:
168,168,59680,6,0,B|164:220|164:220|208:264,1,101.999996887207,6|0,0:0|0:0,0:0:0:0:
388,192,60044,2,0,B|344:162|344:162|284:178,1,101.999996887207,6|8,0:0|0:0,0:0:0:0:
256,368,60407,2,0,B|303:345|303:345|319:285,1,101.999996887207,6|0,0:0|0:0,0:0:0:0:
272,44,60771,1,0,0:0:0:0:
272,44,60862,1,0,0:0:0:0:
272,44,60953,2,0,L|260:116,1,50.9999984436036,8|0,0:0|0:0,0:0:0:0:
176,20,61135,2,0,L|184:88,1,50.9999984436036,0|0,0:0|0:0,0:0:0:0:
84,16,61316,5,2,0:0:0:0:
20,176,61498,1,0,0:0:0:0:
20,176,61680,1,8,0:0:0:0:
248,288,61862,2,0,P|176:264|136:232,1,101.999996887207,2|0,0:0|0:0,0:0:0:0:
32,256,62226,1,2,0:0:0:0:
32,256,62407,1,8,0:0:0:0:
324,268,62589,2,0,P|248:263|201:242,1,101.999996887207,2|0,0:0|0:0,0:0:0:0:
44,332,62953,1,2,0:0:0:0:
44,332,63135,1,8,0:0:0:0:
392,240,63316,2,0,P|317:255|267:247,1,101.999996887207,2|0,0:0|0:0,0:0:0:0:
156,128,63680,5,2,0:0:0:0:
208,304,63862,1,8,0:0:0:0:
312,68,64044,1,2,0:0:0:0:
416,156,64226,6,0,L|280:152,1,101.999996887207,6|0,0:0|0:0,0:0:0:0:
200,44,64589,1,10,0:0:0:0:
244,232,64771,1,2,0:0:0:0:
396,72,64953,1,0,0:0:0:0:
416,280,65135,5,2,0:0:0:0:
314,153,65316,1,8,0:0:0:0:
192,344,65498,1,2,0:0:0:0:
192,344,65680,6,0,L|308:336,1,101.999996887207,6|0,0:0|0:0,0:0:0:0:
160,168,66044,1,8,0:0:0:0:
104,296,66226,2,0,L|-12:288,1,101.999996887207,2|0,0:0|0:0,0:0:0:0:
56,64,66589,5,2,0:0:0:0:
80,208,66771,1,10,0:0:0:0:
200,44,66953,1,2,0:0:0:0:
8,104,67135,6,0,L|124:112,1,101.999996887207,2|0,0:0|0:0,0:0:0:0:
272,184,67498,2,0,P|292:136|300:80,1,101.999996887207,10|2,0:0|0:0,0:0:0:0:
196,240,67862,2,0,P|184:292|248:364,1,152.999995330811,2|0,0:0|0:0,0:0:0:0:
312,332,68226,2,0,L|432:320,1,101.999996887207,10|0,0:0|0:0,0:0:0:0:
508,312,68589,1,2,0:0:0:0:
408,124,68771,1,2,0:0:0:0:
84,76,70044,6,0,L|184:68,1,85,2|0,0:0|0:0,0:0:0:0:
40,168,70407,2,0,L|140:160,1,85,0|2,0:0|0:0,0:0:0:0:
180,284,70771,1,0,0:0:0:0:
276,248,70953,1,2,0:0:0:0:
348,320,71135,1,0,0:0:0:0:
348,320,71316,2,0,L|364:136,1,170,2|4,0:0|0:0,0:0:0:0:
288,48,71862,5,0,0:0:0:0:
456,92,72044,1,4,0:0:0:0:
228,152,72226,1,0,0:0:0:0:
228,152,72316,1,0,0:0:0:0:
228,152,72407,1,0,0:0:0:0:
392,8,72589,1,4,0:0:0:0:
452,224,72771,1,0,0:0:0:0:
452,224,72862,1,0,0:0:0:0:
452,224,72953,1,6,0:0:0:0:
372,88,73135,5,6,0:0:0:0:
248,344,73498,1,4,0:0:0:0:
84,144,73862,1,4,0:0:0:0:
364,268,74226,1,4,0:0:0:0:
188,12,74589,1,4,0:0:0:0:
96,292,74953,1,4,0:0:0:0:
336,84,75316,1,4,0:0:0:0:
336,84,75407,1,4,0:0:0:0:
336,84,75498,6,0,L|352:192,1,85,0|0,0:0|0:0,0:0:0:0:
292,300,75862,1,2,0:0:0:0:
464,140,76044,5,2,0:0:0:0:
92,120,76407,1,4,0:0:0:0:
464,292,76771,1,4,0:0:0:0:
180,24,77135,1,4,0:0:0:0:
156,360,77498,1,4,0:0:0:0:
396,96,77862,1,4,0:0:0:0:
92,120,78226,1,0,0:0:0:0:
88,148,78316,1,0,0:0:0:0:
84,176,78407,2,0,L|76:228,1,42.5,2|0,0:0|0:0,0:0:0:0:
168,272,78589,2,0,L|160:324,1,42.5,2|0,0:0|0:0,0:0:0:0:
260,360,78771,5,6,0:0:0:0:
408,220,78953,2,0,P|348:196|308:188,1,85,2|0,0:0|0:0,0:0:0:0:
175,191,79316,2,0,P|134:202|95:219,1,85,2|0,0:0|0:0,0:0:0:0:
332,380,79680,2,0,P|352:340|372:268,1,85,2|0,0:0|0:0,0:0:0:0:
208,112,80044,2,0,L|108:92,1,85,2|0,0:0|0:0,0:0:0:0:
192,304,80407,2,0,L|292:284,1,85,2|0,0:0|0:0,0:0:0:0:
408,220,80771,1,2,0:0:0:0:
408,48,80953,1,0,0:0:0:0:
272,128,81135,1,2,0:0:0:0:
496,156,81316,2,0,P|448:140|384:128,1,85,2|2,0:0|0:0,0:0:0:0:
324,208,81680,5,0,0:0:0:0:
232,24,81862,2,0,L|328:16,1,85,2|2,0:0|0:0,0:0:0:0:
136,88,82226,2,0,P|128:132|128:188,1,85,0|0,0:0|0:0,0:0:0:0:
262,298,82589,2,0,P|233:266|196:248,1,85,2|0,0:0|0:0,0:0:0:0:
168,348,82953,1,0,0:0:0:0:
352,292,83135,5,0,0:0:0:0:
352,292,83316,2,0,L|338:375,1,85,2|0,0:0|0:0,0:0:0:0:
120,225,83680,2,0,L|54:172,1,85,0|0,0:0|0:0,0:0:0:0:
293,57,84044,2,0,L|373:27,1,85,2|2,0:0|0:0,0:0:0:0:
284,140,84407,1,0,0:0:0:0:
284,140,84498,1,0,0:0:0:0:
284,140,84589,6,0,P|211:108|216:23,1,170,0|0,0:0|0:0,0:0:0:0:
416,224,85135,2,0,L|228:244,1,170,0|0,0:0|0:0,0:0:0:0:
84,256,85680,1,0,0:0:0:0:
76,272,86044,5,4,0:0:0:0:
256,348,86316,1,4,0:0:0:0:
436,272,86589,1,4,0:0:0:0:
256,192,86771,12,0,88953,0:0:0:0:
