osu file format v13

[General]
AudioFilename: kurosaki_maon_-_under_shaft__tv_size_.mp3
AudioLeadIn: 3000
PreviewTime: 48944
Countdown: 0
SampleSet: Normal
StackLeniency: 0.7
Mode: 0
LetterboxInBreaks: 0
WidescreenStoryboard: 1

[Editor]
Bookmarks: 15853
DistanceSpacing: 1.2
BeatDivisor: 4
GridSize: 4
TimelineZoom: 1.5

[Metadata]
Title:UNDER/SHAFT (TV Size)
TitleUnicode:UNDER/SHAFT (TV Size)
Artist:Kurosaki Maon
ArtistUnicode:黒崎真音
Creator:Mei
Version:Hard
Source:Jormungand PERFECT ORDER
Tags:ヨルムンガンド opening
BeatmapID:293474
BeatmapSetID:113006

[Difficulty]
HPDrainRate:5
CircleSize:4
OverallDifficulty:5
ApproachRate:7.5
SliderMultiplier:1.4
SliderTickRate:1

[Events]
//Background and Video events
0,0,"bg.jpg",0,0
//Break Periods
2,6244,7401
//Storyboard Layer 0 (Background)
//Storyboard Layer 1 (Fail)
//Storyboard Layer 2 (Pass)
//Storyboard Layer 3 (Foreground)
//Storyboard Sound Samples
//Background Colour Transformations
3,100,163,162,255

[TimingPoints]
226,363.636363636364,4,1,1,50,1,0
226,-133.333333333333,4,1,1,50,0,0
8226,-100,4,1,1,50,0,0
49680,-83.3333333333333,4,1,1,50,0,1
70044,-100,4,1,1,50,0,0
88953,-100,4,1,1,5,0,0

[Colours]
Combo1 : 0,128,192
Combo2 : 255,128,0
Combo3 : 128,128,128

[HitObjects]
188,64,226,6,0,L|264:48,2,52.5000020027161,0|0|0,0:0|0:0|0:0,0:0:0:0:
120,24,771,1,0,0:0:0:0:
64,80,953,2,0,P|48:128|36:192,1,105.000004005432
84,332,1680,1,0,0:0:0:0:
208,352,2044,1,0,0:0:0:0:
288,264,2407,2,0,P|328:240|396:260,1,105.000004005432
492,136,3135,6,0,L|376:120,1,105.000004005432
340,60,3680,1,0,0:0:0:0:
300,128,3862,2,0,P|272:140|208:96,1,105.000004005432
132,52,4407,2,0,L|92:40,2,26.2500010013581,0|0|0,0:0|0:0|0:0,0:0:0:0:
140,140,4771,2,0,P|148:176|152:208,1,52.5000020027161
128,352,5316,2,0,P|88:364|20:348,1,105.000004005432
256,256,6044,5,0,0:0:0:0:
96,88,8226,6,0,L|104:124,7,35,0|0|0|0|0|0|0|0,0:0|0:0|0:0|0:0|0:0|0:0|0:0|0:0,0:0:0:0:
112,176,8953,6,0,L|88:260,1,70
104,328,9316,1,0,0:0:0:0:
180,364,9498,2,0,P|220:372|328:344,1,140
396,332,10044,2,0,P|416:296|424:256,1,70
432,184,10407,5,0,0:0:0:0:
356,36,10771,1,0,0:0:0:0:
272,36,10953,2,0,P|260:56|152:44,1,140
76,48,11498,2,0,P|32:48|-8:72,1,70
52,132,11862,6,0,P|36:180|96:256,1,140
164,232,12407,1,0,0:0:0:0:
292,340,12771,1,0,0:0:0:0:
264,264,12953,2,0,B|288:200|248:184|271:126,1,140
352,104,13498,5,0,0:0:0:0:
432,80,13680,2,0,P|388:28|316:28,1,140
236,36,14226,2,0,P|184:48|148:32,1,70
88,192,14771,5,4,0:0:0:0:
88,192,15135,2,0,L|236:184,1,140
436,312,15862,2,0,L|288:304,1,140
112,268,16589,2,0,P|100:196|120:120,1,140
400,116,17316,2,0,P|412:188|392:264,1,140
398,252,18044,6,0,L|316:244,1,70
176,172,18589,2,0,L|258:163,1,70
356,36,19135,1,0,0:0:0:0:
432,68,19316,2,0,L|420:156,1,70
332,312,19862,2,0,L|280:292,3,35,0|0|0|0,0:0|0:0|0:0|0:0,0:0:0:0:
260,308,20226,2,0,L|236:312,6,17.5,0|0|0|0|0|0|0,0:0|0:0|0:0|0:0|0:0|0:0|0:0,0:0:0:0:
192,320,20589,5,0,0:0:0:0:
192,320,20953,2,0,L|104:304,1,70
64,248,21316,1,0,0:0:0:0:
144,224,21498,2,0,P|152:168|152:144,1,70
76,116,21862,6,0,P|120:72|200:84,1,140
240,148,22407,1,0,0:0:0:0:
304,96,22589,2,0,L|320:16,1,70
404,96,22953,1,0,0:0:0:0:
480,56,23135,1,0,0:0:0:0:
404,96,23316,2,0,P|400:144|488:172,1,140
448,260,23862,6,0,P|440:320|444:348,1,70
364,360,24226,1,0,0:0:0:0:
320,288,24407,1,0,0:0:0:0:
252,336,24589,1,0,0:0:0:0:
252,336,24771,2,0,P|184:352|104:304,1,140
80,252,25316,1,0,0:0:0:0:
156,216,25498,2,0,B|180:164|180:164|160:60,1,140
80,68,26044,2,0,L|93:136,1,70
156,216,26407,6,0,P|200:240|272:184,1,140
280,112,26953,1,0,0:0:0:0:
336,48,27135,2,0,P|380:36|416:40,1,70
472,84,27498,1,0,0:0:0:0:
420,148,27680,2,0,P|412:216|412:300,1,140
308,220,28226,5,0,0:0:0:0:
308,220,28408,2,0,P|316:288|316:372,1,140
224,324,28953,2,0,P|180:304|144:296,1,70
172,208,29316,2,0,P|116:216|92:228,1,70
44,280,29680,5,0,0:0:0:0:
40,112,30044,1,0,0:0:0:0:
192,40,30407,1,0,0:0:0:0:
360,52,30771,2,0,L|368:164,2,105,0|0|0,0:0|0:0|0:0,0:0:0:0:
264,104,31498,2,0,L|248:160,3,35,0|0|0|0,0:0|0:0|0:0|0:0,0:0:0:0:
240,176,31862,2,0,P|204:192|148:176,1,70
224,288,32226,6,0,P|272:272|360:300,1,140
364,308,32953,1,0,0:0:0:0:
368,320,33316,1,0,0:0:0:0:
424,160,33680,6,0,P|408:96|448:28,1,140
272,40,34407,2,0,L|192:48,1,70
144,108,34771,2,0,L|64:100,1,70
24,32,35135,1,0,0:0:0:0:
36,200,35498,6,0,L|44:284,1,70
100,332,35862,2,0,P|136:356|184:360,1,70
160,276,36226,2,0,P|212:268|240:252,1,70
284,200,36589,2,0,B|316:240|300:288|300:288|348:260,1,140
416,116,37316,2,0,L|424:32,1,70
336,96,37680,2,0,L|344:12,1,70
252,48,38044,6,0,P|224:84|132:60,1,140
68,24,38589,1,0,0:0:0:0:
44,108,38771,2,0,P|24:172|32:264,1,140
56,324,39316,2,0,P|104:348|140:344,1,70
318,336,39862,6,0,L|248:336,1,70
400,364,40226,2,0,P|352:320|384:248,1,140
444,212,40771,1,0,0:0:0:0:
444,212,40953,2,0,L|448:128,1,70,0|0,0:0|0:0,0:0:0:0:
364,116,41316,1,0,0:0:0:0:
364,116,41498,2,0,L|360:32,1,70,0|0,0:0|0:0,0:0:0:0:
176,56,42044,1,0,0:0:0:0:
252,84,42226,6,0,P|212:128|116:108,1,140
72,72,42771,2,0,P|20:88|-8:116,1,70
4,120,43044,1,0,0:0:0:0:
4,140,43135,1,0,0:0:0:0:
52,208,43316,2,0,P|64:272|64:308,2,70,0|0|0,0:0|0:0|0:0,0:0:0:0:
8,336,43862,6,0,P|52:360|112:336,2,105,0|0|0,0:0|0:0|0:0,0:0:0:0:
184,352,44589,2,0,L|196:208,1,140
464,264,45316,6,0,P|496:224|508:160,2,105,0|0|0,0:0|0:0|0:0,0:0:0:0:
312,160,46044,2,0,P|340:200|440:168,1,140
252,36,46771,6,0,P|184:56|132:32,2,105,0|0|0,0:0|0:0|0:0,0:0:0:0:
76,16,47498,1,0,0:0:0:0:
60,180,47862,1,0,0:0:0:0:
204,312,48226,6,0,L|132:300,2,70,0|0|0,0:0|0:0|0:0,0:0:0:0:
272,364,48771,1,0,0:0:0:0:
324,300,48953,2,0,P|340:240|340:136,1,140
400,68,49498,1,0,0:0:0:0:
343,162,49680,6,0,L|256:148,1,83.9999974365235
180,88,50044,1,0,0:0:0:0:
160,184,50226,2,0,P|148:236|156:284,1,83.9999974365235
220,340,50589,1,0,0:0:0:0:
304,284,50771,2,0,L|420:276,1,83.9999974365235,0|0,0:0|0:0,0:0:0:0:
460,348,51135,5,0,0:0:0:0:
476,248,51316,2,0,P|484:188|480:152,1,83.9999974365235
384,200,51680,2,0,P|372:148|348:116,1,83.9999974365235
282,197,52044,1,0,0:0:0:0:
186,166,52226,1,0,0:0:0:0:
186,65,52407,1,0,0:0:0:0:
282,34,52589,6,0,P|320:60|440:32,1,167.999994873047
484,144,53135,2,0,B|492:196|492:196|464:316,1,167.999994873047
384,368,53680,1,0,0:0:0:0:
340,276,53862,6,0,P|280:252|152:280,1,167.999994873047
80,256,54407,2,0,P|84:336|88:360,1,83.9999974365235
56,148,54771,2,0,P|20:184|-4:224,1,83.9999974365235
160,164,55135,1,0,0:0:0:0:
144,64,55316,1,0,0:0:0:0:
144,64,55498,6,0,P|216:40|320:88,1,167.999994873047
296,168,56044,2,0,L|280:260,1,83.9999974365235
320,360,56407,1,0,0:0:0:0:
281,250,56589,1,0,0:0:0:0:
380,264,56771,6,0,P|424:288|496:204,1,167.999994873047
512,116,57316,2,0,B|484:96|484:96|460:116|440:96|440:96|404:112|356:104,1,167.999994873047
256,96,57862,2,0,P|196:72|148:64,1,83.9999974365235
88,16,58226,6,0,B|57:97|113:117|77:197,1,167.999994873047
76,280,58771,2,0,B|44:296|44:296|-16:288,1,83.9999974365235
160,236,59135,1,0,0:0:0:0:
156,332,59316,2,0,B|184:352|184:352|248:336,1,83.9999974365235
312,276,59680,2,0,B|360:260|360:260|492:276,2,167.999994873047,0|0|0,0:0|0:0|0:0,0:0:0:0:
232,216,60589,2,0,P|204:176|140:168,1,83.9999974365235
76,188,60953,1,0,0:0:0:0:
76,188,61135,1,0,0:0:0:0:
8,116,61316,6,0,L|8:20,1,83.9999974365235
76,188,61680,1,0,0:0:0:0:
4,252,61862,2,0,P|64:284|104:272,1,83.9999974365235
172,352,62226,1,0,0:0:0:0:
184,252,62407,2,0,L|196:152,1,83.9999974365235
264,96,62771,5,0,0:0:0:0:
292,188,62953,2,0,L|388:192,1,83.9999974365235
440,284,63316,2,0,L|356:287,1,83.9999974365235
276,348,63680,1,0,0:0:0:0:
192,292,63862,2,0,P|184:232|196:184,1,83.9999974365235
92,244,64226,6,0,P|96:184|84:68,1,167.999994873047
176,120,64771,2,0,L|356:96,1,167.999994873047
424,36,65316,2,0,P|428:116|436:148,1,83.9999974365235
472,212,65680,5,0,0:0:0:0:
372,212,65862,2,0,L|264:220,2,83.9999974365235,0|0|0,0:0|0:0|0:0,0:0:0:0:
456,268,66407,2,0,P|472:324|464:360,1,83.9999974365235
372,380,66771,1,0,0:0:0:0:
296,312,66953,1,0,0:0:0:0:
200,340,67135,6,0,P|136:352|24:304,1,167.999994873047
52,220,67680,1,0,0:0:0:0:
52,220,67862,2,0,P|116:208|228:256,1,167.999994873047
296,312,68407,2,0,P|316:264|320:224,1,83.9999974365235
272,144,68771,1,0,0:0:0:0:
484,112,70044,6,0,L|412:77,1,70
429,181,70407,2,0,L|357:146,1,70,0|0,0:0|0:0,0:0:0:0:
312,72,70771,1,0,0:0:0:0:
237,114,70953,2,0,P|251:146|252:181,1,70
171,164,71316,2,0,P|137:196|83:290,1,140
128,352,71862,1,0,0:0:0:0:
208,328,72044,1,0,0:0:0:0:
288,348,72226,2,0,P|336:368|380:364,1,70
432,336,72589,1,0,0:0:0:0:
440,116,72953,5,0,0:0:0:0:
372,64,73135,2,0,L|212:40,1,140
72,176,73862,2,0,L|232:200,1,140
392,352,74589,2,0,L|232:328,1,140
444,280,75316,1,0,0:0:0:0:
388,216,75498,2,0,P|380:168|388:136,1,70
456,104,75862,5,0,0:0:0:0:
396,44,76044,2,0,P|340:60|252:40,1,140
57,144,76771,2,0,P|99:185|126:271,1,140
316,384,77498,2,0,P|330:327|391:261,1,140
261,44,78226,1,0,0:0:0:0:
261,44,78316,1,0,0:0:0:0:
261,44,78407,2,0,L|248:104,3,35,0|0|0|0,0:0|0:0|0:0|0:0,0:0:0:0:
236,116,78771,6,0,P|192:144|144:136,1,70
116,88,79135,1,0,0:0:0:0:
60,152,79316,2,0,P|36:200|40:240,1,70
104,264,79680,1,0,0:0:0:0:
188,248,79862,2,0,L|280:232,1,70
288,312,80226,6,0,L|352:252,1,70
404,332,80589,2,0,L|424:252,1,70
488,216,80953,1,0,0:0:0:0:
416,172,81135,2,0,P|368:160|332:168,2,70,0|0|0,0:0|0:0|0:0,0:0:0:0:
488,128,81680,6,0,P|500:88|500:44,1,70
432,12,82044,1,0,0:0:0:0:
360,56,82226,2,0,L|264:64,1,70
208,84,82589,1,0,0:0:0:0:
252,156,82771,2,0,L|260:252,1,70
212,348,83135,6,0,L|116:340,1,70
192,268,83498,2,0,L|96:260,1,70,0|0,0:0|0:0,0:0:0:0:
328,292,83862,2,0,L|424:284,1,70,0|0,0:0|0:0,0:0:0:0:
308,372,84226,2,0,L|404:364,1,70
460,356,84589,6,0,P|489:293|457:221,1,140
388,196,85135,2,0,L|224:192,1,140
172,228,85680,1,0,0:0:0:0:
172,228,86044,6,0,B|171:272|171:272|175:298|175:298|176:332,2,105,0|0|0,0:0|0:0|0:0,0:0:0:0:
256,192,86771,12,0,88953,0:0:0:0:
