osu file format v14

[General]
AudioFilename: OP.mp3
AudioLeadIn: 0
PreviewTime: 61947
Countdown: 1
SampleSet: Soft
StackLeniency: 0.7
Mode: 0
LetterboxInBreaks: 1
WidescreenStoryboard: 0

[Editor]
Bookmarks: 7126
DistanceSpacing: 2.4
BeatDivisor: 4
GridSize: 4
TimelineZoom: 2.899999

[Metadata]
Title:Setsuna no Kajitsu
TitleUnicode:Setsuna no Kajitsu
Artist:Kurosaki Maon
ArtistUnicode:Kurosaki Maon
Creator:S o r d a
Version:Insane
Source:Grisaia no Rakuen -LE EDEN DE LA GRISAIA-
Tags:frontwing opening visual novel captin1 xinely megurine luka alacat zero_wind sorda
BeatmapID:687259
BeatmapSetID:307138

[Difficulty]
HPDrainRate:8
CircleSize:5
OverallDifficulty:8
ApproachRate:9
SliderMultiplier:1.7
SliderTickRate:1

[Events]
//Background and Video events
Video,-200,"grisaia1.avi"
0,0,"BG.jpg",0,0
//Break Periods
//Storyboard Layer 0 (Background)
//Storyboard Layer 1 (Fail)
//Storyboard Layer 2 (Pass)
//Storyboard Layer 3 (Foreground)
//Storyboard Layer 4 (Overlay)
//Storyboard Sound Samples

[TimingPoints]
636,368.098159509202,4,2,2,40,1,0
2108,357.142857142857,4,2,2,40,1,0
3536,337.078651685393,4,2,2,40,1,0
4884,314.13612565445,4,2,2,40,1,0
5512,297.029702970297,4,2,2,40,1,0
6106,297.029702970297,4,2,2,40,1,0
10542,-100,4,2,1,60,0,0
29775,-200,4,2,1,40,0,0
31334,-100,4,2,1,60,0,0
53482,-200,4,2,1,60,0,0
59775,-100,4,2,1,60,0,0
61947,-100,4,2,1,80,0,1
71155,-100,4,2,1,80,0,0
71452,-100,4,2,1,80,0,1
80957,-100,4,2,1,60,0,0

[Colours]
Combo1 : 255,128,0
Combo2 : 0,128,192
Combo3 : 255,128,128
Combo4 : 255,255,128
Combo5 : 255,128,255

[HitObjects]
72,264,620,6,0,P|112:288|168:276,1,85,2|0,0:0|0:0,0:0:0:0:
264,228,1004,2,0,P|224:204|168:216,1,85
112,164,1372,2,0,P|88:124|100:68,1,85,2|0,0:0|0:0,0:0:0:0:
172,60,1740,2,0,P|212:36|268:48,1,85
376,120,2108,6,0,P|344:96|280:96,1,85,2|0,0:0|0:0,0:0:0:0:
176,160,2465,2,0,P|216:184|272:172,1,85
336,220,2822,2,0,P|360:260|348:316,1,85,2|0,0:0|0:0,0:0:0:0:
276,324,3179,2,0,P|236:348|180:336,1,85
92,232,3536,6,0,P|72:276|20:288,2,85,2|0|0,0:0|0:0|0:0,0:0:0:0:
140,164,4041,1,0,0:0:0:0:
172,84,4210,2,0,P|126:67|81:95,2,85,2|0|0,0:0|0:0|0:0,0:0:0:0:
256,96,4715,1,0,0:0:0:0:
344,92,4884,6,0,L|376:196,1,85,2|0,0:0|0:0,0:0:0:0:
320,316,5198,2,0,L|288:212,1,85
212,212,5512,1,2,0:0:0:0:
212,212,5586,1,0,0:0:0:0:
212,212,5660,1,0,0:0:0:0:
148,268,5809,1,0,0:0:0:0:
84,212,5957,1,0,0:0:0:0:
148,148,6106,6,0,P|180:124|196:68,1,85,2|0,0:0|0:0,0:0:0:0:
324,64,6403,2,0,P|292:88|276:144,1,85
352,168,6700,2,0,P|396:172|440:152,2,85,2|0|0,0:0|0:0|0:0,0:0:0:0:
332,252,7145,1,0,0:0:0:0:
252,284,7294,2,0,P|208:280|164:300,2,85,2|0|0,0:0|0:0|0:0,0:0:0:0:
316,336,7739,1,0,0:0:0:0:
388,312,7888,2,0,P|432:308|456:260,1,85,2|0,0:0|0:0,0:0:0:0:
456,192,8185,2,0,P|484:158|467:107,1,85,0|2,0:0|0:0,0:0:0:0:
404,76,8482,1,0,0:0:0:0:
316,64,8630,6,0,B|276:48|276:48|216:76|140:48,1,170,4|0,0:0|0:0,0:0:0:0:
232,152,9076,2,0,B|272:168|272:168|332:140|408:168,1,170,4|0,0:0|0:0,0:0:0:0:
460,220,9521,1,4,0:0:0:0:
312,304,9818,5,0,0:0:0:0:
228,292,9967,1,8,0:0:0:0:
188,280,10041,1,0,0:0:0:0:
152,260,10115,1,0,0:0:0:0:
112,244,10190,1,0,0:0:0:0:
72,228,10264,1,0,0:0:0:0:
92,144,10412,1,4,0:0:0:0:
240,60,10709,6,0,P|320:40|380:104,1,170,4|2,0:0|0:0,0:0:0:0:
448,148,11155,2,0,P|444:196|412:228,1,85,8|0,0:0|0:0,0:0:0:0:
360,344,11452,2,0,P|328:307|328:261,1,85,2|0,0:0|0:0,0:0:0:0:
224,196,11749,2,0,P|187:227|141:227,1,85,8|0,0:0|0:0,0:0:0:0:
96,112,12046,2,0,P|56:100|32:52,2,85,2|0|8,0:0|0:0|0:0,0:0:0:0:
172,72,12492,1,0,0:0:0:0:
256,68,12640,2,0,P|332:104|324:188,1,170,2|8,0:0|0:0,0:0:0:0:
304,260,13086,6,0,B|248:240|224:284|124:260,1,170,0|2,0:0|0:0,0:0:0:0:
52,252,13531,2,0,P|16:228|12:176,1,85,8|0,0:0|0:0,0:0:0:0:
80,144,13828,2,0,P|104:176|156:192,2,85,0|2|8,0:0|0:0|0:0,0:0:0:0:
156,108,14274,2,0,P|236:132|332:88,1,170,0|2,0:0|0:0,0:0:0:0:
344,188,14719,2,0,P|356:232|404:256,1,85,8|0,0:0|0:0,0:0:0:0:
319,307,15016,2,0,P|287:331|215:311,1,85,4|0,0:0|0:0,0:0:0:0:
244,331,15462,6,0,P|168:324|88:244,1,170,0|2,0:0|0:0,0:0:0:0:
164,212,15907,2,0,P|204:216|240:176,1,85
224,104,16205,1,2,0:0:0:0:
288,48,16353,1,0,0:0:0:0:
372,64,16502,1,0,0:0:0:0:
452,92,16650,6,0,B|436:120|436:120|464:196|392:240,1,170,4|2,0:0|0:0,0:0:0:0:
312,216,17096,2,0,P|268:216|236:272,1,85
276,320,17393,2,0,P|307:351|369:334,2,85,2|0|0,0:0|0:0|0:0,0:0:0:0:
196,292,17838,1,2,0:0:0:0:
112,304,17987,6,0,P|36:272|56:200,1,170,4|2,0:0|0:0,0:0:0:0:
64,116,18432,2,0,P|140:84|177:149,1,170,4|2,0:0|0:0,0:0:0:0:
224,220,18878,2,0,P|288:272|356:216,1,170,4|2,0:0|0:0,0:0:0:0:
388,152,19323,2,0,P|432:160|480:128,2,85,0|8|0,0:0|0:0|0:0,0:0:0:0:
372,68,19769,2,0,P|336:84|288:76,1,85,4|2,0:0|0:0,0:0:0:0:
291,77,20363,6,0,P|216:60|144:124,1,170,4|0,0:0|0:0,0:0:0:0:
72,152,20808,2,0,B|104:188|92:236|92:236|164:312,1,170,2|0,0:0|0:0,0:0:0:0:
232,308,21254,2,0,P|320:328|380:272,1,170,0|2,0:0|0:0,0:0:0:0:
452,244,21700,2,0,P|456:288|492:320,2,85
428,164,22145,2,0,P|468:153|496:122,2,85,8|2|8,0:0|0:0|0:0,0:0:0:0:
272,96,22739,6,0,B|208:96|208:96|156:120|76:96,1,170,4|2,0:0|0:0,0:0:0:0:
80,196,23185,1,0,0:0:0:0:
148,248,23333,2,0,P|128:284|72:308,2,85,0|2|8,0:0|0:0|0:0,0:0:0:0:
224,288,23779,2,0,L|404:336,1,170,0|2,0:0|0:0,0:0:0:0:
436,260,24224,2,0,P|456:296|512:320,2,85,8|0|2,0:0|0:0|0:0,0:0:0:0:
368,183,24670,1,0,0:0:0:0:
346,98,24818,6,0,P|388:91|429:102,2,85,0|2|0,0:3|0:3|0:3,0:3:0:0:
255,144,25264,2,0,P|255:184|219:220,1,85,0|8,0:0|0:0,0:0:0:0:
195,314,25561,1,0,0:0:0:0:
107,261,25709,2,0,P|67:261|31:225,2,85,0|2|8,0:0|0:0|0:0,0:0:0:0:
182,192,26155,1,0,0:0:0:0:
215,288,26304,2,0,L|395:276,1,170,4|2,0:0|0:0,0:0:0:0:
473,227,26749,2,0,P|499:201|492:151,1,85
428,77,27046,1,0,0:0:0:0:
300,144,27195,6,0,P|256:148|188:116,1,85
160,96,27492,2,0,P|117:166|176:226,1,170,4|0,0:0|0:0,0:0:0:0:
248,248,27937,2,0,P|228:328|144:328,1,170,2|0,0:0|0:0,0:0:0:0:
72,300,28383,1,0,0:0:0:0:
32,224,28531,1,2,0:0:0:0:
76,152,28680,6,0,P|116:164|164:128,1,85,4|2,0:0|0:0,0:0:0:0:
232,112,28977,1,0,0:0:0:0:
312,80,29125,2,0,P|348:160|312:244,1,170,8|0,0:0|0:0,0:0:0:0:
264,176,29571,2,0,P|240:212|192:228,1,85,2|0,0:0|0:0,0:0:0:0:
157,299,29868,6,0,L|56:300,1,85,4|0,0:0|0:0,0:0:0:0:
88,216,30313,2,0,L|88:120,1,85,2|0,0:0|0:0,0:0:0:0:
148,68,30759,2,0,L|240:68,1,85
300,124,31205,1,2,0:0:0:0:
350,212,31353,1,0,0:0:0:0:
398,302,31502,1,0,0:0:0:0:
398,302,31576,1,0,0:0:0:0:
398,302,31650,2,0,P|438:306|463:272,2,85,0|2|0,0:0|0:0|0:0,0:0:0:0:
296,290,32096,1,0,0:0:0:0:
184,248,32244,6,0,P|160:280|88:280,1,85,4|0,0:0|0:0,0:0:0:0:
116,204,32541,2,0,P|120:88|172:92,1,170,8|2,0:0|0:0,0:0:0:0:
224,64,32987,2,0,P|340:68|336:120,1,170,0|2,0:0|0:0,0:0:0:0:
488,184,33432,1,0,0:0:0:0:
488,184,33581,2,0,P|476:228|420:236,1,85,8|0,0:0|0:0,0:0:0:0:
347,203,33878,1,0,0:0:0:0:
272,264,34026,2,0,P|288:304|360:328,2,85,2|8|8,0:0|0:0|0:0,0:0:0:0:
304,166,34472,1,0,0:0:0:0:
212,104,34620,6,0,L|52:160,1,170,4|8,0:0|0:0,0:0:0:0:
272,184,35066,2,0,L|432:128,1,170,2|8,0:0|0:0,0:0:0:0:
432,220,35511,2,0,P|432:272|384:312,1,85
328,300,35808,2,0,P|260:332|148:304,1,170,4|8,0:0|0:0,0:0:0:0:
112,248,36254,2,0,P|92:284|40:300,2,85,0|2|0,0:0|0:0|0:0,0:0:0:0:
32,132,36700,5,8,0:0:0:0:
112,36,36848,1,0,0:0:0:0:
232,84,36997,2,0,P|236:124|172:144,2,85,4|0|0,0:0|0:0|0:0,0:0:0:0:
308,44,37442,2,0,P|396:48|448:132,1,170,2|0,0:0|0:0,0:0:0:0:
444,107,37813,1,0,0:0:0:0:
444,107,37888,1,8,0:0:0:0:
472,188,38036,1,2,0:0:0:0:
424,276,38185,6,0,P|396:300|324:288,1,85,4|0,0:0|0:0,0:0:0:0:
264,316,38482,1,0,0:0:0:0:
212,248,38630,2,0,P|132:264|36:196,1,170,4|2,0:0|0:0,0:0:0:0:
44,140,39076,1,8,0:0:0:0:
76,112,39150,1,0,0:0:0:0:
112,92,39224,1,0,0:0:0:0:
148,72,39299,1,0,0:0:0:0:
188,60,39373,6,0,P|224:80|292:72,1,85,4|0,0:0|0:0,0:0:0:0:
244,164,39670,2,0,P|260:236|360:196,1,170,8|0,0:0|0:0,0:0:0:0:
344,104,40115,1,2,0:0:0:0:
456,164,40264,2,0,P|484:196|492:248,1,85,8|0,0:0|0:0,0:0:0:0:
404,328,40561,2,0,P|376:356|304:352,1,85,0|2,0:0|0:0,0:0:0:0:
236,280,40858,2,0,P|284:280|336:248,2,85,0|0|2,0:0|0:0|0:0,0:0:0:0:
104,328,41304,5,0,0:0:0:0:
104,328,41452,2,0,P|64:332|20:296,1,85,8|2,0:0|0:0,0:0:0:0:
116,216,41749,2,0,P|160:208|192:152,1,85
160,56,42046,1,2,0:0:0:0:
160,56,42195,5,0,0:0:0:0:
160,56,42269,1,0,0:0:0:0:
160,56,42343,2,0,P|198:66|207:137,1,85
304,196,42640,2,0,P|368:152|340:56,1,170,2|0,0:0|0:0,0:0:0:0:
232,36,43086,1,0,0:0:0:0:
124,100,43234,2,0,P|128:148|88:188,1,85,2|0,0:0|0:0,0:0:0:0:
184,280,43531,2,0,P|180:232|220:192,1,85
288,108,43828,2,0,P|336:104|376:144,1,85,2|0,0:0|0:0,0:0:0:0:
428,236,44125,5,2,0:0:0:0:
428,236,44422,2,0,P|444:276|408:336,1,85,4|0,0:0|0:0,0:0:0:0:
312,268,44719,2,0,P|304:296|340:368,2,85,2|0|0,0:0|0:0|0:0,0:0:0:0:
340,124,45165,2,0,B|292:132|292:132|236:84|164:96,1,170,4|0,0:0|0:0,0:0:0:0:
64,128,45610,2,0,P|68:160|128:200,1,85,2|0,0:0|0:0,0:0:0:0:
220,248,45907,1,0,0:0:0:0:
312,336,46056,1,2,0:0:0:0:
404,248,46205,1,0,0:0:0:0:
468,122,46353,1,0,0:0:0:0:
312,32,46502,6,0,P|248:72|128:56,1,170,4|2,0:0|0:0,0:0:0:0:
312,160,46947,2,0,P|376:120|496:136,1,170,0|2,0:0|0:0,0:0:0:0:
404,248,47393,2,0,P|384:280|316:296,1,85
256,300,47690,1,2,0:0:0:0:
128,300,47838,2,0,P|88:308|44:280,1,85
144,204,48135,1,0,0:0:0:0:
148,76,48284,2,0,P|188:72|224:32,1,85,2|0,0:0|0:0,0:0:0:0:
340,88,48581,5,0,0:0:0:0:
340,88,48655,1,0,0:0:0:0:
340,88,48729,1,0,0:0:0:0:
444,160,48878,1,0,0:0:0:0:
323,266,49175,6,0,P|251:242|167:290,1,170,4|2,0:0|0:0,0:0:0:0:
256,344,49620,1,0,0:0:0:0:
232,168,49769,1,2,0:0:0:0:
340,88,49917,2,0,P|380:80|432:116,1,85
484,208,50214,2,0,P|444:216|392:180,1,85,2|0,0:0|0:0,0:0:0:0:
276,208,50511,2,0,P|280:248|228:300,2,85
260,80,50957,2,0,P|208:72|132:132,1,127.5
112,136,51254,2,0,P|128:172|120:232,1,85,2|0,0:0|0:0,0:0:0:0:
180,284,51551,5,4,0:0:0:0:
256,244,51700,1,0,0:0:0:0:
308,176,51848,2,0,P|392:176|456:96,1,170,2|0,0:0|0:0,0:0:0:0:
368,96,52294,1,2,0:0:0:0:
408,232,52442,2,0,P|404:264|348:304,1,85
308,176,52739,2,0,P|276:172|236:116,1,85,8|0,0:0|0:0,0:0:0:0:
367,299,53036,2,0,P|341:318|273:307,1,85
256,244,53333,1,2,0:0:0:0:
196,327,53482,1,0,0:0:0:0:
96,296,53630,6,0,L|8:296,1,85,4|0,0:0|0:0,0:0:0:0:
76,140,54224,1,2,0:0:0:0:
138,59,54373,1,0,0:0:0:0:
236,84,54521,2,0,L|324:84,1,85
384,144,54967,1,2,0:0:0:0:
376,228,55115,2,0,L|324:228,1,42.5
264,276,55412,2,0,L|264:332,2,42.5,8|2|0,0:0|0:0|0:0,0:0:0:0:
104,216,56006,6,0,P|68:232|16:216,2,85,2|0|0,0:0|0:0|0:0,0:0:0:0:
220,92,56898,1,2,0:0:0:0:
376,156,57195,2,0,P|404:188|452:196,2,85,2|0|0,0:0|0:0|0:0,0:0:0:0:
208,192,58086,1,2,0:0:0:0:
364,256,58383,2,0,P|296:308|204:304,1,170,2|0,0:0|0:0,0:0:0:0:
140,264,59125,1,0,0:0:0:0:
100,188,59274,1,2,0:0:0:0:
160,128,59422,1,0,0:0:0:0:
160,128,59868,6,0,P|200:132|256:92,1,85,8|2,0:0|0:0,0:0:0:0:
316,260,60165,2,0,P|320:220|280:164,1,85,8|0,0:0|0:0,0:0:0:0:
460,120,60462,2,0,P|420:124|364:84,1,85,2|0,0:0|0:0,0:0:0:0:
124,216,60907,2,0,P|88:232|28:228,2,85,2|0|0,0:0|0:0|0:0,0:0:0:0:
316,260,61502,2,0,P|356:256|412:292,1,85,2|0,0:0|0:0,0:0:0:0:
192,320,61947,6,0,P|232:224|216:152,1,170,4|2,0:0|0:0,0:0:0:0:
328,44,62393,2,0,P|348:80|332:148,1,85
388,196,62690,1,2,0:0:0:0:
396,280,62838,1,0,0:0:0:0:
316,260,62987,2,0,P|248:216|140:224,1,170,2|0,0:0|0:0,0:0:0:0:
104,280,63432,2,0,P|64:288|12:244,1,85,2|0,0:0|0:0,0:0:0:0:
76,148,63729,1,0,0:0:0:0:
184,80,63878,6,0,P|144:72|136:0,2,85,0|2|0,0:0|0:0|0:0,0:0:0:0:
312,80,64323,2,0,P|384:96|396:188,1,170,2|0,0:0|0:0,0:0:0:0:
432,304,64769,1,0,0:0:0:0:
332,228,64917,1,2,0:0:0:0:
228,304,65066,1,0,0:0:0:0:
128,228,65214,2,0,P|88:212|60:152,1,85
168,104,65511,6,0,P|216:44|304:88,1,170,2|0,0:0|0:0,0:0:0:0:
424,72,65957,2,0,P|484:120|440:208,1,170,2|0,0:0|0:0,0:0:0:0:
424,224,66328,1,0,0:0:0:0:
392,252,66403,1,2,0:0:0:0:
356,276,66477,1,0,0:0:0:0:
320,300,66551,1,0,0:0:0:0:
236,296,66700,6,0,P|196:304|132:280,1,85,4|0,0:0|0:0,0:0:0:0:
248,152,66997,2,0,P|270:118|332:89,1,85,8|0,0:0|0:0,0:0:0:0:
424,224,67294,2,0,P|458:246|487:308,1,85,2|0,0:0|0:0,0:0:0:0:
472,148,67591,1,0,0:0:0:0:
376,52,67739,2,0,P|300:32|216:76,1,170,4|2,0:0|0:0,0:0:0:0:
136,88,68185,1,0,0:0:0:0:
68,140,68333,1,0,0:0:0:0:
52,224,68482,2,0,B|88:248|88:248|152:216|204:272,1,170,2|0,0:0|0:0,0:0:0:0:
276,312,68927,1,0,0:0:0:0:
424,224,69076,6,8,P|432:316|336:344,1,170,2|0,0:0|0:0,0:0:0:0:
276,312,69521,1,2,0:0:0:0:
160,188,69670,2,0,P|212:120|312:140,1,170,0|2,0:0|0:0,0:0:0:0:
372,112,70115,2,0,L|476:104,1,85
440,188,70412,2,0,P|484:200|488:256,2,85,2|0|0,0:0|0:0|0:0,0:0:0:0:
356,200,70858,1,0,0:0:0:0:
272,220,71006,2,0,P|220:272|120:256,1,170,2|0,0:0|0:0,0:0:0:0:
96,88,71452,6,0,P|172:56|232:116,1,170,4|2,0:0|0:0,0:0:0:0:
356,128,71898,2,0,L|444:144,1,85
404,264,72195,1,2,0:0:0:0:
328,300,72343,1,0,0:0:0:0:
244,308,72492,2,0,B|168:272|152:320|72:296,1,170
30,226,72937,1,2,0:0:0:0:
90,165,73086,1,0,0:0:0:0:
172,146,73234,1,0,0:0:0:0:
240,84,73383,6,0,P|204:88|144:36,2,85,2|0|0,0:0|0:0|0:0,0:0:0:0:
316,84,73828,2,0,B|396:80|396:80|484:116,1,170,2|0,0:0|0:0,0:0:0:0:
448,192,74274,2,0,P|476:212|488:284,2,85,2|0|0,0:0|0:0|0:0,0:0:0:0:
364,196,74719,1,0,0:0:0:0:
312,264,74868,1,2,0:0:0:0:
228,276,75016,6,0,P|152:308|56:272,1,170,4|2,0:0|0:0,0:0:0:0:
284,108,75462,2,0,P|360:76|456:112,1,170,4|2,0:0|0:0,0:0:0:0:
296,188,75907,2,0,P|328:264|292:360,1,170,4|8,0:0|0:0,0:0:0:0:
304,344,76279,1,0,0:0:0:0:
304,344,76353,1,0,0:0:0:0:
64,104,76650,5,8,0:0:0:0:
64,104,76724,1,0,0:0:0:0:
64,104,76799,1,0,0:0:0:0:
136,60,76947,1,0,0:0:0:0:
208,104,77096,1,0,0:0:0:0:
284,68,77244,6,0,P|364:52|464:112,1,170,2|0,0:0|0:0,0:0:0:0:
456,172,77690,2,0,P|464:216|412:248,1,85
384,308,77987,2,0,P|420:336|472:344,2,85,2|0|0,0:0|0:0|0:0,0:0:0:0:
300,308,78432,2,0,P|232:264|128:300,1,170,2|0,0:0|0:0,0:0:0:0:
80,232,78878,1,0,0:0:0:0:
156,200,79026,1,2,0:0:0:0:
236,168,79175,1,0,0:0:0:0:
312,132,79323,2,0,P|348:148|404:136,1,85,0|2,0:0|0:0,0:0:0:0:
352,216,79620,6,0,P|324:280|216:280,1,170,4|8,0:0|0:0,0:0:0:0:
192,276,79992,1,0,0:0:0:0:
160,248,80066,1,0,0:0:0:0:
72,156,80214,1,2,0:0:0:0:
72,156,80289,1,0,0:0:0:0:
72,156,80363,1,0,0:0:0:0:
152,56,80511,1,0,0:0:0:0:
236,40,80660,2,0,P|280:52|336:32,1,85,2|0,0:0|0:0,0:0:0:0:
288,124,80957,6,0,P|352:164|456:132,1,170,2|0,0:0|0:0,0:0:0:0:
376,92,81403,1,0,0:0:0:0:
360,184,81551,2,0,P|368:228|336:288,2,85,2|0|0,0:0|0:0|0:0,0:0:0:0:
284,228,81997,2,0,P|216:272|108:252,1,170,2|0,0:0|0:0,0:0:0:0:
52,232,82442,1,0,0:0:0:0:
88,152,82591,1,0,0:0:0:0:
116,72,82739,2,0,P|192:40|304:80,1,170,2|0,0:0|0:0,0:0:0:0:
424,136,83333,6,0,P|436:216|348:288,1,170,4|0,0:0|0:0,0:0:0:0:
296,296,83779,1,0,0:0:0:0:
212,300,83927,2,0,P|176:320|108:296,1,85,2|0,0:0|0:0,0:0:0:0:
116,232,84224,2,0,P|80:212|12:236,1,85,2|0,0:0|0:0,0:0:0:0:
160,100,84670,6,0,P|200:108|252:80,1,85,2|0,0:0|0:0,0:0:0:0:
312,44,84967,1,0,0:0:0:0:
392,76,85115,1,8,0:0:0:0:
392,76,85190,1,0,0:0:0:0:
392,76,85264,1,0,0:0:0:0:
436,148,85412,1,0,0:0:0:0:
404,228,85561,6,0,P|320:256|232:204,1,170,4|2,0:0|0:0,0:0:0:0:
188,168,86006,2,0,P|156:192|92:180,1,85
264,140,86304,2,0,P|303:134|340:80,2,85,2|0|0,0:0|0:0|0:0,0:0:0:0:
256,248,86749,2,0,L|256:352,1,85,4|0,0:0|0:0,0:0:0:0:
256,333,88086,6,0,P|208:344|168:317,2,85,4|0|0,0:0|0:0|0:0,0:0:0:0:
336,300,88531,1,0,0:0:0:0:
420,228,88680,1,2,0:0:0:0:
336,156,88828,1,0,0:0:0:0:
436,104,88977,2,0,P|420:68|352:40,1,85,4|0,0:0|0:0,0:0:0:0:
