osu file format v13

[General]
AudioFilename: Rakuen no Tsubasa.mp3
AudioLeadIn: 2000
PreviewTime: 56723
Countdown: 0
SampleSet: Soft
StackLeniency: 0.7
Mode: 0
LetterboxInBreaks: 0
WidescreenStoryboard: 0

[Editor]
DistanceSpacing: 1.2
BeatDivisor: 4
GridSize: 4
TimelineZoom: 1.5

[Metadata]
Title:Rakuen no Tsubasa
TitleUnicode:楽園の翼
Artist:Kurosaki Maon
ArtistUnicode:黒崎真音
Creator:Tari
Version:Normal
Source:グリザイアの果実 -LE FRUIT DE LA GRISAIA-
Tags:opening fruit of loom forbidden Momochikun adaption
BeatmapID:524210
BeatmapSetID:221250

[Difficulty]
HPDrainRate:3
CircleSize:3.5
OverallDifficulty:4
ApproachRate:5
SliderMultiplier:1.28
SliderTickRate:2

[Events]
//Background and Video events
Video,602,"video.avi"
0,0,"BG.jpg",0,0
//Break Periods
//Storyboard Layer 0 (Background)
//Storyboard Layer 1 (Fail)
//Storyboard Layer 2 (Pass)
//Storyboard Layer 3 (Foreground)
//Storyboard Sound Samples
//Background Colour Transformations
3,100,163,162,255

[TimingPoints]
215,387.096774193548,4,2,0,50,1,0
602,387.096774193548,4,2,0,50,1,0
8150,-100,4,2,1,70,0,0
20344,-100,4,2,1,50,0,0
23150,-100,4,2,1,40,0,0
29440,-100,4,2,1,50,0,0
32150,-100,4,2,1,70,0,0
37569,-100,4,2,1,40,0,0
37666,-100,4,2,1,70,0,0
45214,-100,4,2,0,50,0,0
45505,-100,4,2,0,55,0,0
51698,-100,4,2,1,60,0,0
57698,-100,4,2,1,80,0,1
79569,-100,4,2,0,50,0,0
81892,-100,4,2,1,50,0,0
82666,-100,4,2,1,65,0,0
88472,-100,4,2,1,5,0,0

[Colours]
Combo1 : 255,146,94
Combo2 : 0,187,0
Combo3 : 0,128,255
Combo4 : 255,55,55

[HitObjects]
132,120,602,6,0,L|20:104,2,96,6|2|0,0:0|0:0|0:0,0:0:0:0:
200,160,1376,2,0,L|312:144,2,96,2|2|0,0:0|0:0|0:0,0:0:0:0:
140,208,2150,1,8,3:0:0:0:
388,224,3698,6,0,L|372:336,2,96,0|4|0,3:0|3:0|0:0,0:0:0:0:
428,156,4472,2,0,L|412:44,2,96,4|2|0,3:0|0:0|0:0,0:0:0:0:
476,216,5247,1,8,3:0:0:0:
236,304,6021,6,0,P|188:292|140:224,1,128,0|0,0:0|0:0,0:0:0:0:
256,192,6601,12,4,8150,0:0:0:0:
78,159,9118,5,0,0:0:0:0:
60,312,9505,1,0,1:0:0:0:
60,312,9698,2,0,P|116:324|196:308,1,128,2|0,0:0|0:0,0:0:0:0:
216,244,10279,1,0,1:0:0:0:
356,304,10666,2,0,P|368:332|372:372,2,64,2|2|0,0:0|0:0|1:0,0:0:0:0:
304,248,11247,6,0,P|296:200|332:104,1,128,0|0,0:0|0:0,0:0:0:0:
364,64,11827,1,0,1:0:0:0:
288,52,12021,2,0,L|152:44,1,128,0|2,0:0|0:0,0:0:0:0:
44,148,12795,6,0,L|180:156,1,128,2|2,0:0|0:0,0:0:0:0:
248,164,13376,2,0,P|260:232|240:308,1,128,0|2,1:0|0:0,0:0:0:0:
212,356,13956,2,0,L|128:348,1,64,2|0,0:0|1:0,0:0:0:0:
72,356,14343,6,0,P|104:336|136:252,1,128,4|2,0:0|0:0,0:0:0:0:
72,208,14924,2,0,L|8:200,2,64,0|0|0,0:0|0:0|0:0,0:0:0:0:
76,80,15698,1,0,1:0:0:0:
220,96,16085,6,0,L|352:76,1,128,4|0,0:0|1:0,0:0:0:0:
368,152,16666,2,0,L|241:171,1,128,2|0,0:0|0:0,0:0:0:0:
164,160,17247,1,0,1:0:0:0:
52,264,17634,6,0,P|12:292|-8:360,2,96,4|2|0,2:0|0:0|0:0,0:0:0:0:
124,288,18408,2,0,P|166:311|236:299,2,96,4|2|8,0:3|0:0|0:3,0:0:0:0:
124,212,19182,1,8,0:3:0:0:
124,212,19376,1,8,0:3:0:0:
256,132,19763,1,12,0:3:0:0:
380,220,20150,2,0,L|452:212,2,64,0|0|0,0:0|0:0|0:0,0:0:0:0:
312,188,20731,5,4,0:0:0:0:
312,188,20924,2,0,P|328:128|308:60,1,128,0|0,1:0|0:0,0:0:0:0:
240,36,21505,2,0,L|104:32,1,128,0|0,0:0|0:0,0:0:0:0:
12,148,22279,1,0,0:0:0:0:
76,288,22666,2,0,L|212:284,1,128,0|0,0:0|0:0,0:0:0:0:
280,276,23247,2,0,P|288:320|284:364,2,64,0|0|0,0:0|0:0|0:0,0:0:0:0:
236,212,23827,6,0,P|232:152|256:80,1,128,0|0,1:0|0:0,0:0:0:0:
308,32,24408,2,0,L|172:44,1,128,0|0,0:0|0:0,0:0:0:0:
104,48,24989,1,0,0:0:0:0:
64,196,25376,2,0,P|120:216|152:280,1,128,2|0,0:3|0:0,0:0:0:0:
132,348,25956,1,0,0:0:0:0:
132,348,26150,2,0,L|16:360,2,96,0|0|0,0:0|0:0|0:0,0:0:0:0:
196,304,26924,5,0,1:0:0:0:
196,304,27118,2,0,L|328:312,1,128,0|0,1:0|0:0,0:0:0:0:
388,352,27698,2,0,P|360:304|376:232,1,128,0|0,0:0|0:0,0:0:0:0:
464,112,28472,2,0,L|472:44,2,64,0|0|0,0:0|0:0|0:0,0:0:0:0:
316,156,29247,1,0,0:0:0:0:
316,156,29440,2,0,P|268:168|192:136,1,128,0|0,0:0|0:0,0:0:0:0:
180,64,30021,6,0,P|136:60|108:64,1,64,0|0,1:0|1:0,0:0:0:0:
4,168,30601,2,0,L|16:300,1,128,2|0,0:3|0:0,0:0:0:0:
44,368,31182,2,0,P|84:340|164:332,1,128,0|0,0:0|1:0,0:0:0:0:
232,356,31763,2,0,P|295:352|349:319,1,128,0|4,1:0|0:0,0:0:0:0:
480,236,32537,2,0,L|492:316,2,64,2|0|0,0:0|1:0|0:0,0:0:0:0:
460,160,33118,6,0,B|372:136|372:136|324:144,1,128,4|0,0:0|1:0,0:0:0:0:
276,188,33698,2,0,B|239:194|239:194|151:170,1,128,2|2,0:0|0:0,0:0:0:0:
116,101,34279,1,0,1:0:0:0:
28,228,34666,2,0,P|20:264|20:300,2,64,2|2|0,0:0|0:0|1:0,0:0:0:0:
172,280,35440,2,0,L|308:288,1,128,0|0,0:0|1:0,0:0:0:0:
372,316,36021,1,0,0:0:0:0:
448,328,36214,6,0,P|464:276|444:204,1,128,0|0,0:0|1:0,0:0:0:0:
372,180,36795,1,2,0:0:0:0:
508,108,37182,1,4,0:3:0:0:
368,40,37569,2,0,L|232:52,1,128,4|2,0:0|0:0,0:0:0:0:
168,76,38150,1,0,1:0:0:0:
44,168,38537,6,0,L|160:180,2,96,4|4|0,3:0|3:0|0:0,0:0:0:0:
24,244,39311,2,0,L|152:256,1,128,4|0,0:0|1:0,0:0:0:0:
200,316,39892,2,0,P|264:300|332:300,1,128,2|2,0:0|0:0,0:0:0:0:
380,352,40472,1,0,1:0:0:0:
440,212,40860,6,0,P|436:140|400:88,2,128,4|0|0,0:0|1:0|0:0,0:0:0:0:
288,184,42021,1,0,1:0:0:0:
232,328,42408,2,0,L|112:384,1,128,4|0,0:0|1:0,0:0:0:0:
40,364,42989,2,0,L|12:228,1,128,2|2,0:0|0:0,0:0:0:0:
84,204,43569,2,0,L|214:252,1,128,0|0,1:0|1:0,0:0:0:0:
256,192,44150,5,0,1:0:0:0:
332,56,44537,1,4,3:0:0:0:
180,56,44924,2,0,L|108:16,2,64,4|8|2,3:0|0:3|0:0,0:0:0:0:
168,132,45505,6,0,P|188:188|172:276,1,128,4|0,0:0|1:0,0:0:0:0:
104,264,46085,2,0,P|83:203|90:140,1,128,0|0,0:0|0:0,0:0:0:0:
120,68,46666,1,0,1:0:0:0:
272,72,47053,2,0,P|328:64|396:92,1,128,0|0,1:0|1:0,0:0:0:0:
380,164,47634,2,0,P|324:172|256:144,1,128,0|0,0:0|0:0,0:0:0:0:
196,104,48214,1,0,1:0:0:0:
112,228,48601,6,0,P|172:248|228:320,1,128,0|0,1:0|1:0,0:0:0:0:
295,293,49182,2,0,P|339:248|400:228,1,128,0|0,0:0|0:0,0:0:0:0:
464,272,49763,1,0,1:0:0:0:
436,124,50150,2,0,L|440:-8,2,128,0|0|0,1:0|1:0|1:0,0:0:0:0:
304,200,51311,1,0,1:0:0:0:
184,104,51698,6,0,P|96:76|16:208,1,256,4|0,0:0|1:0,0:0:0:0:
64,340,52860,2,0,P|116:344|184:304,1,128,0|4,1:0|3:0,0:0:0:0:
331,308,53634,2,0,P|384:341|448:340,1,128,2|0,1:2|0:0,0:0:0:0:
428,188,54408,1,0,1:0:0:0:
376,44,54795,6,0,P|256:96|136:28,1,256,4|2,0:0|0:0,0:0:0:0:
76,28,55763,2,0,L|52:100,1,64,2|0,0:0|0:0,0:0:0:0:
56,164,56150,2,0,L|80:296,1,128,4|4,0:0|0:3,0:0:0:0:
128,348,56731,5,8,1:3:0:0:
255,262,57118,1,0,0:0:0:0:
380,348,57505,1,0,1:0:0:0:
428,288,57698,6,0,L|451:163,1,128,4|2,0:0|0:0,0:0:0:0:
472,88,58279,2,0,P|400:84|352:56,1,128,0|2,1:0|0:0,0:0:0:0:
284,24,58860,1,2,0:0:0:0:
132,52,59247,2,0,P|72:64|28:116,1,128,2|0,0:0|0:0,0:0:0:0:
24,188,59827,2,0,L|40:316,1,128,0|0,1:0|0:0,0:0:0:0:
184,268,60601,6,0,L|168:140,2,128,0|0|0,1:0|0:0|1:0,0:0:0:0:
316,348,61763,2,0,P|360:356|436:312,1,128,2|0,0:0|1:0,0:0:0:0:
476,172,62537,1,0,0:0:0:0:
376,56,62924,2,0,P|332:48|256:92,1,128,0|0,1:0|0:0,0:0:0:0:
208,140,63505,2,0,L|136:136,1,64,2|0,0:0|1:0,0:0:0:0:
76,100,63892,6,0,L|92:236,1,128,4|0,0:0|0:0,0:0:0:0:
100,304,64472,1,0,1:0:0:0:
160,352,64666,2,0,P|216:368|296:360,1,128,2|2,0:0|0:0,0:0:0:0:
428,312,65440,6,0,L|412:176,1,128,4|2,0:0|0:0,0:0:0:0:
404,108,66021,1,0,1:0:0:0:
344,60,66214,2,0,P|288:44|208:52,1,128,0|2,0:0|0:0,0:0:0:0:
152,88,66795,6,0,L|168:160,1,64,0|4,1:0|0:2,0:0:0:0:
104,292,67376,2,0,L|88:364,2,64,2|0|0,0:0|1:0|0:0,0:0:0:0:
172,260,67956,1,2,0:0:0:0:
304,184,68343,1,0,1:0:0:0:
304,184,68537,2,0,L|452:200,1,128,4|0,0:0|0:0,0:0:0:0:
508,212,69118,2,0,P|516:276|492:340,1,128,0|2,1:0|0:2,0:0:0:0:
424,364,69698,2,0,L|344:356,1,64,0|0,0:0|1:0,0:0:0:0:
284,360,70085,6,0,P|248:320|168:308,1,128,4|2,0:0|0:0,0:0:0:0:
104,328,70666,2,0,P|144:288|156:216,1,128,0|2,1:0|0:0,0:0:0:0:
107,160,71247,1,2,0:0:0:0:
200,36,71634,2,0,P|256:52|336:28,1,128,2|2,0:0|0:0,0:0:0:0:
396,52,72214,2,0,L|376:192,1,128,0|2,1:0|0:0,0:0:0:0:
292,304,72989,6,0,L|436:320,2,128,0|0|0,1:0|0:0|1:0,0:0:0:0:
144,348,74150,2,0,P|88:320|60:252,1,128,0|0,0:0|1:0,0:0:0:0:
200,196,74924,1,0,0:0:0:0:
60,120,75311,2,0,P|87:64|144:36,1,128,0|0,1:0|0:0,0:0:0:0:
200,88,75892,2,0,L|292:88,1,64,0|0,0:0|1:0,0:0:0:0:
328,44,76279,6,0,P|344:88|416:132,1,128,4|0,0:0|0:0,0:0:0:0:
468,80,76860,1,0,1:0:0:0:
504,148,77053,2,0,L|492:284,1,128,2|2,0:0|0:0,0:0:0:0:
472,352,77634,1,0,1:0:0:0:
324,316,78021,6,0,P|280:252|292:176,1,128,4|0,0:0|1:0,0:0:0:0:
204,200,78601,2,0,P|218:123|280:78,1,128,2|0,0:0|0:0,0:0:0:0:
304,36,79182,1,0,0:0:0:0:
400,156,79569,6,0,L|508:96,2,96,4|2|0,0:0|0:0|0:0,0:0:0:0:
400,232,80343,2,0,L|508:292,2,96,4|4|0,3:0|3:0|0:0,0:0:0:0:
336,188,81118,1,4,0:0:0:0:
56,92,81892,6,0,L|184:92,1,128,0|0,0:0|0:0,0:0:0:0:
332,52,82666,6,0,P|380:88|392:160,1,128,4|0,0:0|1:0,0:0:0:0:
393,232,83247,2,0,P|381:293|332:332,1,128,0|0,0:0|0:0,0:0:0:0:
179,331,84021,2,0,P|130:293|118:232,1,128,0|2,0:0|0:0,0:0:0:0:
118,151,84601,2,0,P|130:90|179:52,1,128,0|0,1:0|0:0,0:0:0:0:
256,64,85182,2,0,L|256:144,2,64,0|0|0,0:0|1:0|0:0,0:0:0:0:
324,28,85763,6,0,L|448:68,1,128,2|0,0:0|1:0,0:0:0:0:
504,120,86343,1,0,0:0:0:0:
368,192,86731,1,4,0:3:0:0:
504,264,87118,1,4,0:0:0:0:
256,192,87214,12,0,88472,0:0:0:0:
