osu file format v13

[General]
AudioFilename: Rakuen no Tsubasa.mp3
AudioLeadIn: 2000
PreviewTime: 56723
Countdown: 0
SampleSet: Soft
StackLeniency: 0.7
Mode: 0
LetterboxInBreaks: 0
WidescreenStoryboard: 0

[Editor]
DistanceSpacing: 0.5
BeatDivisor: 8
GridSize: 4
TimelineZoom: 1.5

[Metadata]
Title:Rakuen no Tsubasa
TitleUnicode:楽園の翼
Artist:Kurosaki Maon
ArtistUnicode:黒崎真音
Creator:Tari
Version:Insane
Source:グリザイアの果実 -LE FRUIT DE LA GRISAIA-
Tags:opening fruit of loom forbidden Momochikun adaption
BeatmapID:517651
BeatmapSetID:221250

[Difficulty]
HPDrainRate:7
CircleSize:4
OverallDifficulty:7
ApproachRate:8.3
SliderMultiplier:1.8
SliderTickRate:2

[Events]
//Background and Video events
Video,602,"video.avi"
0,0,"BG.jpg",0,0
//Break Periods
//Storyboard Layer 0 (Background)
//Storyboard Layer 1 (Fail)
//Storyboard Layer 2 (Pass)
//Storyboard Layer 3 (Foreground)
//Storyboard Sound Samples
//Background Colour Transformations
3,100,163,162,255

[TimingPoints]
215,387.096774193548,4,2,0,50,1,0
602,387.096774193548,4,2,0,50,1,0
602,-125,4,2,0,50,0,0
6601,-200,4,2,0,50,0,0
8150,-100,4,2,1,70,0,0
20343,-125,4,2,1,50,0,0
20731,-111.111111111111,4,2,1,50,0,0
22569,-111.111111111111,4,2,1,50,0,0
23150,-111.111111111111,4,2,1,40,0,0
29440,-200,4,2,1,50,0,0
30214,-111.111111111111,4,2,1,50,0,0
32150,-105.263157894737,4,2,1,70,0,0
37569,-105.263157894737,4,2,1,40,0,0
37666,-105.263157894737,4,2,1,70,0,0
45214,-125,4,2,0,50,0,0
45505,-105.263157894737,4,2,0,55,0,0
51698,-105.263157894737,4,2,1,60,0,0
57698,-90.9090909090909,4,2,1,80,0,1
79569,-90.9090909090909,4,2,0,50,0,0
81892,-200,4,2,1,50,0,0
82666,-100,4,2,1,65,0,0
82666,-100,4,2,1,50,0,0
88473,-125,4,2,1,5,0,0

[Colours]
Combo1 : 255,146,94
Combo2 : 0,187,0
Combo3 : 0,128,255
Combo4 : 255,55,55

[HitObjects]
256,192,215,5,0,0:0:0:0:
204,112,408,1,0,0:0:0:0:
204,112,505,1,0,0:0:0:0:
203,112,602,6,0,P|256:100|308:113,2,108,6|2|0,0:0|0:0|0:0,0:0:0:0:
308,271,1376,2,0,P|256:284|204:272,2,108,2|2|0,0:0|0:0|0:0,0:0:0:0:
108,192,2150,6,0,L|96:36,2,144,8|0|0,3:0|0:0|3:0,0:0:0:0:
216,112,3118,1,0,0:0:0:0:
324,184,3311,1,0,0:0:0:0:
412,96,3505,1,0,0:0:0:0:
488,184,3698,6,0,L|480:280,1,72,0|0,3:0|0:0,0:0:0:0:
472,324,3989,2,0,P|416:328|364:300,1,108,4|0,3:0|0:0,0:0:0:0:
276,184,4472,2,0,P|329:179|377:202,2,108,4|2|0,3:0|0:0|0:0,0:0:0:0:
176,276,5247,5,8,3:0:0:0:
176,276,6021,6,0,L|164:200,1,72
56,160,6408,1,0,0:0:0:0:
56,160,6601,2,0,B|56:104|66:72|66:72|96:72|124:64,1,135
204,32,7376,5,0,0:0:0:0:
324,140,7569,1,2,0:0:0:0:
180,116,7763,1,2,0:0:0:0:
320,44,7956,1,2,0:0:0:0:
244,204,8150,6,0,L|256:304,1,90,4|0,0:0|0:0,0:0:0:0:
364,332,8537,1,0,0:0:0:0:
440,256,8731,2,0,L|424:76,1,180,0|0,1:0|0:0,0:0:0:0:
320,44,9311,2,0,L|216:36,1,90,0|0,0:0|1:0,0:0:0:0:
72,224,9698,6,0,L|252:208,1,180,2|0,0:0|0:0,0:0:0:0:
364,332,10279,2,0,P|376:288|368:236,1,90,0|0,1:0|0:0,0:0:0:0:
264,124,10666,1,2,0:0:0:0:
296,284,10860,1,2,0:0:0:0:
392,164,11053,1,0,1:0:0:0:
384,36,11247,6,0,B|238:38|238:38|220:48|204:64,1,180,0|0,0:2|0:0,0:0:0:0:
156,140,11827,1,0,1:0:0:0:
184,244,12021,2,0,P|188:292|176:348,1,90,0|2,0:0|0:0,0:0:0:0:
56,196,12408,2,0,P|44:148|48:92,1,90,2|0,0:0|1:0,0:0:0:0:
204,12,12795,5,2,0:0:0:0:
308,116,12989,1,0,0:0:0:0:
156,140,13182,1,2,0:0:0:0:
308,116,13376,2,0,P|400:96|496:128,1,180,0|2,1:0|0:0,0:0:0:0:
368,296,13956,2,0,L|384:196,1,90,2|0,0:0|1:0,0:0:0:0:
204,16,14343,6,0,L|232:224,1,180,4|2,0:0|0:0,0:0:0:0:
216,328,14924,1,0,1:0:0:0:
332,384,15118,2,0,P|404:380|464:292,1,180,0|2,0:0|0:0,0:0:0:0:
408,144,15698,1,0,1:0:0:0:
296,248,15892,1,0,0:0:0:0:
504,208,16085,6,0,L|292:184,1,180,4|0,0:0|1:0,0:0:0:0:
184,24,16666,2,0,L|396:48,1,180,2|0,0:0|0:0,0:0:0:0:
448,140,17247,1,0,1:0:0:0:
364,216,17440,1,0,0:0:0:0:
364,216,17537,1,0,0:0:0:0:
364,216,17634,6,0,L|420:340,2,135,4|2|0,2:0|0:0|0:0,0:0:0:0:
148,216,18408,2,0,L|92:340,2,135,4|2|8,0:3|0:0|0:3,0:0:0:0:
240,24,19182,5,8,0:3:0:0:
400,120,19376,1,8,0:3:0:0:
400,120,19763,6,0,P|412:164|408:240,1,90,12|0,0:3|0:0,0:0:0:0:
348,276,20150,1,0,0:0:0:0:
264,232,20343,2,0,P|208:228|156:252,1,108
133,294,20731,5,4,2:2:0:0:
133,294,20924,2,0,L|115:124,1,161.999995056153,0|0,1:0|0:0,0:0:0:0:
226,33,21505,2,0,P|185:30|146:40,1,80.9999975280763
297,137,21892,6,0,P|384:142|470:119,1,161.999995056153,0|0,0:0|0:0,0:0:0:0:
370,33,22472,1,0,0:0:0:0:
456,144,22666,2,0,L|463:238,1,80.9999975280763
452,372,23053,1,0,0:0:0:0:
328,288,23247,1,0,0:0:0:0:
496,300,23440,1,0,0:0:0:0:
384,224,23634,1,0,0:0:0:0:
356,376,23827,6,0,L|276:368,1,80.9999975280763,0|0,1:0|1:0,0:0:0:0:
220,268,24214,1,0,0:0:0:0:
152,356,24408,2,0,P|160:308|144:192,1,161.999995056153
8,148,24989,6,0,L|96:136,1,80.9999975280763
152,28,25376,2,0,L|324:44,1,161.999995056153,2|0,0:3|0:0,0:0:0:0:
416,108,25956,1,0,0:0:0:0:
368,216,26150,2,0,P|360:264|372:324,1,80.9999975280763
400,348,26440,2,0,L|264:328,1,121.499996292114
176,248,26924,6,0,B|196:348|196:348,1,80.9999975280763,0|0,1:0|1:0,0:0:0:0:
32,372,27311,2,0,B|36:284|36:284,1,80.9999975280763
68,160,27698,2,0,P|144:140|228:140,1,161.999995056153
316,256,28279,1,0,0:0:0:0:
464,200,28472,5,0,0:0:0:0:
352,344,28666,1,0,0:0:0:0:
500,280,28860,1,0,0:0:0:0:
368,192,29053,1,0,0:0:0:0:
452,360,29247,1,0,0:0:0:0:
260,344,29440,6,0,P|212:352|160:336,1,90
212,224,30021,5,0,1:0:0:0:
64,144,30214,2,0,P|116:136|160:152,1,80.9999975280763,0|0,1:0|0:0,0:0:0:0:
116,360,30601,2,0,L|108:232,1,121.499996292114,2|0,0:3|0:0,0:0:0:0:
108,238,30989,1,0,0:0:0:0:
231,59,31182,2,0,L|228:140,1,80.9999975280763
300,356,31569,5,0,1:0:0:0:
352,256,31763,1,0,1:0:0:0:
383,250,31860,1,0,0:0:0:0:
415,250,31956,1,0,0:0:0:0:
447,252,32053,1,0,0:0:0:0:
481,250,32150,6,0,B|473:190|473:190|489:150|489:150|437:74,1,170.999995433807,4|2,0:0|0:0,0:0:0:0:
256,168,32731,1,0,1:0:0:0:
336,80,32924,1,0,0:0:0:0:
336,80,33021,1,0,0:0:0:0:
336,80,33118,6,0,L|360:176,1,85.4999977169037,4|0,0:0|0:0,0:0:0:0:
300,272,33505,1,0,1:0:0:0:
184,380,33698,2,0,L|196:284,1,85.4999977169037,2|0,0:0|0:0,0:0:0:0:
140,188,34085,1,2,0:0:0:0:
208,68,34279,6,0,L|104:56,1,85.4999977169037,0|0,1:0|0:0,0:0:0:0:
384,184,34666,2,0,L|488:172,1,85.4999977169037,2|2,0:0|0:0,0:0:0:0:
212,256,35053,1,0,1:0:0:0:
304,116,35247,1,0,0:0:0:0:
388,276,35440,2,0,P|384:332|372:376,1,85.4999977169037,0|2,0:0|0:0,0:0:0:0:
208,348,35827,5,0,1:0:0:0:
284,224,36021,1,0,0:0:0:0:
140,216,36214,2,0,L|12:208,1,128.249996575356,0|0,0:0|1:0,0:0:0:0:
11,207,36601,1,0,1:0:0:0:
41,91,36795,2,0,L|133:95,1,85.4999977169037,2|0,0:0|0:0,0:0:0:0:
116,308,37182,2,0,L|30:304,1,85.4999977169037,2|0,0:0|0:0,0:0:0:0:
242,231,37569,6,0,L|248:360,1,128.249996575356,4|0,0:0|0:0,0:0:0:0:
300,348,37956,2,0,L|316:260,1,85.4999977169037,2|0,0:0|1:0,0:0:0:0:
312,160,38343,1,0,0:0:0:0:
392,208,38537,2,0,P|448:220|512:192,2,128.249996575356,4|4|0,3:0|3:0|0:0,0:0:0:0:
252,88,39311,6,0,P|205:77|120:112,1,128.249996575356,4|0,0:0|0:0,0:0:0:0:
120,136,39698,2,0,L|132:232,1,85.4999977169037,0|2,1:0|0:0,0:0:0:0:
24,360,40085,2,0,L|36:263,1,85.4999977169037,2|2,0:0|0:0,0:0:0:0:
152,240,40472,1,0,1:0:0:0:
20,168,40666,1,0,0:0:0:0:
172,72,40860,6,0,P|228:84|304:84,1,128.249996575356,4|0,0:2|0:0,0:0:0:0:
299,83,41247,2,0,L|312:188,1,85.4999977169037,0|0,1:0|0:0,0:0:0:0:
184,316,41634,1,0,0:0:0:0:
124,156,41827,1,2,0:0:0:0:
240,224,42021,1,0,1:0:0:0:
88,300,42214,1,0,0:0:0:0:
204,148,42408,6,0,L|292:128,1,85.4999977169037,4|0,0:0|0:0,0:0:0:0:
400,40,42795,1,0,1:0:0:0:
512,200,42989,2,0,L|428:181,1,85.4999977169037,2|0,0:0|0:0,0:0:0:0:
288,228,43376,1,2,0:0:0:0:
376,360,43569,2,0,L|384:264,1,85.4999977169037,0|0,1:0|0:0,0:0:0:0:
340,148,43956,5,0,1:0:0:0:
184,76,44150,1,0,1:0:0:0:
184,76,44537,2,0,P|172:116|160:180,1,85.4999977169037,4|0,3:0|0:0,0:0:0:0:
260,304,44924,1,4,3:0:0:0:
104,248,45118,1,8,1:3:0:0:
264,208,45311,1,2,0:0:0:0:
128,336,45505,6,0,P|88:336|44:312,1,85.4999977169037,4|0,0:0|0:0,0:0:0:0:
192,248,45892,1,0,1:0:0:0:
320,368,46085,2,0,P|360:344|492:332,1,170.999995433807
396,244,46666,1,0,1:0:0:0:
396,244,46860,2,0,L|408:132,1,85.4999977169037,2|0,0:2|1:0,0:0:0:0:
456,0,47247,2,0,P|472:44|476:96,1,85.4999977169037,2|0,0:2|1:0,0:0:0:0:
300,128,47634,6,0,P|332:84|376:56,1,85.4999977169037,0|0,0:0|1:0,0:0:0:0:
500,200,48021,1,0,0:0:0:0:
296,216,48214,1,0,1:0:0:0:
396,152,48408,1,0,0:0:0:0:
400,336,48601,6,0,P|324:312|200:328,1,170.999995433807,0|0,1:0|1:0,0:0:0:0:
128,372,49182,2,0,L|112:280,1,85.4999977169037,2|0,0:2|1:0,0:0:0:0:
160,168,49569,5,0,0:2:0:0:
0,244,49763,1,0,1:0:0:0:
40,104,49956,2,0,P|116:128|240:112,1,170.999995433807,2|0,0:2|0:0,0:0:0:0:
340,32,50537,1,0,1:0:0:0:
460,112,50731,6,0,B|444:160|444:160|453:203|464:232|464:232|448:300,1,170.999995433807,2|0,0:2|0:0,0:0:0:0:
371,338,51311,2,0,P|327:314|271:306,1,85.4999977169037,0|0,1:0|0:0,0:0:0:0:
133,308,51698,6,0,P|177:288|233:192,1,128.249996575356,4|0,0:0|0:0,0:0:0:0:
225,225,52085,1,0,1:0:0:0:
85,180,52279,2,0,L|-7:172,1,85.4999977169037,2|0,0:0|0:0,0:0:0:0:
181,112,52666,1,0,0:0:0:0:
181,112,52763,1,0,0:0:0:0:
181,112,52860,2,0,L|277:104,1,85.4999977169037,0|2,1:0|0:0,0:0:0:0:
472,79,53247,5,4,3:0:0:0:
328,155,53440,1,8,0:3:0:0:
465,231,53634,2,0,L|469:284,2,42.7499988584519,2|0|2,1:2|0:0|0:0,0:0:0:0:
371,71,54021,5,0,0:0:0:0:
512,160,54214,1,8,0:3:0:0:
361,249,54408,1,0,1:0:0:0:
361,249,54505,1,0,0:0:0:0:
361,249,54601,1,0,0:0:0:0:
314,368,54795,6,0,P|251:356|188:360,1,128.249996575356,4|0,0:0|0:0,0:0:0:0:
188,360,55182,2,0,L|180:252,1,85.4999977169037,0|0,1:0|0:0,0:0:0:0:
8,128,55569,2,0,L|14:213,1,85.4999977169037,2|2,0:0|0:0,0:0:0:0:
84,300,55956,1,0,0:0:0:0:
152,160,56150,6,0,P|224:152|288:164,1,128.249996575356,4|0,0:0|0:0,0:0:0:0:
278,161,56537,1,4,0:3:0:0:
464,224,56731,1,8,1:3:0:0:
420,60,56924,1,0,0:0:0:0:
372,204,57118,5,2,0:2:0:0:
363,227,57214,1,0,0:0:0:0:
354,251,57311,1,0,0:0:0:0:
345,275,57408,1,0,0:0:0:0:
337,299,57505,1,0,1:0:0:0:
328,320,57601,1,0,0:0:0:0:
320,344,57698,6,0,B|261:351|261:351|227:335|172:346,1,148.50000453186,4|0,0:0|0:0,0:0:0:0:
121,352,58085,1,2,0:0:0:0:
13,200,58279,2,0,P|0:253|3:298,1,99.0000030212403,0|0,1:0|0:0,0:0:0:0:
174,186,58666,1,2,0:0:0:0:
137,45,58860,1,2,0:0:0:0:
31,117,59053,1,0,1:0:0:0:
222,103,59247,6,0,L|389:90,1,148.50000453186
369,92,59634,2,0,L|378:200,1,99.0000030212403,0|0,0:0|1:0,0:0:0:0:
289,228,60021,1,0,0:0:0:0:
189,352,60214,2,0,L|199:254,1,99.0000030212403
305,148,60601,1,0,1:0:0:0:
305,148,60698,1,0,0:0:0:0:
305,148,60795,6,0,L|473:163,1,148.50000453186,4|0,0:3|0:0,0:0:0:0:
452,161,61182,1,2,0:0:0:0:
379,268,61376,1,0,1:0:0:0:
232,200,61569,2,0,P|219:149|229:94,1,99.0000030212403,0|2,0:0|0:0,0:0:0:0:
385,14,61956,2,0,P|398:65|388:120,1,99.0000030212403,2|0,0:0|1:0,0:0:0:0:
284,288,62343,6,0,B|183:291|183:291|140:284|116:212,1,198.000006042481,4|2,3:0|0:0,0:0:0:0:
220,51,62924,2,0,L|232:200,1,148.50000453186,0|0,1:0|0:0,0:0:0:0:
232,200,63311,2,0,L|344:192,1,99.0000030212403,0|2,0:0|0:0,0:0:0:0:
412,64,63698,1,0,1:0:0:0:
480,172,63892,6,0,P|504:242|496:316,1,148.50000453186,4|0,0:0|0:0,0:0:0:0:
496,316,64279,1,0,0:0:0:0:
368,244,64472,1,0,1:0:0:0:
288,340,64666,2,0,L|84:316,1,198.000006042481,2|2,0:0|0:0,0:0:0:0:
8,196,65247,1,0,1:0:0:0:
136,80,65440,6,0,P|120:152|124:240,1,148.50000453186,4|0,0:0|0:0,0:0:0:0:
121,226,65827,1,2,0:0:0:0:
256,152,66021,1,0,1:0:0:0:
368,244,66214,2,0,L|384:352,1,99.0000030212403,0|2,0:0|0:0,0:0:0:0:
496,184,66601,2,0,L|510:86,1,99.0000030212403,2|0,0:0|1:0,0:0:0:0:
368,144,66989,6,0,B|208:130|208:130|172:156,1,198.000006042481,4|2,0:0|0:0,0:0:0:0:
56,40,67569,1,0,1:0:0:0:
84,228,67763,1,0,0:0:0:0:
172,28,67956,1,2,0:0:0:0:
8,136,68150,1,2,0:0:0:0:
192,208,68343,1,0,1:0:0:0:
56,40,68537,6,0,L|20:216,1,148.50000453186,4|0,0:0|0:0,0:0:0:0:
26,185,68924,1,0,0:0:0:0:
160,356,69118,2,0,L|148:252,1,99.0000030212403,0|0,1:0|0:0,0:0:0:0:
236,148,69505,5,2,0:2:0:0:
260,152,69601,1,0,0:0:0:0:
284,156,69698,1,0,0:0:0:0:
308,160,69795,1,0,0:0:0:0:
332,164,69892,1,0,1:0:0:0:
356,168,69989,1,0,0:0:0:0:
380,172,70085,6,0,B|488:184|488:184|516:160|520:124,1,148.50000453186,4|0,0:0|0:0,0:0:0:0:
504,112,70472,1,2,0:0:0:0:
484,272,70666,2,0,L|384:260,1,99.0000030212403,0|0,1:0|0:0,0:0:0:0:
236,148,71053,1,2,0:0:0:0:
280,268,71247,2,0,P|260:324|268:376,1,99.0000030212403,2|0,0:0|1:0,0:0:0:0:
380,172,71634,6,0,B|388:112|351:38|351:38|328:28|288:28,1,198.000006042481,2|2,0:0|0:0,0:0:0:0:
137,160,72214,2,0,L|236:148,1,99.0000030212403,0|0,1:0|0:0,0:0:0:0:
400,80,72601,1,2,0:0:0:0:
296,188,72795,1,2,0:0:0:0:
244,56,72989,1,0,1:0:0:0:
380,172,73182,6,0,P|382:231|392:328,1,148.50000453186,2|0,0:0|0:0,0:0:0:0:
408,360,73569,1,2,0:0:0:0:
496,248,73763,1,0,1:0:0:0:
276,284,73956,2,0,P|192:268|96:312,1,148.50000453186
96,312,74343,2,0,L|80:196,1,99.0000030212403,2|0,0:0|1:0,0:0:0:0:
144,48,74731,6,0,B|196:56|196:56|248:112|240:200,1,198.000006042481,2|2,0:0|0:0,0:0:0:0:
396,272,75311,2,0,P|376:184|392:92,1,148.50000453186,0|0,1:0|0:0,0:0:0:0:
412,104,75698,2,0,L|520:88,1,99.0000030212403
304,180,76085,1,0,1:0:0:0:
180,36,76279,6,0,L|196:140,1,99.0000030212403,4|0,0:0|0:0,0:0:0:0:
232,284,76666,1,0,0:0:0:0:
104,184,76860,1,0,1:0:0:0:
20,376,77053,2,0,P|64:336|172:336,1,148.50000453186,2|0,0:0|0:0,0:0:0:0:
208,368,77440,2,0,P|256:372|300:336,1,99.0000030212403,2|0,0:0|1:0,0:0:0:0:
304,180,77827,1,0,0:0:0:0:
416,320,78021,6,0,L|432:120,1,198.000006042481,4|0,0:0|1:0,0:0:0:0:
268,232,78601,2,0,L|284:32,1,198.000006042481,2|0,0:0|0:0,0:0:0:0:
164,136,79182,1,0,0:0:0:0:
32,32,79376,1,0,0:0:0:0:
60,224,79569,6,0,L|204:264,2,148.50000453186,4|2|0,0:0|0:0|0:0,0:0:0:0:
452,224,80343,2,0,L|308:264,2,148.50000453186,4|4|0,3:0|3:0|0:0,0:0:0:0:
256,108,81118,5,4,0:0:0:0:
256,108,81892,6,0,L|256:192,1,67.5
256,192,82279,1,0,0:0:0:0:
256,212,82376,1,0,0:0:0:0:
256,232,82472,1,0,0:0:0:0:
256,248,82569,1,0,0:0:0:0:
256,264,82666,6,0,L|132:280,1,90,4|0,0:0|0:0,0:0:0:0:
16,140,83053,1,0,1:0:0:0:
16,140,83247,2,0,L|140:156,1,90,0|0,0:0|0:0,0:0:0:0:
312,96,83634,1,0,0:0:0:0:
188,44,83827,1,0,1:0:0:0:
220,168,84021,6,0,L|232:300,1,90
308,320,84408,1,0,0:0:0:0:
492,224,84601,2,0,P|444:216|348:244,1,135,0|0,1:0|0:0,0:0:0:0:
361,236,84989,1,0,0:0:0:0:
496,336,85182,1,0,0:0:0:0:
492,136,85376,6,0,L|508:40,1,90,0|0,1:0|0:0,0:0:0:0:
324,76,85763,2,0,L|308:172,1,90,2|0,0:0|0:0,0:0:0:0:
176,248,86150,1,0,1:0:0:0:
176,248,86343,2,0,P|120:264|40:212,1,135
60,200,86731,5,4,0:3:0:0:
252,32,87118,1,4,0:0:0:0:
256,192,87214,12,0,88472,0:0:0:0:
