osu file format v13

[General]
AudioFilename: Rakuen no Tsubasa.mp3
AudioLeadIn: 2000
PreviewTime: 56723
Countdown: 0
SampleSet: Soft
StackLeniency: 0.7
Mode: 0
LetterboxInBreaks: 0
WidescreenStoryboard: 0

[Editor]
DistanceSpacing: 1
BeatDivisor: 4
GridSize: 4
TimelineZoom: 1.5

[Metadata]
Title:Rakuen no Tsubasa
TitleUnicode:楽園の翼
Artist:Kurosaki Maon
ArtistUnicode:黒崎真音
Creator:Tari
Version:Easy
Source:グリザイアの果実 -LE FRUIT DE LA GRISAIA-
Tags:opening fruit of loom forbidden Momochikun adaption
BeatmapID:524312
BeatmapSetID:221250

[Difficulty]
HPDrainRate:2
CircleSize:3
OverallDifficulty:2
ApproachRate:3
SliderMultiplier:0.98
SliderTickRate:2

[Events]
//Background and Video events
Video,602,"video.avi"
0,0,"BG.jpg",0,0
//Break Periods
//Storyboard Layer 0 (Background)
//Storyboard Layer 1 (Fail)
//Storyboard Layer 2 (Pass)
//Storyboard Layer 3 (Foreground)
//Storyboard Sound Samples
//Background Colour Transformations
3,100,163,162,255

[TimingPoints]
215,387.096774193548,4,2,0,50,1,0
602,387.096774193548,4,2,0,50,1,0
8150,-100,4,2,1,70,0,0
20344,-100,4,2,1,50,0,0
23247,-100,4,2,1,40,0,0
29440,-100,4,2,1,50,0,0
32150,-100,4,2,1,70,0,0
37569,-100,4,2,1,40,0,0
37666,-100,4,2,1,70,0,0
45505,-100,4,2,0,55,0,0
51698,-100,4,2,1,60,0,0
57698,-100,4,2,1,80,0,1
79569,-100,4,2,0,50,0,0
81892,-100,4,2,1,50,0,0
82666,-100,4,2,1,65,0,0
88473,-100,4,2,1,5,0,0

[Colours]
Combo1 : 255,146,94
Combo2 : 0,187,0
Combo3 : 0,128,255
Combo4 : 255,55,55

[HitObjects]
104,128,602,6,0,P|40:164|28:288,2,196,6|2|8,0:0|0:0|3:0,0:0:0:0:
408,128,3698,2,0,P|485:182|489:277,2,196,0|4|4,3:0|3:0|2:0,0:0:0:0:
204,128,6021,6,0,P|224:72|308:140,1,196,0|0,0:0|0:0,0:0:0:0:
256,192,6892,12,4,8150,0:0:0:0:
420,176,9698,6,0,P|336:164|296:100,1,147,2|0,0:0|1:0,0:0:0:0:
236,44,10666,1,2,0:0:0:0:
140,24,11053,6,0,P|64:32|24:140,1,196,0|0,1:0|1:0,0:0:0:0:
52,224,12214,1,2,0:0:0:0:
148,248,12601,2,0,P|224:240|264:132,1,196,0|0,1:0|1:0,0:0:0:0:
224,48,13763,6,0,B|284:36|328:64|328:64|380:48,2,147,2|4|0,0:0|0:0|1:0,0:0:0:0:
140,100,15311,2,0,B|76:112|76:112|48:144,1,98,0|0,0:0|1:0,0:0:0:0:
76,232,16085,2,0,P|96:296|80:372,2,147,4|2|0,0:0|0:0|1:0,0:0:0:0:
112,140,17634,6,0,L|212:112,1,98,4|0,2:0|0:0,0:0:0:0:
305,113,18408,2,0,L|400:140,1,98,4|0,0:3|0:0,0:0:0:0:
480,196,19182,2,0,L|460:252,1,49,8|8,0:3|0:3,0:0:0:0:
380,292,19763,1,12,0:3:0:0:
136,292,20731,6,0,P|104:196|132:104,1,196,4|0,2:0|0:0,0:0:0:0:
200,40,21892,1,0,0:0:0:0:
276,104,22279,2,0,B|344:104|344:104|396:76|396:76|484:76,1,196,0|0,0:0|0:0,0:0:0:0:
504,164,23440,1,0,0:0:0:0:
424,220,23827,6,0,P|432:268|420:328,1,98,0|0,1:0|0:0,0:0:0:0:
336,360,24601,2,0,P|328:312|340:251,1,98,0|0,0:0|0:0,0:0:0:0:
328,168,25376,2,0,P|232:188|136:144,1,196,2|0,0:3|0:0,0:0:0:0:
88,76,26537,1,0,0:0:0:0:
32,156,26924,6,0,P|12:200|28:300,2,147,0|0|0,1:0|0:0|0:0,0:0:0:0:
88,76,28472,2,0,L|188:60,1,98,0|0,0:0|0:0,0:0:0:0:
256,128,29247,2,0,L|356:144,1,98,0|0,0:0|0:0,0:0:0:0:
452,152,30021,6,0,P|472:196|456:296,2,147,0|2|0,1:0|0:3|0:0,0:0:0:0:
392,72,31569,2,0,L|332:100,1,49,0|0,1:0|1:0,0:0:0:0:
256,128,32150,2,0,P|192:144|120:104,1,147,4|0,0:0|1:0,0:0:0:0:
40,60,33118,6,0,L|28:168,1,98,4|0,0:0|1:0,0:0:0:0:
112,212,33892,2,0,L|124:320,2,98,0|0|2,0:0|1:0|0:0,0:0:0:0:
180,144,35053,2,0,P|216:136|292:144,1,98,0|0,1:0|0:0,0:0:0:0:
364,180,35827,1,0,1:0:0:0:
456,216,36214,6,0,L|440:48,1,147,2|2,0:0|0:0,0:0:0:0:
344,64,37182,1,4,0:3:0:0:
272,128,37569,2,0,L|258:274,1,147,4|0,0:0|1:0,0:0:0:0:
192,348,38537,2,0,P|116:344|52:240,1,196,4|4,3:0|0:0,0:0:0:0:
76,156,39698,6,0,P|132:160|180:136,1,98,0|2,1:0|0:0,0:0:0:0:
232,68,40472,1,0,1:0:0:0:
324,96,40860,2,0,P|368:172|352:296,1,196,4|0,0:0|0:0,0:0:0:0:
280,336,42021,1,0,1:0:0:0:
184,316,42408,6,0,P|121:343|32:330,2,147,4|2|0,0:0|0:0|1:0,0:0:0:0:
232,232,43956,2,0,L|244:176,1,49,0|0,1:0|1:0,0:0:0:0:
340,172,44537,2,0,L|316:68,1,98,4|4,3:0|3:0,0:0:0:0:
180,132,45505,6,0,L|202:36,2,98,4|0|0,0:0|1:0|1:0,0:0:0:0:
28,256,47053,2,0,L|50:351,2,98,0|0|0,1:0|1:0|1:0,0:0:0:0:
44,160,48214,1,0,1:0:0:0:
88,72,48601,6,0,B|148:56|192:80|192:80|232:104|284:88,1,196,0|0,1:0|1:0,0:0:0:0:
464,152,50150,2,0,P|480:196|372:280,1,196,0|0,1:0|1:0,0:0:0:0:
300,232,51311,1,0,1:0:0:0:
256,192,51698,12,4,53247,3:0:0:0:
140,140,54795,6,0,B|204:124|248:168|248:168|288:148|328:140,1,196,4|2,0:0|0:0,0:0:0:0:
420,252,56150,2,0,P|464:232|496:128,1,147,4|8,0:0|1:3,0:0:0:0:
284,24,57698,6,0,P|232:40|184:120,1,147,4|0,0:0|1:0,0:0:0:0:
184,212,58666,1,2,0:0:0:0:
220,304,59053,2,0,P|260:344|400:332,1,196,0|0,1:0|1:0,0:0:0:0:
436,252,60214,1,0,0:0:0:0:
388,164,60601,6,0,L|324:256,1,98,0|0,1:0|0:0,0:0:0:0:
248,196,61376,2,0,L|303:115,1,98,0|2,1:0|0:0,0:0:0:0:
212,80,62150,2,0,B|140:188|140:188|152:232|184:264,1,196,0|0,1:0|1:0,0:0:0:0:
252,300,63311,1,0,0:0:0:0:
392,340,63892,6,0,P|400:264|328:176,1,196,4|2,0:0|0:0,0:0:0:0:
132,204,65440,2,0,P|124:128|196:40,1,196,4|2,0:0|0:0,0:0:0:0:
392,48,66989,6,0,P|376:120|376:196,1,147,4|0,0:0|1:0,0:0:0:0:
408,288,67956,2,0,P|464:252|476:168,2,147,2|4|0,0:0|0:0|1:0,0:0:0:0:
316,260,69505,1,2,0:2:0:0:
172,284,70085,6,0,P|100:296|36:260,1,147,4|0,0:0|1:0,0:0:0:0:
8,168,71053,1,2,0:0:0:0:
36,76,71440,2,0,P|128:60|228:108,1,196,0|0,1:0|1:0,0:0:0:0:
244,196,72601,1,2,0:0:0:0:
264,292,72989,6,0,P|312:288|356:256,1,98,0|0,1:0|0:0,0:0:0:0:
416,332,73763,2,0,P|440:290|439:235,1,98,0|0,1:0|0:0,0:0:0:0:
492,160,74537,2,0,B|448:112|448:112|420:88|312:112,1,196,0|0,1:0|1:0,0:0:0:0:
256,188,75698,1,0,0:0:0:0:
132,268,76279,6,0,B|68:256|44:188|44:188|64:120,1,196,4|2,0:0|0:0,0:0:0:0:
308,84,78021,2,0,B|320:120|351:141|351:141|336:180|344:220,2,147,4|2|0,0:0|0:0|0:0,0:0:0:0:
212,88,79569,6,0,P|172:160|60:180,2,196,4|4|4,2:0|3:0|0:0,0:0:0:0:
304,264,81892,2,0,L|424:252,1,98,0|0,0:0|0:0,0:0:0:0:
480,204,82666,6,0,P|468:148|348:92,1,196,4|0,0:0|0:0,0:0:0:0:
268,140,83827,1,0,1:0:0:0:
200,212,84214,2,0,L|88:204,1,98,0|0,0:0|1:0,0:0:0:0:
80,108,84989,2,0,L|192:100,1,98,0|0,0:0|1:0,0:0:0:0:
268,140,85763,6,0,P|320:172|336:260,1,147,2|0,0:0|0:0,0:0:0:0:
244,228,86731,2,0,P|232:280|240:336,1,98,4|4,0:3|0:0,0:0:0:0:
256,192,87214,12,0,88472,0:0:0:0:
