osu file format v14

[General]
AudioFilename: Rakuen no Tsubasa.mp3
AudioLeadIn: 800
PreviewTime: 129425
Countdown: 0
SampleSet: Soft
StackLeniency: 0.7
Mode: 0
LetterboxInBreaks: 0
WidescreenStoryboard: 0

[Editor]
DistanceSpacing: 1.2
BeatDivisor: 6
GridSize: 4
TimelineZoom: 2.6

[Metadata]
Title:Rakuen no Tsubasa
TitleUnicode:楽園の翼
Artist:Kurosaki Maon
ArtistUnicode:黒崎真音
Creator:Asagi
Version:Hard
Source:グリザイアの果実 -LE FRUIT DE LA GRISAIA-
Tags:Sakaki Yumiko Kajitsu frontwing opening 10nya -_t_e_n_n_y_a_-
BeatmapID:644881
BeatmapSetID:227041

[Difficulty]
HPDrainRate:6
CircleSize:4
OverallDifficulty:6
ApproachRate:7.5
SliderMultiplier:1.5
SliderTickRate:2

[Events]
//Background and Video events
0,0,"Yumiko.png",0,0
//Break Periods
2,93425,98793
2,186528,191309
//Storyboard Layer 0 (Background)
//Storyboard Layer 1 (Fail)
//Storyboard Layer 2 (Pass)
//Storyboard Layer 3 (Foreground)
//Storyboard Sound Samples

[TimingPoints]
522,387.096774193548,4,2,1,60,1,0
1683,-125,4,2,1,60,0,0
8070,-200,4,2,1,40,0,0
8844,-100,4,2,1,50,0,0
9618,-100,4,2,1,60,0,0
19876,-111.111111111111,4,2,1,50,0,0
22199,-125,4,2,1,40,0,0
33618,-100,4,2,1,60,0,0
38263,-83.3333333333333,4,2,1,70,0,0
39038,-100,4,2,1,60,0,0
40005,-125,4,2,1,60,0,0
40586,-100,4,2,1,60,0,0
48521,-100,4,2,3,60,0,0
48618,-100,4,2,1,60,0,0
49296,-100,4,2,3,60,0,0
49392,-100,4,2,1,60,0,0
51618,-100,4,2,3,60,0,0
51715,-100,4,2,1,60,0,0
52392,-100,4,2,3,60,0,0
52489,-100,4,2,1,60,0,0
57618,-83.3333333333333,4,2,1,60,0,0
59167,-100,4,2,1,70,0,1
70392,-100,4,2,1,70,0,0
71554,-100,4,2,1,70,0,1
81038,-100,4,2,1,70,0,0
83747,-100,4,2,1,60,0,0
93425,-200,4,2,1,30,0,0
102715,-200,4,2,1,50,0,0
103296,-100,4,2,1,60,0,0
109489,-83.3333333333333,4,2,1,60,0,0
110263,-100,4,2,1,60,0,0
111231,-125,4,2,1,60,0,0
112005,-100,4,2,1,60,0,0
119747,-100,4,2,3,60,0,0
119844,-100,4,2,1,60,0,0
120521,-100,4,2,3,60,0,0
120618,-100,4,2,1,60,0,0
122844,-100,4,2,3,60,0,0
122941,-100,4,2,1,60,0,0
128844,-83.3333333333333,4,2,1,60,0,0
130392,-100,4,2,1,70,0,1
141618,-100,4,2,1,70,0,0
142780,-100,4,2,1,70,0,1
152263,-100,4,2,1,70,0,0
154780,-83.3333333333333,4,2,1,70,0,0
154973,-83.3333333333333,4,2,1,60,0,0
155360,-100,4,2,1,60,0,0
155554,-100,4,2,1,30,0,0
155747,-100,4,2,1,60,0,0
155941,-100,4,2,1,30,0,0
156134,-100,4,2,1,60,0,0
156328,-100,4,2,1,30,0,0
156521,-100,4,2,1,60,0,0
156715,-100,4,2,1,30,0,0
156909,-100,4,2,1,60,0,0
161554,-125,4,2,1,40,0,0
169296,-111.111111111111,4,2,1,40,0,0
170844,-100,4,2,1,60,0,0
192134,-200,4,2,1,30,0,0
192521,-125,4,2,1,30,0,0
194070,-111.111111111111,4,2,1,40,0,0
195425,-100,4,2,1,60,0,0
198521,-76.9230769230769,4,2,1,80,0,1
198909,-90.9090909090909,4,2,1,70,0,1
208005,-90.9090909090909,4,2,1,70,0,0
212651,-90.9090909090909,4,2,1,70,0,1
212747,-90.9090909090909,4,2,1,70,0,0
213812,-100,4,2,1,60,0,0
214199,-100,4,2,1,60,0,1
214392,-100,4,2,1,60,0,0
221167,-100,4,2,1,5,0,0

[Colours]
Combo1 : 255,146,94
Combo2 : 169,83,255
Combo3 : 255,74,74
Combo4 : 0,128,255

[HitObjects]
120,84,1683,6,0,L|121:143,1,60,0|0,0:0|0:0,0:0:0:0:
168,208,2070,6,0,B|212:216|212:216|252:196,2,90,6|2|2,0:0|0:0|0:0,0:0:0:0:
104,264,2844,2,0,B|64:248|64:248|4:264,2,90,2|2|2,0:0|0:0|0:0,0:0:0:0:
180,296,3618,6,0,B|216:316|296:296|296:296|376:280|416:297,1,240,4|0,0:0|0:0,0:0:0:0:
488,168,4780,2,0,L|412:172,1,60,2|2,0:0|0:0,0:0:0:0:
355,139,5167,6,0,P|340:98|340:53,2,90,4|4|4,0:3|0:3|0:3,0:0:0:0:
304,196,5941,2,0,P|300:240|276:288,2,90,4|4|4,0:3|0:3|0:3,0:0:0:0:
208,84,6715,1,4,0:0:0:0:
208,84,7489,6,0,L|140:80,1,60,2|0,0:0|0:0,0:0:0:0:
104,160,7876,1,2,0:0:0:0:
168,228,8070,6,0,B|228:184|228:184|304:192,1,150,0|2,0:0|0:0,0:0:0:0:
388,239,9038,2,0,P|396:203|392:166,2,75,2|2|2,0:0|0:0|0:0,0:0:0:0:
320,120,9618,6,0,P|392:128|447:80,1,150,4|0,0:0|0:0,0:0:0:0:
364,40,10199,2,0,L|289:36,1,75,8|0,0:0|0:0,0:0:0:0:
212,80,10586,2,0,P|200:44|205:5,2,75,2|2|8,0:0|0:0|0:0,0:0:0:0:
240,168,11167,6,0,B|192:172|192:172|140:152|140:152|94:155,1,150,2|2,0:0|0:0,0:0:0:0:
16,196,11747,2,0,P|6:156|12:120,1,75,8|0,0:0|0:0,0:0:0:0:
96,240,12134,2,0,L|92:320,1,75,2|2,0:0|0:0,0:0:0:0:
172,356,12521,1,8,0:0:0:0:
200,268,12715,6,0,B|268:236|268:236|352:264,1,150,2|0,0:0|0:0,0:0:0:0:
424,224,13296,1,8,0:0:0:0:
408,136,13489,2,0,B|336:160|336:160|266:134,1,150,2|0,0:0|0:0,0:0:0:0:
204,72,14070,1,10,0:0:0:0:
140,132,14263,6,0,L|156:288,1,150,2|0,0:0|0:0,0:0:0:0:
96,352,14844,2,0,P|161:317|236:332,1,150,8|2,0:0|0:0,0:0:0:0:
316,368,15425,2,0,L|320:292,1,75,2|8,0:0|0:0,0:0:0:0:
392,236,15812,6,0,B|319:260|319:260|251:232,1,150,4|2,0:0|0:0,0:0:0:0:
232,140,16392,1,10,0:0:0:0:
320,160,16586,2,0,B|384:136|384:136|416:60,1,150,2|0,0:0|0:0,0:0:0:0:
328,36,17167,2,0,B|276:56|276:56|215:36,1,112.5,10|0,0:0|0:0,0:0:0:0:
192,24,17554,6,0,B|188:68|188:68|212:124|212:124|208:180,1,150,4|8,0:0|0:0,0:0:0:0:
136,292,18134,2,0,B|140:248|140:248|116:192|116:192|120:136,1,150,4|0,0:0|0:0,0:0:0:0:
48,256,18715,2,0,B|41:330,1,75,8|0,0:0|0:0,0:0:0:0:
136,292,19102,6,0,B|210:282|210:282|248:295,2,112.5,4|4|4,0:0|0:3|0:3,0:0:0:0:
164,204,19876,2,0,B|232:196|232:196|253:171,2,101.249996910095,4|4|4,0:3|0:3|0:3,0:0:0:0:
192,116,20651,5,8,0:0:0:0:
192,116,20844,1,8,0:0:0:0:
400,64,21231,1,12,0:0:0:0:
400,64,22199,6,0,L|396:132,1,60,4|0,0:0|1:0,0:0:0:0:
368,204,22586,1,0,0:0:0:0:
304,152,22780,2,0,L|312:24,1,120,2|0,0:0|0:0,0:0:0:0:
228,48,23360,2,0,L|224:107,1,60,2|0,0:0|0:0,0:0:0:0:
196,188,23747,6,0,B|140:208|140:208|76:184,1,120,2|0,0:0|0:0,0:0:0:0:
176,280,24328,2,0,B|232:260|232:260|291:272,1,120,2|0,0:0|0:0,0:0:0:0:
370,307,24909,2,0,P|376:279|372:244,1,60,2|0,0:0|0:0,0:0:0:0:
312,188,25296,6,0,L|320:120,1,60,0|0,1:0|1:0,0:0:0:0:
380,68,25683,1,0,0:0:0:0:
304,36,25876,2,0,P|252:64|193:61,1,120,2|0,0:0|0:0,0:0:0:0:
112,32,26457,2,0,L|114:95,1,60,2|0,0:0|0:0,0:0:0:0:
140,172,26844,6,0,B|96:173|96:173|58:163|58:163|12:164,1,120,2|0,0:0|0:0,0:0:0:0:
100,260,27425,1,0,0:0:0:0:
100,260,27618,2,0,L|192:256,2,90,2|0|0,0:0|0:0|0:0,0:0:0:0:
140,172,28392,6,0,L|207:169,1,60,0|0,1:0|1:0,0:0:0:0:
268,120,28780,1,0,0:0:0:0:
312,192,28973,2,0,L|300:312,1,120,2|0,0:0|0:0,0:0:0:0:
388,296,29554,2,0,L|392:236,1,60,2|0,0:0|0:0,0:0:0:0:
396,152,29941,6,0,B|452:176|452:176|509:160,1,120,2|0,0:0|0:0,0:0:0:0:
448,56,30521,2,0,B|328:64,1,120,2|0,0:0|0:0,0:0:0:0:
252,104,31102,2,0,P|244:72|244:44,1,60,2|0,0:0|0:0,0:0:0:0:
320,156,31489,5,0,1:0:0:0:
244,192,31683,2,0,L|168:188,1,60,0|0,1:0|0:0,0:0:0:0:
100,244,32070,2,0,L|108:124,1,120,2|0,0:0|0:0,0:0:0:0:
148,48,32651,2,0,P|119:41|89:43,1,60,2|0,0:0|0:0,0:0:0:0:
192,120,33038,5,8,0:0:0:0:
352,48,33231,1,8,0:0:0:0:
352,48,33618,2,0,B|356:92|356:92|344:144|344:144|350:196,1,150,4|0,0:0|0:3,0:0:0:0:
436,232,34199,2,0,L|428:144,1,75,8|8,0:3|0:3,0:0:0:0:
512,280,34586,6,0,P|449:317|379:299,1,150,4|8,0:0|0:0,0:0:0:0:
300,344,35167,2,0,P|234:311|162:326,1,150,2|0,0:0|0:0,0:0:0:0:
84,368,35747,2,0,P|76:332|80:293,1,75,10|0,0:0|0:0,0:0:0:0:
148,232,36134,6,0,L|141:157,1,75,2|0,0:0|0:0,0:0:0:0:
76,100,36521,1,8,0:0:0:0:
160,68,36715,2,0,B|236:88|236:88|312:44,1,150,2|0,0:0|0:0,0:0:0:0:
380,88,37296,2,0,L|383:162,1,75,10|0,0:0|0:0,0:0:0:0:
336,244,37683,5,4,0:3:0:0:
412,300,37876,2,0,L|464:296,2,37.5,0|8|8,0:0|0:0|0:0,0:0:0:0:
252,296,38263,6,0,P|240:252|248:206,1,89.9999972534181,4|0,0:0|0:0,0:0:0:0:
379,88,38651,2,0,P|354:124|314:144,1,89.9999972534181,4|8,0:0|0:0,0:0:0:0:
228,116,39038,6,0,B|160:96|152:144|80:119,1,150,4|0,0:0|0:0,0:0:0:0:
120,36,39618,1,8,0:0:0:0:
200,200,40005,2,0,L|192:292,2,90,4|4|4,0:3|0:3|0:3,0:0:0:0:
116,324,40780,6,0,P|188:311|255:343,1,150,4|10,0:0|0:0,0:0:0:0:
348,372,41360,2,0,B|356:324|356:324|340:272|340:272|346:225,1,150,2|2,0:0|0:0,0:0:0:0:
439,185,41941,2,0,L|432:260,1,75,10|2,0:0|0:0,0:0:0:0:
413,96,42328,6,0,L|488:100,1,75,4|0,0:0|0:0,0:0:0:0:
352,164,42715,2,0,P|293:119|216:120,1,150,8|2,0:0|0:0,0:0:0:0:
164,196,43296,1,2,0:0:0:0:
128,112,43489,2,0,L|136:24,1,75,8|0,0:0|0:0,0:0:0:0:
33,152,43876,6,0,B|96:204|96:204|164:196,1,150,4|8,0:0|0:0,0:0:0:0:
220,292,44457,2,0,L|136:288,1,75,2|0,0:0|0:0,0:0:0:0:
256,200,44844,1,0,0:0:0:0:
320,264,45038,2,0,L|316:338,1,75,10|0,0:0|0:0,0:0:0:0:
256,200,45425,5,2,0:0:0:0:
412,128,45618,1,8,0:0:0:0:
148,68,46005,1,4,0:0:0:0:
136,76,46392,2,0,L|60:80,2,75,8|4|4,0:0|0:3|0:3,0:0:0:0:
220,108,46973,6,0,P|226:68|216:33,1,75,4|0,0:0|0:0,0:0:0:0:
156,168,47360,1,8,0:0:0:0:
240,196,47554,2,0,L|320:192,1,75,2|8,0:0|0:0,0:0:0:0:
396,153,47941,2,0,L|400:228,1,75,2|8,0:0|0:0,0:0:0:0:
464,88,48328,6,0,B|396:120|396:120|325:95,1,150,2|0,0:0|0:0,0:0:0:0:
272,24,48909,1,8,0:0:0:0:
218,94,49102,2,0,L|232:244,1,150,2|2,0:0|0:0,0:0:0:0:
140,240,49683,2,0,L|133:164,1,75,8|2,0:0|0:0,0:0:0:0:
84,312,50070,6,0,P|155:328|216:289,1,150,10|8,0:0|0:0,0:0:0:0:
288,336,50651,2,0,L|362:332,1,75,2|8,0:0|0:0,0:0:0:0:
444,292,51038,2,0,P|452:328|447:366,1,75,2|10,0:0|0:0,0:0:0:0:
359,235,51425,6,0,P|432:249|494:210,1,150,2|0,0:0|0:0,0:0:0:0:
492,120,52005,1,10,0:0:0:0:
412,160,52199,2,0,P|363:105|364:32,1,150,2|0,0:0|0:0,0:0:0:0:
276,112,52780,2,0,L|280:196,1,75,8|0,0:0|0:0,0:0:0:0:
192,228,53167,6,0,L|188:148,1,75,4|0,0:0|0:0,0:0:0:0:
132,296,53554,1,8,0:0:0:0:
220,312,53747,2,0,B|272:308|272:308|312:320|312:320|372:316,1,150,2|2,0:0|0:0,0:0:0:0:
452,280,54328,2,0,L|455:354,1,75,8|0,0:0|0:0,0:0:0:0:
368,228,54715,6,0,P|360:188|368:148,1,75,4|0,0:3|0:0,0:0:0:0:
464,68,55102,2,0,L|389:70,1,75,8|4,0:0|0:3,0:0:0:0:
312,24,55489,1,2,0:0:0:0:
276,132,55683,1,4,0:3:0:0:
188,100,55876,2,0,L|192:20,1,75,8|0,0:0|0:0,0:0:0:0:
276,132,56263,5,12,0:0:0:0:
276,132,56457,1,2,0:0:0:0:
104,180,56651,1,8,0:0:0:0:
104,180,56844,1,2,0:0:0:0:
184,288,57038,2,0,L|188:204,1,75,8|2,0:0|0:0,0:0:0:0:
276,132,57425,1,8,0:3:0:0:
420,211,57618,6,0,P|349:263|262:249,1,179.999994506836,4|4,0:0|0:3,0:0:0:0:
276,132,58199,1,4,0:3:0:0:
196,88,58392,1,2,0:0:0:0:
188,212,58586,1,8,0:0:0:0:
104,180,58780,2,0,L|60:184,2,44.999998626709,0|8|8,0:0|0:0|0:0,0:0:0:0:
251,280,59167,6,0,P|181:303|116:272,1,150,4|2,0:0|0:0,0:0:0:0:
187,212,59747,2,0,B|256:184|256:184|328:212,1,150,8|2,0:0|0:0,0:0:0:0:
412,248,60328,2,0,L|408:172,1,75,2|8,0:0|0:0,0:0:0:0:
368,92,60715,6,0,L|442:88,1,75,2|0,0:0|0:0,0:0:0:0:
288,52,61102,1,2,0:0:0:0:
292,144,61296,2,0,B|245:146|245:146|196:132|196:132|144:134,1,150,8|0,0:0|0:0,0:0:0:0:
64,172,61876,2,0,L|60:97,1,75,2|8,0:0|0:0,0:0:0:0:
2,244,62263,6,0,P|73:260|138:226,1,150,2|0,0:0|0:0,0:0:0:0:
220,260,62844,1,8,0:0:0:0:
196,348,63038,2,0,L|121:344,1,75,2|0,0:0|0:0,0:0:0:0:
220,260,63425,1,2,0:0:0:0:
284,324,63618,1,8,0:0:0:0:
308,236,63812,6,0,B|388:212|376:256|455:234,1,150,2|0,0:0|0:0,0:0:0:0:
416,152,64392,1,8,0:0:0:0:
460,76,64586,1,2,0:0:0:0:
284,40,64973,1,2,0:0:0:0:
296,128,65167,1,8,0:0:0:0:
368,76,65360,6,0,B|320:72|320:72|268:92|268:92|222:85,1,150,4|2,0:0|0:0,0:0:0:0:
136,116,65941,1,8,0:0:0:0:
240,180,66134,2,0,B|285:186|285:186|337:166|337:166|385:170,1,150,2|0,0:0|0:0,0:0:0:0:
476,156,66715,1,8,0:0:0:0:
428,264,66909,6,0,B|352:256|352:256|280:292,1,150,4|2,0:0|0:0,0:0:0:0:
200,308,67489,1,8,0:0:0:0:
172,204,67683,2,0,B|248:212|248:212|320:176,1,150,2|0,0:0|0:0,0:0:0:0:
276,96,68263,1,8,0:0:0:0:
132,128,68457,6,0,L|139:277,1,150,4|0,0:0|0:0,0:0:0:0:
56,312,69038,1,10,0:0:0:0:
12,232,69231,1,0,0:0:0:0:
48,148,69425,2,0,L|44:60,1,75,2|2,0:0|0:0,0:0:0:0:
120,24,69812,1,10,0:0:0:0:
228,120,70005,6,0,P|300:133|365:99,1,150,4|4,0:0|0:3,0:0:0:0:
472,48,70586,2,0,L|468:144,1,75,4|2,0:3|0:0,0:0:0:0:
400,264,70973,2,0,L|403:189,1,75,2|0,0:0|0:0,0:0:0:0:
403,189,71263,1,8,0:0:0:0:
403,189,71360,1,8,0:0:0:0:
463,332,71554,6,0,P|393:352|326:321,1,150,4|2,0:0|0:0,0:0:0:0:
252,216,72134,2,0,B|272:280|224:292|250:363,1,150,8|2,0:0|0:0,0:0:0:0:
172,248,72715,2,0,P|135:240|100:248,1,75,2|8,0:0|0:0,0:0:0:0:
0,156,73102,6,0,L|74:159,1,75,2|0,0:0|0:0,0:0:0:0:
100,72,73489,1,2,0:0:0:0:
184,100,73683,2,0,L|172:249,1,150,8|0,0:0|0:0,0:0:0:0:
196,336,74263,2,0,P|160:340|124:328,1,75,2|8,0:0|0:0,0:0:0:0:
268,264,74651,6,0,B|340:248|340:248|407:283,1,150,2|0,0:0|0:0,0:0:0:0:
452,208,75231,1,8,0:0:0:0:
380,152,75425,2,0,L|305:155,1,75,2|0,0:0|0:0,0:0:0:0:
440,80,75812,1,2,0:0:0:0:
440,80,76005,1,8,0:0:0:0:
368,28,76199,6,0,P|305:66|232:56,1,150,2|0,0:0|0:0,0:0:0:0:
148,24,76780,1,8,0:0:0:0:
64,60,76973,1,2,0:0:0:0:
100,244,77360,1,2,0:0:0:0:
184,204,77554,1,8,0:0:0:0:
115,147,77747,6,0,P|182:179|254:165,1,150,4|2,0:0|0:0,0:0:0:0:
300,88,78328,1,8,0:0:0:0:
352,160,78521,2,0,L|336:309,1,150,2|0,0:0|0:0,0:0:0:0:
244,352,79102,1,8,0:0:0:0:
244,352,79296,1,2,0:0:0:0:
148,252,79489,6,0,B|204:236|204:236|260:255,1,112.5,4|0,0:0|0:0,0:0:0:0:
255,253,79876,1,8,0:0:0:0:
160,152,80070,2,0,B|88:172|88:172|0:136,1,150,6|0,0:0|0:0,0:0:0:0:
60,64,80651,2,0,B|93:80|93:80|130:73,1,75,8|0,0:0|0:0,0:0:0:0:
216,44,81038,6,0,B|284:48|284:48|324:28,2,112.5,4|4|4,0:0|0:3|0:3,0:0:0:0:
244,132,81812,2,0,B|324:136|324:136|348:157,2,112.5,4|4|4,0:3|0:3|0:3,0:0:0:0:
268,220,82586,5,4,0:0:0:0:
268,220,83747,2,0,L|220:224,1,37.5,2|2,0:0|0:0,0:0:0:0:
192,200,83941,2,0,L|148:196,1,37.5,2|2,0:0|0:0,0:0:0:0:
116,220,84134,6,0,P|83:153|104:84,1,150,4|8,0:0|0:0,0:0:0:0:
180,36,84715,2,0,B|288:44|288:44|324:24,1,150,2|2,0:0|0:0,0:0:0:0:
412,8,85296,1,8,0:0:0:0:
456,112,85489,6,0,B|384:92|384:92|312:144,1,150,2|0,0:0|0:0,0:0:0:0:
244,176,86070,2,0,P|236:136|248:92,1,75,8|0,0:0|0:0,0:0:0:0:
320,224,86457,1,2,0:0:0:0:
320,224,86651,1,2,0:0:0:0:
240,268,86844,2,0,L|120:260,1,112.5,8|0,0:0|0:0,0:0:0:0:
96,260,87231,6,0,L|104:336,1,75,6|0,0:0|0:0,0:0:0:0:
128,176,87618,1,8,0:0:0:0:
24,160,87812,2,0,L|16:80,1,75,2|0,0:0|0:0,0:0:0:0:
148,12,88199,2,0,L|140:86,1,75,2|8,0:0|0:0,0:0:0:0:
128,176,88586,6,0,P|200:196|280:156,1,150,4|2,0:0|0:0,0:0:0:0:
304,80,89167,1,8,0:0:0:0:
420,240,89554,2,0,L|412:356,2,112.5,4|2|2,0:3|0:0|0:0,0:0:0:0:
340,168,90328,6,0,L|332:242,1,75,6|0,0:0|0:0,0:0:0:0:
412,112,90715,1,8,0:0:0:0:
326,79,90909,2,0,B|280:76|280:76|232:96|232:96|180:92,1,150,2|0,0:0|0:0,0:0:0:0:
100,132,91489,2,0,P|90:95|97:59,1,75,8|2,0:0|0:0,0:0:0:0:
172,176,91876,5,2,0:0:0:0:
88,296,92070,1,8,0:0:0:0:
320,184,92457,1,4,0:0:0:0:
256,192,99618,12,0,102328,0:0:0:0:
113,88,102715,5,8,0:0:0:0:
73,228,102909,1,4,0:0:0:0:
72,228,103296,2,0,P|131:185|204:193,1,150,4|0,0:0|0:0,0:0:0:0:
265,260,103876,2,0,L|257:336,1,75,8|4,0:0|0:3,0:0:0:0:
257,334,104167,1,4,0:3:0:0:
257,334,104263,5,8,0:0:0:0:
400,256,104457,1,0,0:0:0:0:
400,256,104844,2,0,B|404:204|404:204|428:164|428:164|431:112,1,150,4|4,0:0|0:3,0:0:0:0:
404,28,105425,2,0,L|480:32,1,75,4|4,0:3|0:3,0:0:0:0:
348,100,105812,6,0,B|311:108|311:108|275:97,1,75,4|0,0:0|0:0,0:0:0:0:
188,120,106199,1,8,0:0:0:0:
188,208,106392,2,0,B|260:184|260:184|330:207,1,150,2|0,0:0|0:0,0:0:0:0:
396,272,106973,2,0,L|387:352,1,75,10|0,0:0|0:0,0:0:0:0:
472,376,107360,6,0,L|489:227,1,150,2|8,0:0|0:0,0:0:0:0:
492,136,107941,1,2,0:0:0:0:
408,100,108134,2,0,P|401:145|413:180,1,75,0|0,0:0|0:0,0:0:0:0:
328,276,108521,2,0,P|336:240|324:192,1,75,8|0,0:0|0:0,0:0:0:0:
260,144,108909,2,0,L|168:152,1,75,4|0,0:3|0:0,0:0:0:0:
185,150,109199,1,8,0:0:0:0:
185,150,109296,1,8,0:0:0:0:
84,192,109489,6,0,P|73:148|81:105,1,89.9999972534181,4|0,0:0|0:0,0:0:0:0:
128,280,109876,2,0,P|85:291|41:284,1,89.9999972534181,4|8,0:0|0:0,0:0:0:0:
188,204,110263,6,0,L|176:353,1,150,4|0,0:0|0:0,0:0:0:0:
175,353,110844,1,8,0:0:0:0:
364,280,111231,2,0,B|328:276|328:276|308:284|308:284|275:281,2,90,4|4|4,0:3|0:3|0:3,0:0:0:0:
416,360,112005,6,0,P|452:296|435:225,1,150,4|8,0:0|0:0,0:0:0:0:
320,160,112586,2,0,B|384:176|400:128|466:148,1,150,2|2,0:0|0:0,0:0:0:0:
344,80,113167,2,0,L|264:76,1,75,10|2,0:0|0:0,0:0:0:0:
184,104,113554,6,0,P|180:64|190:29,1,75,4|0,0:0|0:0,0:0:0:0:
250,165,113941,2,0,L|244:240,1,75,8|0,0:0|0:0,0:0:0:0:
201,319,114328,2,0,P|235:328|274:322,2,75,2|2|8,0:0|0:0|0:0,0:0:0:0:
152,244,114909,1,0,0:0:0:0:
80,296,115102,6,0,L|84:372,1,75,4|0,0:0|0:0,0:0:0:0:
152,244,115489,1,8,0:0:0:0:
92,176,115683,2,0,L|12:180,1,75,2|0,0:0|0:0,0:0:0:0:
92,84,116070,1,0,0:0:0:0:
172,128,116263,2,0,L|248:124,1,75,10|0,0:0|0:0,0:0:0:0:
328,164,116651,5,2,0:0:0:0:
280,40,116844,1,8,0:0:0:0:
244,260,117231,1,4,0:0:0:0:
252,268,117618,2,0,L|332:264,2,75,8|4|4,0:0|0:3|0:3,0:0:0:0:
168,232,118199,6,0,P|161:266|171:306,1,75,4|2,0:0|0:0,0:0:0:0:
240,176,118586,1,8,0:0:0:0:
156,144,118780,2,0,L|80:148,1,75,2|8,0:0|0:0,0:0:0:0:
224,88,119167,2,0,L|298:84,1,75,2|8,0:0|0:0,0:0:0:0:
356,12,119554,6,0,P|385:74|352:159,1,150,2|2,0:0|0:0,0:0:0:0:
288,196,120134,1,8,0:0:0:0:
368,236,120328,2,0,B|424:240|424:240|456:217|456:217|510:219,1,150,2|2,0:0|0:0,0:0:0:0:
464,324,120909,2,0,L|389:320,1,75,8|2,0:0|0:0,0:0:0:0:
296,331,121296,6,0,B|260:264|260:264|288:196,1,150,8|8,0:0|0:0,0:0:0:0:
364,148,121876,2,0,L|440:152,1,75,2|8,0:0|0:0,0:0:0:0:
328,60,122263,1,2,0:0:0:0:
328,60,122457,1,8,0:0:0:0:
276,132,122651,6,0,P|204:147|139:113,1,150,2|2,0:0|0:0,0:0:0:0:
60,164,123231,1,8,0:0:0:0:
68,260,123425,2,0,P|134:228|207:240,1,150,2|4,0:0|0:3,0:0:0:0:
284,324,124005,1,4,0:3:0:0:
380,280,124199,1,4,0:3:0:0:
296,204,124392,6,0,L|302:129,1,75,4|0,0:0|0:0,0:0:0:0:
344,48,124780,1,8,0:0:0:0:
412,138,124973,2,0,B|408:188|408:188|384:224|384:224|380:280,1,150,2|2,0:0|0:0,0:0:0:0:
336,356,125554,2,0,P|372:365|410:359,1,75,8|0,0:0|0:0,0:0:0:0:
296,280,125941,6,0,L|221:283,1,75,8|4,0:0|0:3,0:0:0:0:
132,276,126328,2,0,B|120:240|120:240|127:203,1,75,4|4,0:3|0:3,0:0:0:0:
196,148,126715,1,2,0:0:0:0:
112,76,126909,1,0,0:0:0:0:
192,32,127102,2,0,L|276:36,1,75,8|0,0:0|0:0,0:0:0:0:
356,16,127489,5,12,0:0:0:0:
356,16,127683,1,2,0:0:0:0:
436,140,127876,1,8,0:0:0:0:
436,140,128070,1,2,0:0:0:0:
284,108,128263,2,0,L|360:104,1,75,8|2,0:0|0:0,0:0:0:0:
444,48,128651,1,8,0:3:0:0:
508,196,128844,6,0,P|427:227|352:180,1,179.999994506836,4|4,0:0|0:3,0:0:0:0:
284,108,129425,1,4,0:3:0:0:
260,200,129618,1,4,0:3:0:0:
196,68,129812,1,8,0:0:0:0:
100,132,130005,2,0,L|55:124,2,44.999998626709,0|8|8,0:0|0:0|0:0,0:0:0:0:
260,200,130392,6,0,B|196:244|196:244|116:236,1,150,4|2,0:0|0:0,0:0:0:0:
132,328,130973,2,0,L|206:334,1,75,8|0,0:0|0:0,0:0:0:0:
291,306,131360,2,0,P|295:343|288:380,1,75,2|2,0:0|0:0,0:0:0:0:
224,244,131747,1,8,0:0:0:0:
308,212,131941,6,0,L|384:216,1,75,2|0,0:0|0:0,0:0:0:0:
456,164,132328,1,2,0:0:0:0:
412,84,132521,2,0,P|340:120|264:96,1,150,8|2,0:0|0:0,0:0:0:0:
196,64,133102,2,0,P|188:100|195:138,1,75,2|8,0:0|0:0,0:0:0:0:
256,204,133489,6,0,B|192:168|192:168|119:192,1,150,2|0,0:0|0:0,0:0:0:0:
80,272,134070,1,8,0:0:0:0:
28,196,134263,2,0,L|32:120,1,75,2|0,0:0|0:0,0:0:0:0:
64,36,134651,1,2,0:0:0:0:
120,108,134844,1,8,0:0:0:0:
184,44,135038,6,0,B|260:20|252:60|331:44,1,150,2|0,0:0|0:0,0:0:0:0:
416,20,135618,1,8,0:0:0:0:
452,100,135812,1,2,0:0:0:0:
312,216,136199,1,2,0:0:0:0:
380,160,136392,1,8,0:0:0:0:
368,284,136586,6,0,P|296:300|232:265,1,150,4|2,0:0|0:0,0:0:0:0:
206,165,137167,1,8,0:0:0:0:
140,232,137360,2,0,L|147:381,1,150,2|0,0:0|0:0,0:0:0:0:
52,304,137941,1,8,0:0:0:0:
66,181,138134,6,0,B|140:200|140:200|206:165,1,150,4|2,0:0|0:0,0:0:0:0:
296,180,138715,1,8,0:0:0:0:
304,268,138909,2,0,B|230:249|230:249|164:284,1,150,2|0,0:0|0:0,0:0:0:0:
244,360,139489,1,8,0:0:0:0:
372,344,139683,6,0,P|399:275|383:203,1,150,4|0,0:0|0:0,0:0:0:0:
296,180,140263,1,10,0:0:0:0:
336,44,140457,1,0,0:0:0:0:
376,128,140651,1,2,0:0:0:0:
260,96,140844,2,0,L|184:100,1,75,2|8,0:0|0:0,0:0:0:0:
83,200,141231,6,0,P|155:216|220:181,1,150,4|4,0:0|0:3,0:0:0:0:
296,268,141812,2,0,L|292:344,1,75,4|0,0:3|0:0,0:0:0:0:
293,343,142102,1,0,0:0:0:0:
293,343,142199,1,4,0:3:0:0:
424,320,142392,2,0,L|423:358,2,37.5,0|8|8,0:0|0:0|0:0,0:0:0:0:
512,192,142780,6,0,P|447:228|375:214,1,150,4|2,0:0|0:0,0:0:0:0:
320,144,143360,2,0,L|331:69,1,75,8|0,0:0|0:0,0:0:0:0:
204,12,143747,2,0,L|214:86,1,75,2|2,0:0|0:0,0:0:0:0:
208,176,144134,1,8,0:0:0:0:
116,208,144328,6,0,L|120:124,1,75,2|0,0:0|0:0,0:0:0:0:
40,260,144715,1,2,0:0:0:0:
120,300,144909,2,0,B|168:304|168:304|220:288|220:288|268:292,1,150,8|0,0:0|0:0,0:0:0:0:
352,260,145489,2,0,P|356:296|348:334,1,75,2|8,0:0|0:0,0:0:0:0:
288,196,145876,6,0,P|352:231|424:216,1,150,2|0,0:0|0:0,0:0:0:0:
456,132,146457,1,8,0:0:0:0:
368,140,146651,2,0,L|373:65,1,75,2|0,0:0|0:0,0:0:0:0:
292,28,147038,1,2,0:0:0:0:
216,76,147231,1,8,0:0:0:0:
132,40,147425,6,0,B|128:92|128:92|144:132|144:132|140:186,1,150,2|0,0:0|0:0,0:0:0:0:
76,248,148005,1,8,0:0:0:0:
52,160,148199,1,2,0:0:0:0:
176,276,148586,1,2,0:0:0:0:
108,340,148780,1,8,0:0:0:0:
148,184,148973,6,0,B|216:164|224:212|296:187,1,150,4|2,0:0|0:0,0:0:0:0:
380,220,149554,1,8,0:0:0:0:
408,108,149747,2,0,B|337:132|329:84|261:104,1,150,2|0,0:0|0:0,0:0:0:0:
180,144,150328,2,0,P|171:104|176:68,1,75,10|0,0:0|0:0,0:0:0:0:
235,213,150715,6,0,P|181:229|128:216,1,112.5,4|0,0:0|0:0,0:0:0:0:
127,216,151102,1,8,0:0:0:0:
284,284,151296,2,0,L|276:120,1,150,4|0,0:0|0:0,0:0:0:0:
368,92,151876,2,0,L|372:180,1,75,8|0,0:0|0:0,0:0:0:0:
384,256,152263,6,0,P|440:268|496:245,2,112.5,4|4|4,0:0|0:3|0:3,0:0:0:0:
284,284,153038,2,0,P|230:267|175:274,2,112.5,4|4|0,0:3|0:3|0:3,0:0:0:0:
360,352,153812,1,4,0:0:0:0:
360,352,154780,2,0,L|366:319,1,29.9999990844727,4|0,0:3|0:0,0:0:0:0:
368,268,154973,6,0,B|304:288|304:288|240:264,1,134.999995880127,4|0,0:0|0:0,0:0:0:0:
240,264,155360,5,2,0:0:0:0:
208,180,155554,1,2,0:0:0:0:
148,248,155747,2,0,L|152:322,1,75,10|0,0:0|0:0,0:0:0:0:
64,224,156134,2,0,B|52:188|52:188|60:149,1,75,2|2,0:0|0:0,0:0:0:0:
140,40,156521,2,0,L|143:114,1,75,10|2,0:0|0:0,0:0:0:0:
207,179,156909,6,0,P|279:195|345:162,1,150,6|8,0:0|0:0,0:0:0:0:
436,56,157489,2,0,B|428:104|428:104|440:152|440:152|432:203,1,150,4|0,0:0|0:0,0:0:0:0:
392,284,158070,2,0,L|466:287,1,75,8|0,0:0|0:0,0:0:0:0:
314,242,158457,6,0,P|307:278|312:316,1,75,4|2,0:0|0:0,0:0:0:0:
384,184,158844,1,8,0:0:0:0:
304,139,159038,2,0,P|239:176|166:168,1,150,2|2,0:0|0:0,0:0:0:0:
166,168,159521,1,2,0:0:0:0:
166,168,159618,2,0,L|173:93,1,75,8|0,0:0|0:0,0:0:0:0:
64,32,160005,6,0,L|68:108,1,75,2|0,0:0|0:0,0:0:0:0:
36,192,160392,1,10,0:0:0:0:
140,240,160586,2,0,L|132:164,1,75,10|0,0:0|0:0,0:0:0:0:
240,76,160973,1,4,0:3:0:0:
228,212,161167,1,8,0:0:0:0:
240,76,161360,1,4,0:3:0:0:
284,148,161554,6,0,L|356:152,1,60,4|0,0:0|0:0,0:0:0:0:
420,188,161941,2,0,P|428:156|424:124,1,60,0|0,0:0|1:0,0:0:0:0:
352,232,162328,2,0,L|359:351,1,120,0|0,0:0|0:0,0:0:0:0:
220,212,163102,6,0,P|196:157|208:99,1,120,0|0,1:0|0:0,0:0:0:0:
280,56,163683,2,0,L|404:60,1,120,0|0,1:0|0:0,0:0:0:0:
364,140,164263,6,0,L|300:138,1,60,2|0,0:3|0:0,0:0:0:0:
220,212,164651,2,0,B|261:213|261:213|296:224|296:224|337:225,1,120,0|0,1:0|0:0,0:0:0:0:
240,296,165231,2,0,B|199:295|199:295|164:284|164:284|122:282,1,120,0|0,1:0|0:0,0:0:0:0:
36,304,165812,2,0,L|39:244,1,60,2|0,0:0|0:0,0:0:0:0:
24,152,166199,6,0,L|20:112,1,30,0|2,1:0|0:0,0:0:0:0:
120,72,166489,2,0,L|116:104,1,30,0|2,1:0|0:0,0:0:0:0:
108,188,166780,2,0,P|165:204|222:189,1,120,0|0,1:0|0:0,0:0:0:0:
288,136,167360,2,0,L|352:140,1,60,8|0,0:0|0:0,0:0:0:0:
404,208,167747,6,0,P|431:155|422:97,1,120,4|0,0:0|0:0,0:0:0:0:
348,140,168328,2,0,P|320:192|329:250,1,120,2|0,1:3|0:0,0:0:0:0:
400,300,168909,2,0,L|459:297,1,60,4|0,0:3|0:0,0:0:0:0:
320,336,169296,6,0,B|260:308|260:308|184:320,1,134.999995880127,4|0,0:0|0:0,0:0:0:0:
112,208,169876,2,0,B|172:236|172:236|248:224,1,134.999995880127,0|0,1:0|0:0,0:0:0:0:
304,164,170457,1,4,0:3:0:0:
304,164,170651,1,0,1:0:0:0:
240,56,170844,6,0,P|176:92|102:82,1,150,4|0,0:0|0:0,0:0:0:0:
36,208,171425,2,0,P|102:176|175:187,1,150,4|0,0:0|0:0,0:0:0:0:
236,256,172005,1,8,0:0:0:0:
236,256,172199,1,0,0:0:0:0:
332,168,172392,6,0,B|328:116|328:116|348:76|348:76|344:22,1,150,4|0,0:0|0:0,0:0:0:0:
420,140,172973,2,0,L|424:215,1,75,4|0,0:0|0:0,0:0:0:0:
480,284,173360,1,4,0:3:0:0:
412,344,173554,1,8,0:0:0:0:
344,248,173747,1,4,0:3:0:0:
268,352,173941,6,0,B|196:368|196:368|128:332,1,150,4|8,0:0|0:0,0:0:0:0:
51,284,174521,2,0,P|116:248|187:265,1,150,2|0,0:0|0:0,0:0:0:0:
248,200,175102,2,0,L|240:120,1,75,10|0,0:0|0:0,0:0:0:0:
344,52,175489,6,0,L|336:144,1,75,2|0,0:0|0:0,0:0:0:0:
368,212,175876,2,0,B|403:223|403:223|440:215,1,75,8|2,0:0|0:0,0:0:0:0:
492,288,176263,1,0,0:0:0:0:
404,304,176457,2,0,L|328:297,2,75,2|8|2,0:0|0:0|0:0,0:0:0:0:
368,212,177038,6,0,B|324:208|324:208|272:232|272:232|220:228,1,150,6|8,0:0|0:0,0:0:0:0:
156,168,177618,2,0,P|132:236|167:300,1,150,2|2,0:0|0:0,0:0:0:0:
240,148,178199,2,0,L|236:72,1,75,8|2,0:0|0:0,0:0:0:0:
300,16,178586,6,0,B|232:48|232:48|157:25,1,150,4|8,0:0|0:0,0:0:0:0:
284,120,179167,2,0,B|352:88|352:88|426:110,1,150,2|0,0:0|0:0,0:0:0:0:
464,192,179747,2,0,L|460:252,3,37.5,2|2|2|2,0:0|0:0|0:0|0:0,0:0:0:0:
458,270,180134,6,0,P|395:309|324:296,1,150,6|4,0:0|0:3,0:0:0:0:
144,244,180715,2,0,P|208:204|280:220,1,150,4|0,0:0|0:0,0:0:0:0:
320,371,181296,2,0,L|324:297,1,75,8|0,0:0|0:0,0:0:0:0:
384,152,181683,6,0,L|380:226,1,75,4|0,0:0|0:0,0:0:0:0:
472,128,182070,1,0,0:0:0:0:
408,64,182263,2,0,B|356:60|356:60|316:80|316:80|262:76,1,150,4|0,0:0|0:0,0:0:0:0:
179,112,182844,2,0,P|171:76|180:40,1,75,8|0,0:0|0:0,0:0:0:0:
247,165,183231,6,0,L|244:240,1,75,4|0,0:0|0:0,0:0:0:0:
244,240,183521,1,4,0:3:0:0:
244,240,183618,1,4,0:3:0:0:
156,316,183812,2,0,P|119:324|83:315,1,75,4|0,0:0|0:0,0:0:0:0:
244,240,184199,5,4,0:3:0:0:
244,240,184392,1,4,0:3:0:0:
124,236,184586,2,0,P|88:220|64:188,1,75,4|0,0:0|0:0,0:0:0:0:
244,240,184973,5,4,0:3:0:0:
244,240,185167,1,4,0:3:0:0:
148,148,185360,2,0,P|136:112|144:68,1,75,4|0,0:0|0:0,0:0:0:0:
244,240,185747,5,4,0:3:0:0:
228,104,185941,1,4,0:3:0:0:
348,160,186134,1,4,0:3:0:0:
272,168,186328,5,4,0:0:0:0:
146,350,192134,6,0,L|202:354,1,56.25,0|0,0:0|0:0,0:0:0:0:
202,354,192521,6,0,P|208:323|206:294,1,60,4|2,0:0|0:3,0:0:0:0:
278,290,192909,2,0,P|268:260|251:236,1,60,0|2,1:0|0:3,0:0:0:0:
314,201,193296,2,0,P|291:179|264:167,1,60,0|2,1:0|0:3,0:0:0:0:
298,102,193684,2,0,P|267:95|238:98,1,60,0|2,1:0|0:3,0:0:0:0:
79,140,194070,6,0,P|110:133|141:114,1,67.4999979400635,0|2,1:0|0:3,0:0:0:0:
215,36,194457,2,0,P|222:68|239:97,1,67.4999979400635,0|2,1:0|0:3,0:0:0:0:
259,204,194844,2,0,P|226:194|193:194,1,67.4999979400635,0|2,1:0|0:3,0:0:0:0:
312,288,195231,1,0,0:0:0:0:
368,160,195425,6,0,L|356:10,1,150,4|4,0:0|0:3,0:0:0:0:
456,44,196005,2,0,L|464:140,1,75,4|4,0:3|0:3,0:0:0:0:
500,200,196392,1,8,0:0:0:0:
432,272,196586,1,8,0:0:0:0:
368,160,196780,1,8,0:0:0:0:
336,283,196973,6,0,P|262:287|200:240,1,150,4|0,0:0|0:0,0:0:0:0:
288,204,197554,1,8,0:0:0:0:
288,204,197747,1,0,0:0:0:0:
396,352,197941,1,4,0:3:0:0:
396,352,198134,1,4,0:3:0:0:
456,200,198328,1,4,0:3:0:0:
336,283,198521,6,0,P|262:287|200:236,1,146.249993305207,4|0,0:1|0:0,0:0:0:0:
188,228,198909,6,0,L|192:328,1,82.5000025177003,2|8,0:0|0:0,0:0:0:0:
288,204,199296,2,0,L|284:120,1,82.5000025177003,0|2,0:0|0:0,0:0:0:0:
236,44,199683,1,2,0:0:0:0:
192,124,199876,1,8,0:0:0:0:
104,108,200070,6,0,L|100:16,1,82.5000025177003,2|0,0:0|0:0,0:0:0:0:
12,128,200457,1,2,0:0:0:0:
76,192,200651,2,0,B|136:188|136:188|172:164|172:164|240:160,1,165.000005035401,8|0,0:0|0:0,0:0:0:0:
316,196,201231,2,0,P|319:153|312:113,1,82.5000025177003,2|8,0:0|0:0,0:0:0:0:
252,268,201618,6,0,P|324:231|404:244,1,165.000005035401,2|0,0:0|0:0,0:0:0:0:
476,188,202199,1,8,0:0:0:0:
412,124,202392,2,0,L|316:132,1,82.5000025177003,2|0,0:0|0:0,0:0:0:0:
288,48,202780,1,2,0:0:0:0:
288,48,202973,1,8,0:0:0:0:
200,99,203167,6,0,L|212:264,1,165.000005035401,2|0,0:0|0:0,0:0:0:0:
168,348,203747,1,8,0:0:0:0:
120,272,203941,1,2,0:0:0:0:
300,252,204328,1,2,0:0:0:0:
272,340,204521,1,8,0:0:0:0:
232,176,204715,6,0,P|304:212|382:192,1,165.000005035401,4|2,0:0|0:0,0:0:0:0:
444,260,205296,1,8,0:0:0:0:
416,348,205489,2,0,P|347:304|266:308,1,165.000005035401,2|0,0:0|0:0,0:0:0:0:
188,356,206070,2,0,P|179:317|184:273,1,82.5000025177003,8|2,0:0|0:0,0:0:0:0:
246,209,206457,6,0,B|186:225|186:225|128:204,1,123.75000377655,4|0,0:0|0:0,0:0:0:0:
128,204,206844,1,8,0:0:0:0:
295,288,207038,2,0,P|331:215|306:139,1,165.000005035401,4|0,0:0|0:0,0:0:0:0:
424,64,207618,2,0,L|420:146,1,82.5000025177003,8|0,0:0|0:0,0:0:0:0:
456,228,208005,6,0,P|416:236|373:224,1,82.5000025177003,4|0,0:0|0:0,0:0:0:0:
256,156,208392,2,0,L|338:152,1,82.5000025177003,8|2,0:0|0:0,0:0:0:0:
180,104,208780,1,0,0:0:0:0:
180,104,208973,1,2,0:0:0:0:
174,196,209167,2,0,L|91:199,1,82.5000025177003,8|0,0:0|0:0,0:0:0:0:
256,237,209554,6,0,P|264:196|256:156,1,82.5000025177003,4|0,0:0|0:0,0:0:0:0:
184,292,209941,1,8,0:0:0:0:
268,328,210134,2,0,P|344:295|424:316,1,165.000005035401,2|2,0:0|0:0,0:0:0:0:
492,204,210715,2,0,L|408:212,1,82.5000025177003,8|0,0:0|0:0,0:0:0:0:
320,192,211102,6,0,P|298:137|312:76,2,123.75000377655,4|4|4,0:3|0:3|0:3,0:0:0:0:
392,132,211876,2,0,B|432:144|472:112|513:125,2,123.75000377655,4|4|0,0:3|0:3|0:0,0:0:0:0:
236,40,212651,5,4,0:0:0:0:
236,40,213812,2,0,L|232:84,1,37.5,2|2,0:0|0:0,0:0:0:0:
260,108,214005,2,0,L|264:152,1,37.5,2|2,0:0|0:0,0:0:0:0:
248,184,214199,6,0,B|176:208|176:208|98:172,1,150,4|8,0:0|0:0,0:0:0:0:
188,292,214780,2,0,B|260:268|260:268|337:303,1,150,2|2,0:0|0:0,0:0:0:0:
388,368,215360,1,10,0:0:0:0:
388,368,215554,1,2,0:0:0:0:
432,288,215747,6,0,L|428:213,1,75,0|0,0:0|0:0,0:0:0:0:
388,132,216134,2,0,L|464:128,1,75,8|0,0:0|0:0,0:0:0:0:
340,208,216521,1,2,0:0:0:0:
340,208,216715,1,2,0:0:0:0:
304,80,216909,2,0,L|228:84,1,75,8|0,0:0|0:0,0:0:0:0:
148,128,217296,6,0,P|140:88|144:53,1,75,6|0,0:0|0:0,0:0:0:0:
236,168,217683,1,8,0:0:0:0:
164,220,217876,2,0,L|89:223,1,75,2|0,0:0|0:0,0:0:0:0:
288,272,218263,2,0,L|368:268,1,75,4|0,0:0|0:0,0:0:0:0:
200,308,218651,5,4,0:1:0:0:
256,192,218747,12,0,221167,0:0:0:0:
