osu file format v13

[General]
AudioFilename: 23 - Memories Last (tv-size).mp3
AudioLeadIn: 2000
PreviewTime: 52859
Countdown: 0
SampleSet: Soft
StackLeniency: 0.7
Mode: 0
LetterboxInBreaks: 0
WidescreenStoryboard: 0

[Editor]
Bookmarks: 41241
DistanceSpacing: 1.7
BeatDivisor: 4
GridSize: 4
TimelineZoom: 2

[Metadata]
Title:Memories Last (TV size.)
TitleUnicode:メモリーズ・ラスト (TV size.)
Artist:Kurosaki Maon
ArtistUnicode:黒崎真音
Creator:Haruru
Version:Insane
Source:Toaru Majutsu no Index II
Tags:a certain magical index J.C Staff ending とある魔術の禁書目録II cakip rare I've
BeatmapID:448843
BeatmapSetID:188300

[Difficulty]
HPDrainRate:7
CircleSize:4
OverallDifficulty:8
ApproachRate:9
SliderMultiplier:1.8
SliderTickRate:2

[Events]
//Background and Video events
0,0,"To_Aru_Majutsu_no_Index_Wallpaper_31cgx.jpg",0,0
Video,-170,"video (2).avi"
//Break Periods
//Storyboard Layer 0 (Background)
//Storyboard Layer 1 (Fail)
//Storyboard Layer 2 (Pass)
//Storyboard Layer 3 (Foreground)
//Storyboard Sound Samples
//Background Colour Transformations
3,100,163,162,255

[TimingPoints]
-377,346.820809248555,4,2,7,35,1,0
490,-111.111111111111,4,2,1,35,0,0
6559,-111.111111111111,4,2,7,35,0,0
7079,-111.111111111111,4,2,1,35,0,0
9333,-133.333333333333,4,2,7,25,0,0
9680,-133.333333333333,4,2,7,35,0,0
10201,-133.333333333333,4,2,7,25,0,0
10721,-111.111111111111,4,2,7,25,0,0
10894,-111.111111111111,4,2,7,35,0,0
12108,-100,4,2,7,50,0,0
18351,-100,4,2,4,50,0,0
18524,-100,4,2,7,50,0,0
21125,-100,4,2,4,50,0,0
21299,-100,4,2,7,50,0,0
22859,-100,4,1,1,40,0,0
23206,-111.111111111111,4,2,7,50,0,0
32224,-111.111111111111,4,2,4,50,0,0
32397,-111.111111111111,4,2,7,50,0,0
33784,-111.111111111111,4,1,1,35,0,0
34305,-111.111111111111,4,2,7,50,0,0
37773,-111.111111111111,4,2,4,50,0,0
37946,-111.111111111111,4,2,7,50,0,0
39160,-111.111111111111,4,1,1,35,0,0
39854,-111.111111111111,4,2,7,50,0,0
42108,-200,4,2,7,50,0,0
42628,-111.111111111111,4,2,7,60,0,0
43842,-111.111111111111,4,2,7,50,0,0
45056,-111.111111111111,4,2,7,40,0,0
45143,-111.111111111111,4,2,7,20,0,0
45229,-111.111111111111,4,2,7,30,0,0
45316,-111.111111111111,4,2,7,40,0,0
45403,-100,4,2,7,65,0,0
50952,-133.333333333333,4,2,7,35,0,0
52339,-133.333333333333,4,2,7,60,0,0
53727,-90.9090909090909,4,2,7,60,0,1
57195,-90.9090909090909,4,2,4,60,0,1
57368,-90.9090909090909,4,2,7,60,0,1
61530,-90.9090909090909,4,2,4,60,0,1
61703,-90.9090909090909,4,2,7,60,0,1
61877,-90.9090909090909,4,2,4,60,0,1
62044,-90.9090909090909,4,2,7,60,0,1
68813,-90.9090909090909,4,1,5,60,0,1
69333,-90.9090909090909,4,2,7,60,0,1
69680,-90.9090909090909,4,1,1,40,0,1
70374,-90.9090909090909,4,2,7,60,0,1
74189,-90.9090909090909,4,2,3,60,0,1
74362,-90.9090909090909,4,2,7,60,0,1
75923,-133.333333333333,4,2,7,45,0,0
81472,-100,4,2,7,45,0,0
81819,-200,4,2,7,45,0,0
86675,-200,4,1,1,45,0,0
86761,-200,4,1,1,40,0,0
87715,-100,4,2,7,40,0,0
89102,-100,4,2,7,20,0,0
90143,-100,4,2,7,10,0,0

[Colours]
Combo1 : 205,204,152
Combo2 : 130,156,189
Combo3 : 182,158,199

[HitObjects]
172,240,490,5,0,0:0:0:0:
168,132,663,1,2,0:0:0:0:
264,184,836,1,0,0:0:0:0:
77,189,1010,5,2,0:0:0:0:
260,74,1183,1,0,0:0:0:0:
266,292,1356,1,2,0:0:0:0:
168,132,1530,2,0,P|244:133|348:136,1,161.999995056153,2|2,0:0|0:0,0:0:0:0:
180,316,2224,6,0,P|112:304|88:208,1,161.999995056153,2|0,0:0|0:0,0:0:0:0:
200,84,2744,2,0,P|246:81|304:80,1,80.9999975280763,2|0,0:0|0:0,0:0:0:0:
348,252,3091,2,0,P|301:254|244:256,1,80.9999975280763,2|0,0:0|0:0,0:0:0:0:
376,44,3438,2,0,P|422:41|480:40,1,80.9999975280763,2|0,0:0|0:0,0:0:0:0:
420,184,3784,5,2,0:0:0:0:
260,88,3958,1,0,0:0:0:0:
260,88,4044,1,2,0:0:0:0:
260,88,4131,1,0,0:0:0:0:
296,313,4305,2,0,P|372:329|424:272,1,161.999995056153,2|2,0:0|0:0,0:0:0:0:
88,128,4998,6,0,P|137:60|232:64,1,161.999995056153,2|0,0:0|0:0,0:0:0:0:
428,172,5518,1,2,0:0:0:0:
376,40,5692,1,0,0:0:0:0:
324,248,5865,5,0,0:0:0:0:
376,116,6039,1,2,0:0:0:0:
428,336,6212,1,2,0:0:0:0:
376,192,6386,1,2,0:0:0:0:
268,300,6559,6,0,P|225:290|152:280,1,80.9999975280763,2|2,0:0|0:0,0:0:0:0:
96,52,7079,2,0,P|192:104|244:76,1,161.999995056153,2|2,0:0|0:0,0:0:0:0:
120,200,7773,6,0,P|202:203|292:212,1,161.999995056153,2|2,0:0|0:0,0:0:0:0:
412,232,8293,1,2,0:0:0:0:
364,112,8466,1,0,0:0:0:0:
432,236,8640,5,2,0:0:0:0:
284,112,8813,1,0,0:0:0:0:
276,252,8987,1,2,0:0:0:0:
344,52,9160,1,0,0:0:0:0:
448,324,9333,6,0,P|406:322|360:316,1,67.5000025749208,8|0,0:0|0:0,0:0:0:0:
240,288,9680,1,0,0:0:0:0:
240,288,9854,1,0,0:0:0:0:
240,288,10027,1,0,0:0:0:0:
396,184,10201,2,0,P|364:240|404:324,1,135.000005149842,2|0,0:0|0:0,0:0:0:0:
464,104,10721,6,0,L|356:96,1,80.9999975280763,8|0,0:0|0:0,0:0:0:0:
368,76,10981,2,0,L|372:44,2,20.2499993820191,0|0|0,0:0|0:0|0:0,0:0:0:0:
332,260,11241,5,2,0:0:0:0:
248,64,11414,1,0,0:0:0:0:
248,64,11500,1,0,0:0:0:0:
248,64,11587,1,0,0:0:0:0:
420,248,11761,5,8,0:0:0:0:
419,288,11847,1,0,0:0:0:0:
401,324,11934,1,0,0:0:0:0:
369,348,12021,1,0,0:0:0:0:
330,356,12108,6,0,P|278:353|232:352,1,90,6|0,0:0|0:0,0:0:0:0:
172,184,12455,1,8,0:0:0:0:
412,240,12628,2,0,P|362:237|292:236,1,90,0|2,0:0|0:0,0:0:0:0:
408,32,12975,2,0,P|410:84|412:132,1,90,2|8,0:0|0:0,0:0:0:0:
240,192,13322,6,0,P|148:186|62:178,1,180,2|2,0:0|0:0,0:0:0:0:
152,80,13842,2,0,L|260:88,1,90,8|0,0:0|0:0,0:0:0:0:
140,296,14189,2,0,L|32:289,1,90,8|0,0:0|0:0,0:0:0:0:
404,161,14536,1,8,0:0:0:0:
413,204,14622,1,0,0:0:0:0:
400,246,14709,1,0,0:0:0:0:
368,276,14796,1,0,0:0:0:0:
324,296,14883,6,0,P|274:282|216:262,1,90,2|0,0:0|0:0,0:0:0:0:
152,80,15229,1,8,0:0:0:0:
316,200,15403,2,0,P|318:246|320:316,1,90,0|2,0:0|0:0,0:0:0:0:
232,120,15750,2,0,P|229:73|228:3,1,90,2|8,0:0|0:0,0:0:0:0:
396,332,16096,6,0,P|322:377|249:333,1,180,2|2,0:0|0:0,0:0:0:0:
204,184,16617,1,8,0:0:0:0:
336,104,16790,1,2,0:0:0:0:
296,336,16964,1,8,0:0:0:0:
288,184,17137,1,2,0:0:0:0:
442,290,17310,1,8,0:0:0:0:
428,332,17396,1,0,0:0:0:0:
391,357,17483,1,0,0:0:0:0:
347,359,17570,1,0,0:0:0:0:
311,350,17657,6,0,P|312:292|312:236,1,90,6|0,0:0|0:0,0:0:0:0:
384,72,18004,1,8,0:0:0:0:
312,260,18177,2,0,P|256:295|192:282,1,135
179,276,18524,2,0,L|167:186,1,90,2|8,0:0|0:0,0:0:0:0:
324,100,18871,6,0,P|352:224|296:268,1,180,2|2,0:0|0:0,0:0:0:0:
120,96,19391,2,0,P|168:93|252:92,1,90,8|2,0:0|0:0,0:0:0:0:
324,252,19738,2,0,P|275:254|191:255,1,90,8|2,0:0|0:0,0:0:0:0:
306,32,20085,1,8,0:0:0:0:
337,64,20171,1,0,0:0:0:0:
344,108,20258,1,0,0:0:0:0:
326,148,20345,1,0,0:0:0:0:
301,173,20432,6,0,P|348:173|412:176,1,90,6|0,0:0|0:0,0:0:0:0:
444,40,20779,1,8,0:0:0:0:
240,264,20952,2,0,P|272:320|336:334,1,135,0|0,0:0|0:0,0:0:0:0:
356,324,21299,2,0,L|445:320,1,90,2|8,0:0|0:0,0:0:0:0:
404,152,21646,6,0,P|342:222|252:163,1,180,6|2,0:0|0:0,0:0:0:0:
164,104,22166,1,8,0:0:0:0:
260,24,22339,1,2,0:0:0:0:
164,220,22513,1,8,0:0:0:0:
60,36,22686,1,2,0:0:0:0:
264,160,22859,1,0,0:0:0:0:
264,160,22946,1,0,0:0:0:0:
264,160,23033,1,0,0:0:0:0:
264,160,23120,1,0,0:0:0:0:
264,160,23206,6,0,P|268:210|272:268,1,80.9999975280763,2|0,0:0|0:0,0:0:0:0:
200,340,23553,1,8,0:0:0:0:
140,232,23727,1,0,0:0:0:0:
200,340,23900,2,0,P|246:341|292:344,1,80.9999975280763,2|2,0:0|0:0,0:0:0:0:
404,352,24247,1,8,0:0:0:0:
344,244,24420,6,0,P|336:168|384:128,1,121.499996292114
384,120,24767,2,0,P|336:117|292:116,1,80.9999975280763,2|8,0:0|0:0,0:0:0:0:
196,288,25114,2,0,P|244:290|288:291,1,80.9999975280763,0|2,0:0|0:0,0:0:0:0:
280,112,25461,2,0,P|280:158|284:208,1,80.9999975280763,2|8,0:0|0:0,0:0:0:0:
320,308,25807,1,2,0:0:0:0:
480,216,25981,6,0,P|436:217|376:220,1,80.9999975280763,2|0,0:0|0:0,0:0:0:0:
264,336,26328,2,0,P|284:297|312:243,1,80.9999975280763,8|0,0:0|0:0,0:0:0:0:
268,92,26675,2,0,P|291:128|323:180,1,80.9999975280763,2|2,0:0|0:0,0:0:0:0:
384,260,27021,1,8,0:0:0:0:
191,123,27195,6,0,P|197:46|263:5,1,161.999995056153,0|2,0:0|0:0,0:0:0:0:
444,80,27715,1,8,0:0:0:0:
304,280,27888,2,0,P|306:235|312:192,1,80.9999975280763,0|2,0:0|0:0,0:0:0:0:
444,80,28235,2,0,P|441:124|436:168,1,80.9999975280763,2|8,0:0|0:0,0:0:0:0:
416,280,28582,1,0,0:0:0:0:
340,148,28755,6,0,P|284:144|240:144,1,80.9999975280763,2|0,0:0|0:0,0:0:0:0:
140,160,29102,1,8,0:0:0:0:
164,356,29276,2,0,P|162:311|156:256,1,80.9999975280763,0|2,0:0|0:0,0:0:0:0:
140,160,29623,1,2,0:0:0:0:
220,68,29796,1,8,0:0:0:0:
252,268,29969,6,0,P|201:255|181:135,1,161.999995056153,0|2,0:0|0:0,0:0:0:0:
388,68,30490,2,0,P|391:113|392:164,1,80.9999975280763,8|0,0:0|0:0,0:0:0:0:
376,268,30836,1,2,0:0:0:0:
280,196,31010,1,2,0:0:0:0:
376,268,31183,2,0,P|377:313|376:376,1,80.9999975280763,8|2,0:0|0:0,0:0:0:0:
200,220,31530,6,0,P|220:144|320:128,1,161.999995056153,6|8,0:0|0:0,0:0:0:0:
436,320,32050,2,0,P|372:348|300:264,1,161.999995056153,0|2,0:0|0:0,0:0:0:0:
300,176,32570,1,8,0:0:0:0:
344,64,32744,1,0,0:0:0:0:
372,272,32917,5,8,0:0:0:0:
220,80,33091,1,8,0:0:0:0:
252,288,33264,1,8,0:0:0:0:
344,64,33438,1,2,0:0:0:0:
424,160,33611,1,2,0:0:0:0:
176,188,33784,5,0,0:0:0:0:
149,218,33870,1,0,0:0:0:0:
138,256,33957,1,0,0:0:0:0:
145,296,34044,1,0,0:0:0:0:
168,329,34130,1,0,0:0:0:0:
203,348,34217,1,0,0:0:0:0:
243,350,34305,6,0,P|288:352|352:356,1,80.9999975280763,4|0,0:0|0:0,0:0:0:0:
364,128,34651,1,8,0:0:0:0:
424,252,34825,2,0,P|376:268|268:212,1,161.999995056153,2|2,0:0|0:0,0:0:0:0:
228,100,35345,1,8,0:0:0:0:
440,72,35518,6,0,P|452:152|380:220,1,161.999995056153,2|2,0:0|0:0,0:0:0:0:
276,160,36039,1,8,0:0:0:0:
352,336,36212,1,2,0:0:0:0:
176,232,36386,1,8,0:0:0:0:
260,40,36559,1,2,0:0:0:0:
392,196,36732,2,0,L|416:296,1,80.9999975280763,8|2,0:0|0:0,0:0:0:0:
192,152,37079,6,0,P|189:113|188:64,1,80.9999975280763,2|0,0:0|0:0,0:0:0:0:
312,220,37426,1,8,0:0:0:0:
192,292,37599,2,0,P|96:240|100:168,1,161.999995056153,0|2,0:0|0:0,0:0:0:0:
256,44,38120,1,8,0:0:0:0:
336,212,38293,6,0,P|247:209|144:204,1,161.999995056153,2|0,0:0|0:0,0:0:0:0:
416,160,38813,2,0,P|432:204|412:268,1,80.9999975280763,8|0,0:0|0:0,0:0:0:0:
256,200,39160,5,0,0:0:0:0:
293,185,39246,1,0,0:0:0:0:
321,156,39333,1,0,0:0:0:0:
334,118,39420,1,0,0:0:0:0:
331,78,39506,1,0,0:0:0:0:
311,43,39593,1,0,0:0:0:0:
278,20,39680,1,0,0:0:0:0:
238,12,39766,1,0,0:0:0:0:
199,22,39853,5,8,0:0:0:0:
136,208,40027,1,8,0:0:0:0:
392,176,40201,1,8,0:0:0:0:
392,176,40547,6,0,P|396:221|400:280,1,80.9999975280763,8|2,0:0|0:0,0:0:0:0:
312,364,40894,1,8,0:0:0:0:
308,136,41068,2,0,P|404:88|468:136,1,161.999995056153,2|2,0:0|0:0,0:0:0:0:
316,224,41588,2,0,P|266:219|208:216,1,80.9999975280763,8|2,0:0|0:0,0:0:0:0:
96,212,41935,1,8,0:0:0:0:
248,48,42108,6,0,L|248:144,1,90,2|2,0:0|0:0,0:0:0:0:
248,276,42628,5,8,0:0:0:0:
168,84,42802,1,8,0:0:0:0:
376,216,42975,1,8,0:0:0:0:
376,216,43322,6,0,P|373:261|372:320,1,80.9999975280763,8|2,0:0|0:0,0:0:0:0:
308,132,43669,1,8,0:0:0:0:
448,320,43842,2,0,P|388:380|300:336,1,161.999995056153,2|2,0:0|0:0,0:0:0:0:
272,232,44362,2,0,P|312:229|368:228,1,80.9999975280763,8|2,0:0|0:0,0:0:0:0:
416,92,44709,6,0,P|375:94|320:96,1,80.9999975280763,8|2,0:0|0:0,0:0:0:0:
184,188,45056,2,0,L|180:208,7,20.2499993820191,8|0|0|0|0|0|0|0,0:0|0:0|0:0|0:0|0:0|0:0|0:0|0:0,0:0:0:0:
184,188,45403,6,0,P|181:140|180:92,1,90,6|0,0:0|0:0,0:0:0:0:
340,192,45750,2,0,P|343:239|343:288,1,90,8|0,0:0|0:0,0:0:0:0:
224,136,46096,1,2,0:0:0:0:
424,68,46270,2,0,P|372:64|328:64,1,90,2|8,0:0|0:0,0:0:0:0:
156,196,46617,6,0,P|240:224|304:160,1,180,2|2,0:0|0:0,0:0:0:0:
212,56,47137,1,8,0:0:0:0:
264,264,47310,1,2,0:0:0:0:
344,144,47484,2,0,P|345:99|348:48,1,90,2|2,0:0|0:0,0:0:0:0:
416,260,47831,2,0,L|308:260,1,90,8|2,0:0|0:0,0:0:0:0:
132,80,48177,6,0,P|196:140|280:100,1,180,6|8,0:0|0:0,0:0:0:0:
388,20,48698,2,0,P|434:24|488:32,1,90,0|2,0:0|0:0,0:0:0:0:
296,140,49044,2,0,P|292:88|292:36,1,90,2|8,0:0|0:0,0:0:0:0:
480,300,49391,6,0,P|420:340|336:264,1,180,6|2,0:0|0:0,0:0:0:0:
420,172,49912,2,0,P|417:220|412:276,1,90,8|2,0:0|0:0,0:0:0:0:
308,356,50258,1,8,0:0:0:0:
256,172,50432,1,2,0:0:0:0:
440,92,50605,1,8,0:0:0:0:
440,92,50692,1,0,0:0:0:0:
440,92,50779,1,0,0:0:0:0:
440,92,50865,1,0,0:0:0:0:
440,92,50952,6,0,L|456:180,1,67.5000025749208
468,264,51299,1,8,0:0:0:0:
416,356,51472,2,0,P|360:288|380:220,1,135.000005149842,0|8,0:0|0:0,0:0:0:0:
400,132,51992,2,0,P|343:129|272:128,1,101.250003862381
184,92,52339,5,2,0:0:0:0:
400,132,52513,1,2,0:0:0:0:
360,348,52686,1,2,0:0:0:0:
144,308,52859,1,2,0:0:0:0:
144,308,53553,6,0,L|128:268,1,33.7500012874604
92,196,53727,6,0,P|168:240|264:160,1,198.000006042481,6|8,0:0|0:0,0:0:0:0:
292,32,54247,1,0,0:0:0:0:
212,248,54420,2,0,P|213:191|216:136,1,99.0000030212403,2|2,0:0|0:0,0:0:0:0:
352,232,54767,1,8,0:0:0:0:
132,184,54940,6,0,P|132:108|256:72,1,198.000006042481,2|2,0:0|0:0,0:0:0:0:
288,288,55461,2,0,P|236:291|184:292,1,99.0000030212403,8|2,0:0|0:0,0:0:0:0:
64,196,55807,1,0,0:0:0:0:
124,344,55981,1,2,0:0:0:0:
200,136,56154,2,0,P|252:139|308:144,1,99.0000030212403,8|2,0:0|0:0,0:0:0:0:
328,360,56501,6,0,P|264:368|208:260,1,198.000006042481,2|8,0:0|0:0,0:0:0:0:
412,76,57021,2,0,P|432:148|368:224,1,148.50000453186
306,268,57368,2,0,P|251:266|206:264,1,99.0000030212403,2|8,0:0|0:0,0:0:0:0:
84,104,57715,6,0,P|185:105|284:108,1,198.000006042481,2|2,0:0|0:0,0:0:0:0:
140,188,58235,2,0,P|88:185|32:184,1,99.0000030212403,8|2,0:0|0:0,0:0:0:0:
216,28,58582,2,0,P|267:30|324:32,1,99.0000030212403,0|2,0:0|0:0,0:0:0:0:
444,172,58929,1,8,0:0:0:0:
256,292,59102,1,2,0:0:0:0:
256,292,59189,1,0,0:0:0:0:
256,292,59276,6,0,P|253:239|252:184,1,99.0000030212403,6|0,0:0|0:0,0:0:0:0:
316,36,59623,1,8,0:0:0:0:
164,200,59796,1,0,0:0:0:0:
148,32,59969,1,2,0:0:0:0:
372,128,60143,1,2,0:0:0:0:
328,296,60316,1,8,0:0:0:0:
284,120,60490,6,0,P|360:40|432:68,1,198.000006042481,2|2,0:0|0:0,0:0:0:0:
476,228,61010,2,0,P|423:227|368:224,1,99.0000030212403,8|0,0:0|0:0,0:0:0:0:
160,196,61357,2,0,P|152:96|256:56,2,198.000006042481,0|8|6,0:0|0:0|0:0,0:0:0:0:
316,232,62224,5,0,0:0:0:0:
233,139,62397,1,8,0:0:0:0:
160,304,62570,2,0,P|210:306|264:308,1,99.0000030212403,0|2,0:0|0:0,0:0:0:0:
380,108,62917,2,0,P|381:170|384:228,1,99.0000030212403,2|8,0:0|0:0,0:0:0:0:
184,100,63264,6,0,P|216:12|316:8,1,198.000006042481,2|2,0:0|0:0,0:0:0:0:
296,196,63784,1,12,0:0:0:0:
160,112,63958,1,2,0:0:0:0:
420,88,64131,1,8,0:0:0:0:
452,244,64305,1,2,0:0:0:0:
296,196,64478,5,8,0:0:0:0:
247,195,64564,1,0,0:0:0:0:
208,224,64651,1,2,0:0:0:0:
196,271,64738,1,0,0:0:0:0:
215,316,64825,6,0,P|316:316|432:320,2,198.000006042481,6|8|2,0:0|0:0|0:0,0:0:0:0:
56,328,65692,1,2,0:0:0:0:
144,140,65865,1,8,0:0:0:0:
16,240,66039,6,0,P|0:183|104:80,1,198.000006042481,2|2,0:0|0:0,0:0:0:0:
255,113,66559,2,0,P|252:178|251:253,1,99.0000030212403,8|2,0:0|0:0,0:0:0:0:
396,120,66906,2,0,P|398:69|400:16,1,99.0000030212403,0|2,0:0|0:0,0:0:0:0:
464,176,67253,1,8,0:0:0:0:
328,80,67426,1,2,0:0:0:0:
316,277,67599,6,0,P|398:321|464:256,1,198.000006042481,2|0,0:0|0:0,0:0:0:0:
204,64,68120,6,0,L|216:236,1,148.50000453186,10|0,0:0|0:0,0:0:0:0:
224,324,68466,2,0,P|320:280|320:220,1,148.50000453186,10|0,0:0|0:0,0:0:0:0:
296,136,68813,6,0,L|508:132,1,198.000006042481,6|2,0:0|0:0,0:0:0:0:
400,260,69333,1,8,0:0:0:0:
416,44,69507,1,2,0:0:0:0:
480,256,69680,5,0,0:0:0:0:
475,286,69766,1,0,0:0:0:0:
459,312,69853,1,0,0:0:0:0:
435,331,69940,1,0,0:0:0:0:
405,339,70026,1,0,0:0:0:0:
375,336,70113,1,0,0:0:0:0:
348,321,70200,1,0,0:0:0:0:
329,297,70286,1,0,0:0:0:0:
320,268,70374,6,0,P|322:218|324:164,1,99.0000030212403,6|0,0:0|0:0,0:0:0:0:
312,12,70721,1,8,0:0:0:0:
240,192,70894,1,0,0:0:0:0:
216,48,71068,1,2,0:0:0:0:
444,60,71241,1,2,0:0:0:0:
408,212,71414,1,8,0:0:0:0:
296,344,71588,6,0,P|239:269|290:191,1,198.000006042481,2|2,0:0|0:0,0:0:0:0:
452,220,72108,2,0,P|451:171|448:92,1,99.0000030212403,8|2,0:0|0:0,0:0:0:0:
292,220,72455,2,0,P|292:277|296:324,1,99.0000030212403,0|2,0:0|0:0,0:0:0:0:
388,164,72802,1,8,0:0:0:0:
414,123,72888,1,0,0:0:0:0:
410,74,72975,1,2,0:0:0:0:
378,39,73062,1,0,0:0:0:0:
330,30,73149,6,0,P|275:32|208:32,1,99.0000030212403,2|0,0:0|0:0,0:0:0:0:
112,136,73495,1,8,0:0:0:0:
264,288,73669,2,0,L|260:168,1,99.0000030212403,0|2,0:0|0:0,0:0:0:0:
176,276,74016,2,0,P|212:368|272:380,1,148.50000453186,2|0,0:0|0:0,0:0:0:0:
272,368,74362,6,0,P|325:367|372:364,1,99.0000030212403,2|0,0:0|0:0,0:0:0:0:
472,244,74709,1,2,0:0:0:0:
268,112,74883,2,0,P|269:165|272:216,1,99.0000030212403,8|2,0:0|0:0,0:0:0:0:
416,152,75229,2,0,P|414:98|412:47,1,99.0000030212403,8|2,0:0|0:0,0:0:0:0:
224,240,75576,1,8,0:0:0:0:
227,251,75662,1,2,0:0:0:0:
231,263,75749,1,2,0:0:0:0:
234,275,75836,1,2,0:0:0:0:
238,287,75923,6,0,P|278:290|312:292,1,67.5000025749208,6|0,0:0|0:0,0:0:0:0:
224,148,76270,2,0,P|201:174|180:204,1,67.5000025749208
352,160,76617,2,0,P|360:100|284:40,1,135.000005149842,8|8,0:0|0:0,0:0:0:0:
144,100,77137,2,0,L|148:244,1,135.000005149842,2|0,0:0|0:0,0:0:0:0:
152,344,77657,1,2,0:0:0:0:
152,344,78004,6,0,L|240:344,1,67.5000025749208,8|0,0:0|0:0,0:0:0:0:
224,240,78351,2,0,L|312:240,1,67.5000025749208
244,336,78698,6,0,P|152:308|140:188,1,202.500007724762,6|2,0:0|0:0,0:0:0:0:
204,136,79391,2,0,P|282:130|356:128,1,135.000005149842,8|8,0:0|0:0,0:0:0:0:
448,132,79912,1,2,0:0:0:0:
395,291,80085,6,0,P|393:257|392:224,1,67.5000025749208
384,116,80432,1,2,0:0:0:0:
232,212,80605,2,0,P|278:189|316:168,1,67.5000025749208,0|8,0:0|0:0,0:0:0:0:
380,52,80952,1,8,0:0:0:0:
212,100,81125,1,2,0:0:0:0:
344,216,81299,1,2,0:0:0:0:
272,24,81472,5,8,0:0:0:0:
252,300,81646,1,8,0:0:0:0:
140,176,81819,2,0,L|200:168,1,45,2|2,0:0|0:0,0:0:0:0:
340,144,82513,5,8,0:0:0:0:
168,68,82686,1,8,0:0:0:0:
272,256,82859,2,0,L|276:316,2,45,2|2|2,0:0|0:0|0:0,0:0:0:0:
196,112,83380,5,8,0:0:0:0:
448,88,83553,1,8,0:0:0:0:
276,300,83727,1,8,0:0:0:0:
352,144,83900,2,0,L|408:136,1,45,2|2,0:0|0:0,0:0:0:0:
284,28,84247,5,8,0:0:0:0:
176,256,84420,1,8,0:0:0:0:
127,104,84594,2,0,L|172:104,1,45,2|2,0:0|0:0,0:0:0:0:
368,84,85287,5,8,0:0:0:0:
436,240,85460,1,8,0:0:0:0:
148,156,85807,1,2,0:0:0:0:
428,108,86154,5,8,0:0:0:0:
312,28,86328,1,8,0:0:0:0:
308,212,86501,1,8,0:0:0:0:
444,28,86675,5,0,0:0:0:0:
421,28,86761,1,0,0:0:0:0:
399,29,86848,1,0,0:0:0:0:
376,30,86935,1,0,0:0:0:0:
354,31,87021,1,0,0:0:0:0:
256,192,87108,12,0,90143,0:0:0:0:
