osu file format v13

[General]
AudioFilename: 23 - Memories Last (tv-size).mp3
AudioLeadIn: 2000
PreviewTime: 52773
Countdown: 0
SampleSet: Soft
StackLeniency: 0.7
Mode: 0
LetterboxInBreaks: 0
WidescreenStoryboard: 0

[Editor]
DistanceSpacing: 0.5
BeatDivisor: 4
GridSize: 16
TimelineZoom: 2

[Metadata]
Title:Memories Last (TV Size)
TitleUnicode:メモリーズ・ラスト (TV Size)
Artist:Kurosaki Maon
ArtistUnicode:黒崎 真音
Creator:xChippy
Version:Insane
Source:とある魔术の禁书目録Ⅱ
Tags:a certain magical index J.C Staff Amamiya Yuko mintong89 Oyatsu Skystar ending Toaru Majutsu no Index II Mintong
BeatmapID:304303
BeatmapSetID:118362

[Difficulty]
HPDrainRate:7
CircleSize:4
OverallDifficulty:8
ApproachRate:9
SliderMultiplier:1.4
SliderTickRate:1

[Events]
//Background and Video events
0,0,"To_Aru_Majutsu_no_Index_Wallpaper_31cgx.jpg",0,0
Video,-170,"video (2).avi"
//Break Periods
//Storyboard Layer 0 (Background)
//Storyboard Layer 1 (Fail)
//Storyboard Layer 2 (Pass)
//Storyboard Layer 3 (Foreground)
//Storyboard Sound Samples
//Background Colour Transformations
3,100,163,162,255

[TimingPoints]
-377,346.820809248555,4,2,1,35,1,0
1010,-125,4,2,1,35,0,0
12108,-100,4,2,1,50,0,0
23206,-100,4,2,1,40,0,0
39160,-100,4,2,1,35,0,0
39854,-100,4,2,1,60,0,0
45403,-100,4,2,1,65,0,0
51299,-133.333333333333,4,2,1,40,0,0
52339,-133.333333333333,4,2,1,80,0,0
53727,-83.3333333333333,4,2,1,80,0,1
64478,-66.6666666666667,4,2,1,80,0,1
64825,-83.3333333333333,4,2,1,80,0,1
75923,-100,4,2,1,80,0,0
81472,-100,4,2,1,60,0,0
86761,-100,4,2,1,40,0,0
87715,-100,4,2,1,30,0,0
88409,-100,4,2,1,20,0,0
89102,-100,4,2,1,10,0,0
89796,-100,4,2,1,5,0,0
90316,-100,4,2,1,5,0,0

[Colours]
Combo1 : 205,204,152
Combo2 : 130,156,189
Combo3 : 182,158,199

[HitObjects]
328,88,490,5,0,0:0:0:0:
304,176,663,1,2,0:0:0:0:
272,272,836,1,0,0:0:0:0:
176,128,1010,5,2,0:0:0:0:
272,272,1183,1,0,0:0:0:0:
256,64,1357,1,0,0:0:0:0:
352,240,1530,2,0,L|480:256,1,112,2|2,0:0|0:0,0:0:0:0:
224,336,2224,6,0,L|104:320,1,112,2|0,0:0|0:0,0:0:0:0:
0,228,2744,1,2,0:0:0:0:
80,128,2917,1,0,0:0:0:0:
145,252,3091,5,2,0:0:0:0:
81,94,3264,1,0,0:0:0:0:
10,198,3438,5,2,0:0:0:0:
80,64,3611,1,0,0:0:0:0:
154,288,3784,6,0,P|206:293|265:271,1,112,2|0,0:0|0:0,0:0:0:0:
198,88,4305,2,0,P|195:143|200:199,1,112,2|2,0:0|0:0,0:0:0:0:
479,159,4998,6,0,P|449:113|405:78,1,112,2|0,0:0|0:0,0:0:0:0:
304,32,5518,1,2,0:0:0:0:
320,128,5692,1,0,0:0:0:0:
208,240,5865,5,2,0:0:0:0:
176,112,6039,1,0,0:0:0:0:
192,256,6212,5,2,0:0:0:0:
192,96,6386,1,0,0:0:0:0:
256,336,6559,5,0,1:0:0:0:
320,128,6732,1,0,1:0:0:0:
255,192,6906,1,2,0:0:0:0:
200,56,7079,2,0,P|136:56|80:64,1,112,2|2,0:0|0:0,0:0:0:0:
0,256,7773,6,0,P|55:254|111:247,1,112,2|0,0:0|0:0,0:0:0:0:
255,192,8293,1,2,0:0:0:0:
111,249,8466,1,0,0:0:0:0:
224,352,8640,1,2,0:0:0:0:
191,156,8813,5,0,0:0:0:0:
102,302,8986,1,2,0:0:0:0:
267,329,9160,1,0,0:0:0:0:
365,200,9333,6,0,P|310:192|254:192,1,112,2|0,0:0|0:0,0:0:0:0:
144,96,9854,1,0,0:0:0:0:
144,96,10027,2,0,L|134:25,1,56,2|0,0:0|0:0,0:0:0:0:
241,139,10374,2,0,P|278:144|323:144,1,56,0|0,3:2|3:2,0:0:0:0:
416,64,10721,5,0,3:0:0:0:
352,256,10894,1,0,0:0:0:0:
347,236,10981,1,0,3:2:0:0:
341,217,11068,1,0,3:0:0:0:
182,286,11241,1,0,3:0:0:0:
164,294,11328,1,0,0:0:0:0:
145,299,11414,1,0,3:0:0:0:
127,307,11501,1,0,0:0:0:0:
33,242,11588,6,0,L|49:290,1,28,2|0,0:0|0:0,0:0:0:0:
163,165,11761,2,0,L|157:205,1,28,8|0,0:0|0:0,0:0:0:0:
27,110,11935,2,0,L|23:159,1,28,2|0,0:0|0:0,0:0:0:0:
160,45,12108,6,0,P|226:23|310:50,1,140,4|8,0:0|0:0,0:0:0:0:
339,209,12628,2,0,P|272:229|204:213,1,140,2|2,0:0|0:0,0:0:0:0:
84,142,13149,2,0,L|165:123,1,70,8|2,0:0|0:0,0:0:0:0:
240,80,13495,5,0,0:0:0:0:
160,16,13669,1,0,0:0:0:0:
160,208,13842,2,0,L|240:216,1,70,8|0,0:0|0:0,0:0:0:0:
384,264,14189,2,0,L|304:272,1,70,8|0,0:0|0:0,0:0:0:0:
416,160,14536,2,0,L|496:168,1,70,8|0,0:0|0:0,0:0:0:0:
472,288,14883,6,0,P|423:344|331:340,1,140,4|8,0:0|0:0,0:0:0:0:
251,301,15403,1,2,0:0:0:0:
120,352,15576,1,0,0:0:0:0:
40,224,15750,1,2,0:0:0:0:
206,214,15923,1,8,0:0:0:0:
32,312,16096,1,2,0:0:0:0:
128,200,16270,6,0,L|120:288,1,70,0|0,0:0|0:0,0:0:0:0:
72,136,16617,2,0,L|78:66,1,70,10|0,0:0|0:0,0:0:0:0:
199,144,16964,2,0,L|206:214,1,70,2|0,0:0|0:0,0:0:0:0:
304,112,17310,2,0,L|312:24,1,70,10|0,0:0|0:0,0:0:0:0:
468,162,17657,6,0,P|412:208|341:220,1,140,4|8,0:0|0:0,0:0:0:0:
255,220,18177,1,2,0:0:0:0:
128,152,18351,1,0,0:0:0:0:
80,296,18524,1,2,0:0:0:0:
32,128,18698,1,8,0:0:0:0:
80,296,18871,6,0,L|95:376,1,70,2|0,0:0|0:0,0:0:0:0:
0,216,19218,1,0,0:0:0:0:
80,296,19391,2,0,L|160:304,1,70,10|0,0:0|0:0,0:0:0:0:
320,360,19738,2,0,L|251:368,1,70,10|0,0:0|0:0,0:0:0:0:
400,272,20085,2,0,L|469:265,1,70,10|0,0:0|0:0,0:0:0:0:
448,88,20432,6,0,P|378:80|308:79,1,140,4|8,0:0|0:0,0:0:0:0:
216,96,20952,1,2,0:0:0:0:
208,240,21125,1,0,0:0:0:0:
128,96,21299,1,2,0:0:0:0:
304,208,21472,1,8,0:0:0:0:
64,152,21646,6,0,P|8:184|-8:216,1,70,4|0,1:0|0:0,0:0:0:0:
72,272,21992,1,8,0:3:0:0:
80,352,22166,1,8,0:3:0:0:
208,240,22339,1,8,0:3:0:0:
200,160,22513,1,8,0:3:0:0:
312,288,22686,1,6,3:0:0:0:
403,208,22859,1,8,0:0:0:0:
427,232,22946,1,0,3:0:0:0:
440,264,23033,1,0,3:0:0:0:
433,298,23120,1,0,3:0:0:0:
408,322,23206,5,4,0:0:0:0:
312,288,23380,1,0,0:0:0:0:
160,352,23553,1,8,0:0:0:0:
208,240,23727,1,0,0:0:0:0:
272,376,23900,1,0,0:0:0:0:
208,240,24073,1,0,0:0:0:0:
72,280,24247,1,8,0:0:0:0:
0,184,24420,6,0,P|64:160|135:176,1,140,2|0,0:0|0:0,0:0:0:0:
208,240,24940,1,8,0:0:0:0:
308,248,25114,2,0,P|339:233|376:198,1,70,0|0,0:0|0:0,0:0:0:0:
416,112,25461,1,0,0:0:0:0:
264,92,25634,2,0,L|252:161,1,70,8|0,0:0|0:0,0:0:0:0:
328,24,25981,5,2,0:0:0:0:
252,161,26154,1,0,0:0:0:0:
113,120,26328,1,8,0:0:0:0:
161,209,26501,1,0,0:0:0:0:
201,64,26675,1,0,0:0:0:0:
161,209,26848,1,0,0:0:0:0:
108,16,27021,1,8,0:0:0:0:
37,181,27195,6,0,P|93:219|161:209,1,140,2|0,0:0|0:0,0:3:0:0:
257,186,27715,1,8,0:0:0:0:
264,320,27888,1,0,0:0:0:0:
352,272,28062,2,0,P|400:262|429:230,1,70,0|0,0:0|0:0,0:0:0:0:
334,128,28409,2,0,L|358:196,1,70,8|0,0:0|0:0,0:0:0:0:
288,56,28755,5,2,0:0:0:0:
257,186,28929,1,0,0:0:0:0:
93,151,29102,1,8,0:0:0:0:
144,240,29276,1,0,0:0:0:0:
182,97,29449,1,0,0:0:0:0:
144,240,29623,1,0,0:0:0:0:
256,288,29796,1,8,0:0:0:0:
144,240,29969,6,0,P|139:316|200:380,1,140,2|0,0:0|0:0,0:0:0:0:
256,288,30490,1,8,0:0:0:0:
320,376,30663,1,0,0:0:0:0:
416,328,30836,2,0,P|432:288|425:246,1,70,0|0,0:0|0:0,0:0:0:0:
372,155,31183,1,8,0:0:0:0:
273,56,31357,1,0,0:0:0:0:
213,183,31530,6,0,P|146:202|70:178,1,140,4|8,0:0|0:0,0:0:0:0:
73,93,32050,2,0,P|117:98|147:123,1,70
213,182,32397,1,0,0:0:0:0:
317,190,32571,1,8,0:0:0:0:
321,293,32744,1,0,0:0:0:0:
192,352,32917,5,0,1:0:0:0:
129,192,33091,1,0,1:0:0:0:
16,240,33264,1,0,1:0:0:0:
16,240,33438,5,0,1:0:0:0:
192,352,33611,1,0,1:0:0:0:
216,208,33784,1,0,1:0:0:0:
222,184,33871,1,0,0:0:0:0:
233,162,33958,1,0,1:0:0:0:
250,144,34044,1,0,0:0:0:0:
270,130,34131,1,0,0:0:0:0:
293,123,34218,1,0,0:0:0:0:
316,129,34305,6,0,P|332:185|300:265,1,140,4|8,0:0|0:0,0:0:0:0:
168,224,34825,2,0,P|152:156|179:93,1,140,2|0,0:0|0:0,0:0:0:0:
264,40,35344,1,8,0:0:0:0:
240,168,35518,6,0,P|344:192|392:176,1,140,2|0,0:0|0:0,0:0:0:0:
488,192,36039,2,0,P|479:135|463:111,1,70,8|0,0:0|0:0,0:0:0:0:
395,285,36386,2,0,L|464:272,1,70,8|0,0:0|0:0,0:0:0:0:
256,328,36732,2,0,L|336:344,1,70,8|0,0:0|0:0,0:0:0:0:
168,376,37079,6,0,P|153:308|205:245,1,140,2|8,0:0|0:0,0:0:0:0:
256,329,37599,1,0,0:0:0:0:
80,288,37773,2,0,L|0:272,1,70,2|0,0:0|0:0,0:0:0:0:
144,192,38120,6,0,P|183:185|224:176,2,70,8|0|2,0:0|0:0|0:0,0:0:0:0:
80,288,38640,1,0,0:0:0:0:
8,198,38813,2,0,P|6:148|24:108,1,70,8|0,0:0|0:0,0:0:0:0:
77,57,39160,1,8,0:0:0:0:
109,45,39247,1,0,0:0:0:0:
143,36,39333,1,0,0:0:0:0:
178,31,39420,1,0,0:0:0:0:
213,30,39507,1,8,0:0:0:0:
248,32,39594,1,0,0:0:0:0:
282,37,39680,1,0,0:0:0:0:
316,47,39767,1,0,0:0:0:0:
347,65,39854,5,8,0:0:0:0:
488,136,40027,1,8,0:0:0:0:
448,288,40201,1,8,0:0:0:0:
272,232,40547,5,8,0:0:0:0:
360,264,40721,1,0,0:0:0:0:
368,352,40894,1,2,0:0:0:0:
272,232,41068,6,0,P|184:272|136:264,1,140,4|0,0:0|0:0,0:0:0:0:
63,221,41588,2,0,L|56:128,1,70,8|0,0:0|0:0,0:0:0:0:
32,296,41935,2,0,L|40:384,2,70,8|0|0,0:0|0:0|0:0,0:0:0:0:
32,296,42455,1,0,0:0:0:0:
16,128,42628,5,8,0:0:0:0:
176,130,42802,1,8,0:0:0:0:
272,256,42975,1,8,0:0:0:0:
176,40,43322,5,8,0:0:0:0:
176,40,43495,2,0,L|262:53,1,70,0|2,0:0|0:0,0:0:0:0:
448,88,43842,6,0,P|404:154|332:167,1,140,4|0,0:0|0:0,0:0:0:0:
283,233,44362,2,0,P|277:284|299:329,1,70,8|0,0:0|0:0,0:0:0:0:
366,267,44709,2,0,L|434:252,1,70,8|0,0:0|0:0,0:0:0:0:
208,320,45056,2,0,L|139:334,1,70,8|0,0:0|0:0,0:0:0:0:
56,264,45403,5,4,0:0:0:0:
25,106,45576,1,0,0:0:0:0:
50,247,45750,1,8,0:0:0:0:
18,85,45923,1,0,0:0:0:0:
128,68,46096,1,0,0:0:0:0:
208,144,46270,2,0,P|240:152|288:145,1,70,0|8,0:0|0:0,0:0:0:0:
456,40,46617,6,0,P|472:112|440:176,1,140,2|0,0:0|0:0,0:0:0:0:
384,248,47137,2,0,L|296:264,1,70,8|0,0:0|0:0,0:0:0:0:
128,320,47484,2,0,L|196:332,1,70,0|0,0:0|0:0,0:0:0:0:
80,224,47831,2,0,L|11:211,1,70,8|0,0:0|0:0,0:0:0:0:
0,88,48177,6,0,P|64:64|144:94,1,140,4|8,0:0|0:0,0:0:0:0:
209,129,48698,2,0,L|305:145,2,70,0|0|0,0:0|0:0|0:0,0:0:0:0:
136,232,49218,1,8,0:0:0:0:
384,320,49391,1,2,0:0:0:0:
376,232,49912,6,0,L|392:152,1,70,8|0,0:0|0:0,0:0:0:0:
304,352,50258,2,0,L|280:256,1,70,8|0,0:0|0:0,0:0:0:0:
160,120,50605,2,0,L|144:208,1,70,8|0,0:0|0:0,0:0:0:0:
272,32,50952,5,4,0:0:0:0:
240,192,51299,1,0,0:0:0:0:
240,192,51472,2,0,P|239:274|266:306,1,105.000004005432,2|0,0:0|0:0,0:0:0:0:
318,233,51992,2,0,L|368:216,1,52.5000020027161,2|0,0:0|0:0,0:0:0:0:
144,160,52339,5,8,0:0:0:0:
368,216,52513,1,8,0:0:0:0:
184,328,52686,1,8,0:0:0:0:
256,64,52859,1,8,0:0:0:0:
83,183,53553,1,0,0:0:0:0:
102,191,53640,1,0,0:0:0:0:
120,192,53727,6,0,P|184:192|248:112,1,167.999994873047,4|8,0:0|0:0,0:0:0:0:
154,105,54247,1,0,0:0:0:0:
176,272,54420,2,0,P|186:317|210:366,1,83.9999974365235,2|0,0:0|0:0,0:0:0:0:
304,176,54767,1,8,0:0:0:0:
154,105,54940,6,0,P|112:94|34:89,1,83.9999974365235,2|0,0:0|0:0,0:0:0:0:
102,191,55287,1,0,0:0:0:0:
256,64,55461,2,0,L|272:176,1,83.9999974365235,8|0,0:0|0:0,0:0:0:0:
176,320,55807,2,0,P|160:240|160:208,1,83.9999974365235,2|0,0:0|0:0,0:0:0:0:
416,144,56154,2,0,P|416:208|400:256,1,83.9999974365235,8|0,0:0|0:0,0:0:0:0:
224,160,56501,6,0,B|152:168|129:188|129:188|114:231|132:275,1,167.999994873047,4|8,0:0|0:0,0:0:0:0:
336,256,57021,2,0,L|253:241,1,83.9999974365235,2|0,0:0|0:0,0:0:0:0:
128,192,57368,1,0,0:0:0:0:
48,304,57542,1,8,0:0:0:0:
253,242,57715,6,0,P|308:177|276:93,1,167.999994873047,2|0,0:0|0:0,0:0:0:0:
171,262,58235,2,0,L|156:375,1,83.9999974365235,10|0,0:0|0:0,0:0:0:0:
128,192,58582,1,2,0:0:0:0:
48,240,58755,1,0,0:0:0:0:
122,101,58929,1,10,0:0:0:0:
0,144,59102,1,0,0:0:0:0:
107,328,59276,6,0,B|164:328|164:328|205:281|280:316,1,167.999994873047,4|8,0:0|0:0,0:0:0:0:
222,377,59796,1,0,0:0:0:0:
128,192,59969,2,0,B|112:160|108:113|108:113|153:81|199:86,1,167.999994873047,2|8,0:0|0:0,0:0:0:0:
256,224,60490,6,0,P|331:258|413:246,1,167.999994873047,2|0,0:0|0:0,0:0:0:0:
352,112,61010,1,8,0:0:0:0:
413,246,61183,1,0,0:0:0:0:
480,112,61357,6,0,L|496:16,1,83.9999974365235,2|0,0:0|0:0,0:0:0:0:
413,246,61703,2,0,L|397:334,1,83.9999974365235,8|0,0:0|0:0,0:0:0:0:
239,192,62050,6,0,P|279:177|321:174,1,83.9999974365235,4|0,0:0|0:0,0:0:0:0:
304,272,62397,1,8,0:0:0:0:
176,128,62570,2,0,P|163:89|165:42,1,83.9999974365235,2|0,0:0|0:0,0:0:0:0:
261,78,62917,1,0,0:0:0:0:
320,174,63091,1,8,0:0:0:0:
85,190,63264,6,0,P|60:104|60:23,1,167.999994873047,4|0,0:0|0:0,0:0:0:0:
320,64,63784,1,4,0:0:0:0:
176,128,63958,1,2,0:0:0:0:
352,224,64131,5,8,0:0:0:0:
160,272,64305,1,2,0:0:0:0:
320,352,64478,1,8,0:0:0:0:
338,361,64565,1,0,0:0:0:0:
356,370,64651,1,0,0:0:0:0:
456,208,64825,6,0,P|405:145|305:145,1,167.999994873047,4|8,0:0|0:0,0:0:0:0:
237,174,65345,1,0,0:0:0:0:
363,315,65518,2,0,L|358:232,1,83.9999974365235,2|0,0:0|0:0,0:0:0:0:
320,96,65865,1,8,0:0:0:0:
208,240,66039,6,0,P|160:256|112:256,1,83.9999974365235,2|0,0:0|0:0,0:0:0:0:
144,176,66386,1,0,0:0:0:0:
262,324,66559,2,0,P|336:352|447:328,1,167.999994873047,8|2,0:0|0:0,0:0:0:0:
496,272,67079,1,0,0:0:0:0:
352,144,67253,1,8,0:0:0:0:
368,240,67426,1,0,0:0:0:0:
239,40,67599,6,0,P|256:128|259:224,1,167.999994873047,4|0,0:0|0:0,0:0:0:0:
433,158,68120,2,0,P|393:145|352:144,1,83.9999974365235,8|0,0:0|0:0,0:0:0:0:
72,218,68466,2,0,P|112:232|155:233,1,83.9999974365235,8|0,0:0|0:0,0:0:0:0:
29,104,68813,6,0,P|0:176|0:288,1,167.999994873047,4|0,0:0|0:0,0:0:0:0:
144,144,69333,2,0,P|157:89|160:48,1,83.9999974365235,8|0,0:0|0:0,0:0:0:0:
170,273,69680,2,0,P|174:314|185:355,1,83.9999974365235,8|0,0:0|0:0,0:0:0:0:
72,218,70027,1,8,0:0:0:0:
72,218,70114,1,0,0:0:0:0:
72,218,70201,1,8,0:0:0:0:
72,218,70287,1,0,0:0:0:0:
72,218,70374,6,0,P|65:299|115:364,1,167.999994873047,4|8,0:0|0:0,0:0:0:0:
248,384,70894,1,0,0:0:0:0:
256,232,71068,1,2,0:0:0:0:
184,296,71241,1,0,0:0:0:0:
384,304,71414,1,8,0:0:0:0:
325,92,71588,6,0,P|287:164|319:239,1,167.999994873047,2|0,0:0|0:0,0:0:0:0:
384,168,72108,2,0,L|466:181,1,83.9999974365235,8|0,0:0|0:0,0:0:0:0:
216,160,72455,2,0,L|120:144,1,83.9999974365235,2|0,0:0|0:0,0:0:0:0:
316,129,72802,2,0,L|336:48,1,83.9999974365235,8|0,0:0|0:0,0:0:0:0:
248,248,73149,6,0,L|228:329,1,83.9999974365235,2|0,0:0|0:0,0:0:0:0:
104,256,73495,1,8,0:0:0:0:
264,264,73669,6,0,L|244:345,1,83.9999974365235,2|0,0:0|0:0,0:0:0:0:
78,237,74016,2,0,P|68:190|76:143,1,83.9999974365235,0|8,0:0|0:0,0:0:0:0:
344,194,74362,6,0,P|363:274|337:353,1,167.999994873047,2|0,0:0|0:0,0:0:0:0:
104,256,74883,2,0,L|113:154,1,83.9999974365235,8|0,0:0|0:0,0:0:0:0:
192,8,75229,2,0,L|201:110,1,83.9999974365235,8|0,0:0|0:0,0:0:0:0:
344,194,75576,2,0,L|353:92,1,83.9999974365235,8|0,0:0|0:0,0:0:0:0:
472,160,75923,5,4,0:0:0:0:
464,280,76096,1,0,0:0:0:0:
432,184,76270,1,2,0:0:0:0:
424,304,76443,1,0,0:0:0:0:
328,344,76617,2,0,L|232:352,2,70,8|0|8,0:0|0:0|0:0,0:0:0:0:
152,272,77137,6,0,L|248:264,2,70,2|0|0,0:0|0:0|0:0,0:0:0:0:
72,352,77657,2,0,P|45:288|64:208,1,140,2|8,0:0|0:0,0:0:0:0:
93,129,78177,2,0,P|118:104|149:88,2,70,0|2|0,0:0|0:0|0:0,0:0:0:0:
196,14,78698,6,0,P|231:62|205:157,1,140,4|2,0:0|0:0,0:0:0:0:
195,243,79218,1,0,0:0:0:0:
195,243,79391,2,0,P|255:258|333:238,1,140,8|10,0:0|0:0,0:0:0:0:
329,239,79912,1,0,0:0:0:0:
360,144,80085,6,0,P|421:194|423:270,1,140,2|0,0:0|0:0,0:0:0:0:
376,360,80605,2,0,L|288:368,1,70,2|8,0:0|0:0,0:0:0:0:
136,312,80952,2,0,L|224:320,2,70,8|4|4,0:0|3:0|3:0,0:0:0:0:
48,216,81472,5,8,0:0:0:0:
152,72,81646,1,8,0:0:0:0:
206,126,81819,2,0,P|238:147|286:158,1,70
152,192,82513,5,8,0:0:0:0:
256,48,82687,1,8,0:0:0:0:
320,89,82859,2,0,P|376:65|400:33,2,70
206,126,83380,5,8,0:0:0:0:
304,256,83553,1,8,0:0:0:0:
136,272,83727,1,8,0:0:0:0:
232,136,83900,5,8,0:0:0:0:
330,266,84073,1,8,0:0:0:0:
162,282,84247,5,8,0:0:0:0:
64,152,84420,1,8,0:0:0:0:
118,97,84594,2,0,P|163:88|192:71,1,70
360,64,85287,5,8,0:0:0:0:
392,192,85461,1,8,0:0:0:0:
392,192,85807,1,0,0:0:0:0:
160,72,86154,5,8,0:0:0:0:
24,128,86328,1,8,0:0:0:0:
160,72,86501,1,8,0:0:0:0:
256,192,86675,5,8,0:0:0:0:
256,192,86761,1,8,0:3:0:0:
256,192,86848,1,8,0:3:0:0:
256,192,86935,1,8,0:3:0:0:
256,192,87021,1,2,0:0:0:0:
256,192,87108,12,0,90316,0:0:0:0:
