osu file format v11

[General]
AudioFilename: Hikari ~I Promise You~.mp3
AudioLeadIn: 0
PreviewTime: 54626
Countdown: 0
SampleSet: Soft
StackLeniency: 0.7
Mode: 0
LetterboxInBreaks: 0

[Editor]
DistanceSpacing: 1.1
BeatDivisor: 4
GridSize: 4

[Metadata]
Title:Hikari ~I Promise You~ (TV Size)
TitleUnicode:光 -I promise you- (TV Size)
Artist:Kurosaki Maon
ArtistUnicode:黒崎 真音
Creator:Kitagami
Version:Hard
Source:Hakuouki
Tags:Sekkaroku Ending Visual Novel ED4 Toudou Heisuke ShiroiYume
BeatmapID:199355
BeatmapSetID:68889

[Difficulty]
HPDrainRate:6
CircleSize:4
OverallDifficulty:6
ApproachRate:7
SliderMultiplier:1.4
SliderTickRate:2

[Events]
//Background and Video events
0,0,"Background.jpg"
//Break Periods
//Storyboard Layer 0 (Background)
//Storyboard Layer 1 (Fail)
//Storyboard Layer 2 (Pass)
//Storyboard Layer 3 (Foreground)
//Storyboard Sound Samples
//Background Colour Transformations
3,100,163,162,255

[TimingPoints]
144,550.45871559633,4,2,1,40,1,0
30950,550.45871559633,4,2,1,40,1,0
39206,-100,4,2,1,30,0,0
39757,-100,4,2,1,40,0,0
43610,-100,4,2,1,30,0,0
44161,-100,4,2,1,40,0,0
45148,550.45871559633,4,2,1,40,1,0
46388,550.45871559633,4,2,1,40,1,0
47738,550.45871559633,4,2,1,40,1,0
48563,550.45871559633,4,2,1,40,1,0
55175,550.45871559633,4,2,1,70,1,1
55450,-100,4,2,1,50,0,1
63983,-100,4,2,1,40,0,1
64257,-100,4,2,1,50,0,1
68387,-100,4,2,1,30,0,1
68799,-100,4,2,1,50,0,1
69487,-100,4,2,1,40,0,1
69900,-100,4,2,1,50,0,1
71430,550.45871559633,4,2,1,40,1,1
71705,-100,4,2,1,50,0,0
72798,550.45871559633,4,2,1,70,1,1
73073,-100,4,2,1,50,0,1
85733,-100,4,2,1,45,0,1
86009,-100,4,2,1,40,0,1
86284,-100,4,2,1,35,0,1
86559,-100,4,2,1,30,0,1
86834,-100,4,2,1,25,0,1
87109,-100,4,2,1,20,0,1
87385,-100,4,2,1,15,0,1
87660,-100,4,2,1,10,0,1
88210,-100,4,2,1,5,0,0

[Colours]
Combo1 : 180,111,242
Combo2 : 255,176,216
Combo3 : 255,60,157
Combo4 : 244,53,87
SliderBorder : 255,255,255

[HitObjects]
208,148,17758,1,2,0:0:0
84,56,18309,5,0,1:0:0
84,56,18446,2,0,P|54:69|30:97,1,70,0|0,0:0|1:0,0:0:0
20,132,18859,1,0,0:0:0
20,208,19134,2,0,P|20:280,1,70,0|0,0:0|1:0,0:0:0
96,278,19685,1,0,0:0:0
164,240,19960,1,2,0:0:0
276,348,20510,6,0,P|340:300,1,70,0|0,1:0|0:0,0:0:0
364,284,20923,1,0,1:0:0
460,216,21336,2,0,P|488:192|502:157,1,70,0|0,0:0|1:0,0:0:0
496,84,21887,1,0,0:0:0
436,36,22162,1,2,0:0:0
352,164,22712,5,0,1:0:0
352,164,22850,2,0,P|288:228,1,70,0|0,0:0|1:0,0:0:0
280,240,23263,1,0,0:0:0
224,188,23538,2,0,P|156:256,1,70,0|0,0:0|1:0,0:0:0
120,292,24088,1,0,0:0:0
65,237,24364,2,0,P|77:165|141:105,1,140,2|0,0:0|1:0,0:0:0
184,76,25189,5,0,0:0:0
184,76,25327,2,0,P|232:60|300:84,1,105,0|0,1:0|0:0,0:0:0
352,112,26015,2,0,P|330:135|292:148,1,70,0|0,1:0|0:0,0:0:0
220,168,26566,1,2,0:0:0
368,216,27116,5,0,1:0:0
440,244,27391,1,0,0:0:0
440,244,27529,1,0,1:0:0
408,356,27942,2,0,P|375:361|340:347,1,70,0|0,0:0|1:0,0:0:0
284,300,28492,2,0,P|261:281|263:236|263:236|236:216|192:216,1,140,0|2,0:0|0:0,0:0:0
144,272,29318,1,0,1:0:0
88,324,29593,5,0,0:0:0
56,300,29731,1,0,1:0:0
48,256,29868,1,0,0:0:0
48,180,30143,2,0,P|116:112,1,70,0|0,0:0|1:0,0:0:0
156,80,30694,5,0,0:0:0
232,80,30950,2,0,P|263:86|291:110,1,70,2|0,0:0|0:0,0:0:0
332,176,31500,1,0,1:0:0
268,220,31775,1,4,0:0:0
144,308,32326,2,0,P|155:343|183:368,1,70,0|4,0:0|1:0,0:0:0
256,192,32876,12,4,35353,0:0:0
52,76,35904,5,0,1:0:0
52,76,36041,1,0,0:0:0
128,76,36316,1,0,0:0:0
244,76,36729,2,0,P|320:76,1,70,0|0,0:0|1:0,0:0:0
380,116,37280,5,0,0:0:0
444,172,37555,1,2,0:0:0
364,200,37830,1,0,0:0:0
380,116,38105,1,0,1:0:0
444,172,38381,2,0,P|432:244|368:304,1,140
328,340,39206,1,4,0:0:0
176,312,39757,1,4,0:0:0
36,244,40307,5,0,1:0:0
40,168,40583,2,0,P|70:101|147:60,1,140
200,60,41408,1,0,1:0:0
284,60,41683,1,0,0:0:0
200,60,41959,5,2,0:0:0
284,60,42234,1,0,0:0:0
360,92,42509,1,0,1:0:0
412,156,42784,1,0,0:0:0
412,156,42922,2,0,P|413:242|341:320,1,175,0|4,0:0|0:0,0:0:0
206,310,44161,1,4,0:0:0
52,300,44711,5,0,1:0:0
52,224,44986,1,0,0:0:0
52,224,45148,1,0,1:0:0
52,108,45560,1,0,0:0:0
108,56,45836,1,0,1:0:0
184,48,46111,1,0,0:0:0
260,48,46388,2,0,P|336:48,1,70,2|0,0:0|0:0,0:0:0
408,48,46938,5,0,1:0:0
408,48,47076,1,0,0:0:0
468,96,47351,1,0,0:0:0
468,216,47738,2,0,P|461:248|436:276,1,70,0|0,0:0|1:0,0:0:0
368,312,48288,1,0,0:0:0
292,312,48563,2,0,P|220:312,1,70,2|0,0:0|0:0,0:0:0
144,312,49113,5,0,1:0:0
144,312,49251,1,0,0:0:0
68,312,49526,1,0,0:0:0
68,196,49939,2,0,P|76:163|103:137,1,70,0|0,0:0|1:0,0:0:0
160,88,50489,1,0,0:0:0
280,52,50764,5,2,1:0:0
404,52,51040,1,0,0:0:0
404,176,51315,1,0,1:0:0
276,176,51590,1,0,0:0:0
280,52,51865,1,0,1:0:0
280,52,52003,1,0,1:0:0
280,52,52140,2,0,P|244:48|208:68,1,70,0|0,1:0|0:0,0:0:0
276,176,52691,1,0,0:0:0
344,116,52966,5,0,1:0:0
292,256,53379,1,0,1:0:0
192,148,53792,1,4,1:0:0
32,148,54618,1,0,1:0:0
32,148,54755,1,0,1:0:0
68,256,55175,6,0,P|79:285|108:309,1,70,4|0,0:0|0:0,0:0:0
176,348,55725,1,0,1:0:0
252,336,56000,1,0,0:0:0
292,328,56138,2,0,P|340:308|379:246,1,105,0|0,1:0|0:0,0:0:0
404,196,56826,1,0,1:0:0
404,196,56963,1,0,0:0:0
372,84,57376,6,0,P|288:84,1,70,2|0,0:0|0:0,0:0:0
224,84,57927,1,0,1:0:0
148,84,58202,1,0,0:0:0
148,84,58340,2,0,P|96:92|44:144,1,105,0|0,1:0|0:0,0:0:0
28,196,59028,1,0,1:0:0
28,236,59165,1,0,0:0:0
28,276,59303,1,0,0:0:0
84,328,59578,6,0,P|155:328,1,70,2|0,0:0|0:0,0:0:0
230,328,60129,1,0,1:0:0
296,292,60404,1,0,0:0:0
296,292,60541,1,0,1:0:0
396,232,60954,2,0,P|429:217|449:191,1,70,0|0,0:0|1:0,0:0:0
476,120,61505,1,0,0:0:0
416,76,61780,6,0,P|439:53|475:44,2,70,2|0|0,0:0|0:0|1:0,0:0:0
392,148,62606,1,0,0:0:0
392,148,62743,1,0,1:0:0
276,148,63156,1,0,0:0:0
200,152,63431,1,0,1:0:0
148,96,63707,5,0,0:0:0
148,96,63982,2,0,P|122:116|107:149,1,70,4|0,0:0|0:0,0:0:0
104,228,64532,1,0,1:0:0
104,304,64808,1,0,0:0:0
104,304,64945,1,0,1:0:0
204,360,65358,1,0,0:0:0
204,284,65633,1,0,1:0:0
280,284,65908,6,0,P|372:284,1,70,0|2,0:0|0:0,0:0:0
428,280,66459,1,0,0:0:0
480,224,66734,2,0,P|496:195|495:158,1,70,0|0,1:0|0:0,0:0:0
484,124,67147,1,0,1:0:0
388,60,67560,2,0,P|353:72|332:97,1,70,0|0,0:0|1:0,0:0:0
296,164,68110,5,0,0:0:0
328,236,68386,1,4,0:0:0
448,168,68798,1,2,0:0:0
332,96,69211,1,0,0:0:0
296,164,69486,1,4,0:0:0
160,140,69899,1,2,0:0:0
108,268,70312,1,0,0:0:0
128,344,70587,6,0,P|156:332|200:328,1,70,4|0,0:0|0:0,0:0:0
256,372,71138,1,0,1:0:0
320,328,71430,1,0,0:0:0
320,328,71567,2,0,P|370:340|439:313,1,105,0|0,1:0|0:0,0:0:0
476,276,72255,1,0,1:0:0
476,276,72393,1,0,1:0:0
476,160,72798,6,0,P|459:124|439:101,1,70,4|0,0:0|0:0,0:0:0
380,52,73348,1,0,1:0:0
320,100,73623,1,0,0:0:0
300,130,73761,2,0,P|268:172|198:193,1,105,0|0,1:0|0:0,0:0:0
180,128,74449,1,0,1:0:0
180,128,74586,1,0,0:0:0
64,128,74999,6,0,P|19:174|4:246,1,140,2|0,0:0|1:0,0:0:0
28,320,75825,1,0,0:0:0
28,320,75963,1,0,1:0:0
132,364,76375,2,0,P|168:344|196:300,1,70,0|0,0:0|1:0,0:0:0
208,292,76788,1,0,0:0:0
232,260,76926,2,0,P|288:204,1,70,0|2,0:0|0:0,0:0:0
336,160,77476,5,0,0:0:0
388,104,77752,1,0,1:0:0
464,108,78027,1,0,0:0:0
464,108,78164,1,0,1:0:0
464,108,78302,2,0,P|464:196,1,70,0|0,0:0|0:0,0:0:0
508,240,78853,1,0,1:0:0
460,300,79128,2,0,P|411:250,1,70,0|2,0:0|0:0,0:0:0
356,304,79678,5,0,0:0:0
296,256,79953,2,0,P|274:237|254:201,1,70,0|0,1:0|0:0,0:0:0
240,168,80366,1,0,1:0:0
200,60,80779,6,0,P|112:60,2,70,0|0|0,0:0|1:0|0:0,0:0:0
240,60,81467,1,0,0:0:0
280,60,81605,1,4,0:0:0
436,60,82155,5,0,1:0:0
488,116,82431,1,0,0:0:0
504,152,82568,1,0,1:0:0
500,192,82706,1,0,0:0:0
472,264,82981,2,0,P|441:289|414:301,1,70,0|0,0:0|1:0,0:0:0
340,320,83531,1,0,0:0:0
216,320,83807,5,2,0:0:0
88,104,84357,1,2,0:0:0
344,104,84908,1,4,0:0:0
256,192,85458,12,0,88210,0:0:0
