osu file format v12

[General]
AudioFilename: 04.Emergence!.mp3
AudioLeadIn: 1500
PreviewTime: 56060
Countdown: 1
SampleSet: Soft
StackLeniency: 0.7
Mode: 0
LetterboxInBreaks: 1

[Editor]
Bookmarks: 133805
DistanceSpacing: 0.9
BeatDivisor: 2
GridSize: 4

[Metadata]
Title:Emergence!
TitleUnicode:Emergence!
Artist:Kurosaki Maon
ArtistUnicode:Kurosaki Maon
Creator:cRyo[iceeicee]
Version:Normal
Source:
Tags:
BeatmapID:0
BeatmapSetID:-1

[Difficulty]
HPDrainRate:3
CircleSize:3
OverallDifficulty:3
ApproachRate:5
SliderMultiplier:1.2
SliderTickRate:1

[Events]
//Background and Video events
0,0,"BG.jpg",0,0
//Break Periods
2,3488,4847
2,22798,31743
2,89005,98640
//Storyboard Layer 0 (Background)
//Storyboard Layer 1 (Fail)
//Storyboard Layer 2 (Pass)
//Storyboard Layer 3 (Foreground)
//Storyboard Sound Samples
//Background Colour Transformations
3,100,163,162,255

[TimingPoints]
530,344.827586206897,4,2,1,35,1,0
6047,-181.818181818181,4,2,1,20,0,0
6133,-181.818181818181,4,2,1,30,0,0
6392,-181.818181818181,4,2,1,5,0,0
6564,-181.818181818181,4,2,1,30,0,0
6736,-181.818181818181,4,2,1,5,0,0
6836,-181.818181818181,4,2,1,30,0,0
7426,-181.818181818181,4,2,1,20,0,0
7526,-181.818181818181,4,2,1,30,0,0
7771,-181.818181818181,4,2,1,5,0,0
7943,-181.818181818181,4,2,1,30,0,0
8116,-181.818181818181,4,2,1,5,0,0
8216,-181.818181818181,4,2,1,30,0,0
8805,-181.818181818181,4,2,1,20,0,0
8905,-181.818181818181,4,2,1,30,0,0
9150,-181.818181818181,4,2,1,5,0,0
9323,-181.818181818181,4,2,1,30,0,0
9495,-181.818181818181,4,2,1,5,0,0
9595,-181.818181818181,4,2,1,30,0,0
10961,-181.818181818181,4,2,1,5,0,0
11564,-133.333333333333,4,1,1,50,0,0
11823,-133.333333333333,4,2,1,47,0,0
12426,-133.333333333333,4,1,1,70,0,0
12526,-133.333333333333,4,2,1,47,0,0
12943,-133.333333333333,4,3,1,70,0,0
13030,-133.333333333333,4,2,1,47,0,0
13805,-133.333333333333,4,3,1,70,0,0
13905,-133.333333333333,4,2,1,47,0,0
14323,-133.333333333333,4,3,1,70,0,0
14409,-133.333333333333,4,2,1,47,0,0
15185,-133.333333333333,4,3,1,70,0,0
15285,-133.333333333333,4,2,1,47,0,0
15702,-133.333333333333,4,3,1,70,0,0
15802,-133.333333333333,4,2,1,47,0,0
16564,-133.333333333333,4,3,1,70,0,0
16650,-133.333333333333,4,2,1,47,0,0
17081,-133.333333333333,4,3,1,70,0,0
17181,-133.333333333333,4,2,1,47,0,0
17943,-133.333333333333,4,3,1,70,0,0
18043,-133.333333333333,4,2,1,47,0,0
18461,-133.333333333333,4,3,1,70,0,0
18561,-133.333333333333,4,2,1,47,0,0
19323,-133.333333333333,4,3,1,70,0,0
19423,-133.333333333333,4,2,1,47,0,0
19840,-133.333333333333,4,3,1,70,0,0
19940,-133.333333333333,4,2,1,47,0,0
20702,-133.333333333333,4,3,1,70,0,0
20788,-133.333333333333,4,2,1,47,0,0
21219,-133.333333333333,4,3,1,70,0,0
21319,-133.333333333333,4,2,1,40,0,0
21909,-100,4,2,2,40,0,0
22081,-100,4,1,1,50,0,0
22598,-100,4,1,1,60,0,0
32254,-100,4,1,1,60,0,0
33719,-100,4,2,1,60,0,0
44667,-100,4,1,1,60,0,0
44840,-100,4,1,1,45,0,0
56047,-100,4,2,1,65,0,0
65357,-100,4,1,1,60,0,0
66047,-100,4,1,1,40,0,0
66736,-100,4,1,1,50,0,0
72943,-100,4,2,1,60,0,0
75012,-100,4,1,1,60,0,0
75702,-100,4,2,1,60,0,0
77771,-100,4,1,1,50,0,0
83978,-100,4,2,1,60,0,0
85357,-100,4,1,1,60,0,0
86047,-100,4,1,1,50,0,0
99840,-133.333333333333,4,2,1,50,0,0
110874,-133.333333333333,4,2,1,60,0,0
110974,-133.333333333333,4,2,1,50,0,0
119150,-133.333333333333,4,2,1,40,0,0
120530,-133.333333333333,4,2,1,50,0,0
121219,-100,4,1,1,40,0,0
121909,-100,4,1,1,50,0,0
131564,-100,4,1,1,40,0,0
132943,-100,4,1,1,50,0,0
139150,-100,4,2,1,60,0,0
141219,-100,4,1,1,50,0,0
141909,-100,4,2,1,60,0,0
143978,-100,4,1,1,50,0,0
150185,-100,4,2,1,60,0,0
151564,-100,4,1,1,50,0,0
155012,-100,4,1,1,40,0,0
159840,-100,4,3,1,50,0,0
160443,-100,4,1,1,40,0,0

[Colours]
Combo1 : 0,152,225
Combo2 : 255,85,255
Combo3 : 47,255,255
Combo4 : 154,53,255

[HitObjects]
100,84,530,5,2,2:2:0:0:
256,308,1909,1,2,0:2:0:0:
412,84,3288,1,2,0:2:0:0:
152,76,6047,6,0,P|105:82|48:92,2,99.0000030212403,12|2|0,0:3|0:0|0:0,0:0:0:0:
220,140,7426,2,0,P|266:133|324:124,2,99.0000030212403,12|2|0,0:3|0:0|0:0,0:0:0:0:
176,220,8805,2,0,P|124:228|78:234,2,99.0000030212403,12|2|0,0:3|0:0|0:0,0:0:0:0:
276,316,10357,1,0,0:2:0:0:
276,316,10702,2,0,P|324:316|376:292,1,99.0000030212403,2|0,0:0|0:0,0:0:0:0:
448,232,11564,6,0,P|443:189|436:136,1,90.0000034332277,0|8,3:0|0:0,0:0:0:0:
432,44,12254,2,0,L|476:16,2,45.0000017166138,0|0|8,0:0|3:0|0:0,0:0:0:0:
344,88,12943,2,0,P|304:108|256:112,1,90.0000034332277,0|8,0:0|0:0,0:0:0:0:
160,104,13633,2,0,L|148:152,1,45.0000017166138,0|0,0:0|0:0,0:0:0:0:
136,196,13978,1,8,0:0:0:0:
148,296,14323,6,0,P|184:324|240:332,1,90.0000034332277,0|8,0:0|0:0,0:0:0:0:
324,328,15012,1,0,0:0:0:0:
364,300,15185,1,0,0:0:0:0:
400,268,15357,1,8,0:0:0:0:
452,184,15702,6,0,P|452:136|432:88,1,90.0000034332277,0|8,0:0|0:0,0:0:0:0:
348,56,16392,2,0,L|296:72,1,45.0000017166138,0|0,0:0|0:0,0:0:0:0:
256,80,16736,2,0,L|200:60,1,45.0000017166138,8|0,0:0|0:0,0:0:0:0:
164,52,17081,6,0,P|144:96|148:144,1,90.0000034332277,4|8,0:0|0:0,0:0:0:0:
192,224,17771,2,0,L|176:276,1,45.0000017166138,0|0,0:0|0:0,0:0:0:0:
160,312,18116,1,8,0:0:0:0:
60,316,18461,2,0,P|54:273|48:224,1,90.0000034332277,4|8,0:0|0:0,0:0:0:0:
96,140,19150,2,0,P|117:142|147:152,2,45.0000017166138,0|0|8,0:0|0:0|0:0,0:0:0:0:
40,56,19840,6,0,P|84:40|133:44,1,90.0000034332277,4|8,0:0|0:0,0:0:0:0:
224,68,20530,1,0,0:0:0:0:
236,116,20702,1,0,0:0:0:0:
248,164,20874,1,8,0:0:0:0:
280,256,21219,2,0,P|324:256|376:236,1,90.0000034332277,0|8,0:0|0:0,0:0:0:0:
460,188,21909,6,0,L|444:124,1,60,0|8,0:0|0:0,0:0:0:0:
428,80,22254,2,0,B|404:52|384:48|384:48|310:106,1,120,8|4,0:0|0:0,0:0:0:0:
56,96,32943,6,0,L|76:160,1,60,0|0,0:0|0:0,0:0:0:0:
128,148,33288,2,0,L|120:208,1,60,8|0,0:0|0:0,0:0:0:0:
112,260,33633,6,0,B|140:284|148:312|148:312|228:296,1,120,4|8,0:0|0:0,0:0:0:0:
308,276,34323,2,0,P|368:268|440:292,1,120,0|8,3:3|0:0,0:0:0:0:
480,288,34840,2,0,P|516:256|484:176,1,120,0|0,0:0|0:0,0:0:0:0:
472,148,35357,5,8,0:0:0:0:
388,80,35702,1,0,3:0:0:0:
280,96,36047,1,8,0:0:0:0:
236,196,36392,1,4,3:0:0:0:
132,224,36736,6,0,B|100:204|78:203|78:203|96:128,1,120,8|0,0:0|3:0,0:0:0:0:
124,40,37426,1,8,0:0:0:0:
124,40,37598,2,0,P|188:40|240:80,1,120,0|0,0:0|0:0,0:0:0:0:
280,96,38116,2,0,P|324:126|388:126,1,120,8|0,0:0|3:0,0:0:0:0:
492,96,38805,2,0,P|492:160|461:204,1,120,8|4,0:0|3:0,0:0:0:0:
376,268,39495,5,8,0:0:0:0:
268,296,39840,2,0,B|225:301|198:275|198:275|153:320,1,120,0|8,3:0|0:0,0:0:0:0:
116,324,40357,2,0,P|76:284|92:212,1,120,0|0,0:0|0:0,0:0:0:0:
116,180,40874,5,8,0:0:0:0:
200,112,41219,1,0,3:0:0:0:
312,112,41564,1,8,0:0:0:0:
396,180,41909,6,0,P|424:232|420:304,1,120,4|8,3:0|0:0,0:0:0:0:
336,356,42598,2,0,P|283:329|245:268,1,120,0|8,3:0|0:0,0:0:0:0:
220,236,43116,2,0,B|192:248|176:280|176:280|124:252|40:288,1,180,0|8,0:0|0:0,0:0:0:0:
20,180,43978,1,0,3:0:0:0:
72,84,44323,1,8,0:0:0:0:
180,92,44667,6,0,P|240:100|312:68,1,120,4|10,0:0|0:0,0:0:0:0:
400,52,45357,2,0,P|432:104|428:188,1,120,2|8,0:0|0:0,0:0:0:0:
428,216,45874,2,0,B|416:256|416:256|452:284|448:340,2,120,2|2|2,0:0|0:0|0:0,0:0:0:0:
328,172,46909,1,2,0:0:0:0:
328,172,47081,2,0,P|272:172|212:204,1,120,10|4,0:0|0:3,0:0:0:0:
124,256,47771,5,10,0:0:0:0:
32,204,48116,1,2,0:0:0:0:
32,204,48288,1,2,0:0:0:0:
88,112,48633,2,0,B|96:76|96:76|68:52|52:-8,2,120,2|2|2,0:0|0:0|0:0,0:0:0:0:
180,168,49667,2,0,P|268:180|356:120,1,180,2|4,0:0|0:3,0:0:0:0:
420,56,50530,5,10,0:0:0:0:
468,152,50874,1,2,0:0:0:0:
468,152,51047,2,0,B|456:192|456:192|464:236|464:236|456:276,1,120,2|2,0:0|0:0,0:0:0:0:
372,336,51736,2,0,B|328:316|288:332|288:332|248:324,1,120,2|2,0:0|0:0,0:0:0:0:
148,308,52426,1,2,0:0:0:0:
148,308,52598,2,0,B|156:260|136:232|136:232|164:188,1,120,10|4,0:0|0:3,0:0:0:0:
256,148,53288,5,10,0:0:0:0:
364,128,53633,2,0,L|424:116,1,60,2|2,0:0|0:0,0:0:0:0:
484,204,54150,2,0,B|492:288|428:344|428:344|404:316|352:308,2,240,2|2|0,0:0|0:0|0:0,0:0:0:0:
468,152,55702,1,4,0:0:0:0:
412,60,56047,6,0,P|356:64|304:100,1,120,8|0,0:0|3:3,0:0:0:0:
228,176,56736,1,8,0:0:0:0:
228,176,56909,2,0,P|168:184|100:156,1,120,0|0,0:0|0:0,0:0:0:0:
64,144,57426,2,0,B|28:176|-4:184|-4:184|16:244,2,120,8|0|8,0:0|3:0|0:0,0:0:0:0:
148,72,58461,1,4,3:0:0:0:
252,96,58805,6,0,P|300:136|304:212,2,120,8|0|8,0:0|3:0|0:0,0:0:0:0:
212,132,59667,2,0,P|160:160|88:140,1,120,0|0,0:0|0:0,0:0:0:0:
48,128,60185,1,8,0:0:0:0:
20,232,60530,1,0,3:0:0:0:
88,316,60874,1,8,0:0:0:0:
196,316,61219,1,4,3:0:0:0:
276,244,61564,6,0,P|336:240|400:272,1,120,8|0,0:0|3:0,0:0:0:0:
480,324,62254,1,8,0:0:0:0:
480,324,62426,2,0,P|500:272|480:204,1,120,0|0,0:0|0:0,0:0:0:0:
436,184,62943,2,0,B|444:144|444:144|440:100|440:100|448:48,1,120,8|0,0:0|3:0,0:0:0:0:
340,36,63633,1,8,0:0:0:0:
248,92,63978,6,0,P|192:116|128:112,1,120,4|8,3:0|0:0,0:0:0:0:
28,132,64667,2,0,B|20:192|20:192|40:216|47:250,1,120,0|8,3:0|0:0,0:0:0:0:
88,344,65357,1,0,0:0:0:0:
192,316,65702,1,8,0:0:0:0:
256,228,66047,2,0,L|324:236,1,60,0|0,0:0|0:0,0:0:0:0:
332,184,66392,2,0,L|376:228,1,60,8|0,0:0|0:0,0:0:0:0:
416,260,66736,6,0,P|476:252|508:200,1,120,4|8,0:0|0:0,0:0:0:0:
452,112,67426,1,0,0:0:0:0:
352,72,67771,1,8,0:0:0:0:
256,120,68116,2,0,L|184:104,1,60,4|0,0:0|0:0,0:0:0:0:
88,100,68633,2,0,P|56:156|64:224,1,120,0|0,0:0|0:0,0:0:0:0:
72,260,69150,1,8,0:0:0:0:
100,308,69323,2,0,B|144:332|184:316|184:316|220:340,1,120,4|0,0:0|0:0,0:0:0:0:
256,364,69840,5,8,0:0:0:0:
360,332,70185,1,0,0:0:0:0:
420,244,70530,1,8,0:0:0:0:
420,136,70874,6,0,P|452:140|488:160,2,60,4|0|8,0:0|0:0|0:0,0:0:0:0:
368,144,71392,2,0,B|336:156|336:156|280:156|280:156|240:168,1,120,0|0,0:0|0:0,0:0:0:0:
200,180,71909,2,0,P|184:240|216:308,2,120,8|4|8,0:0|0:0|0:0,0:0:0:0:
256,88,72943,5,2,0:0:0:0:
360,52,73288,1,8,0:0:0:0:
456,104,73633,2,0,P|484:160|476:216,1,120,2|8,0:0|0:0,0:0:0:0:
384,272,74323,2,0,P|324:252|290:206,1,120,2|8,0:0|0:0,0:0:0:0:
200,148,75012,6,0,P|144:144|83:175,1,120,4|8,0:0|0:0,0:0:0:0:
32,264,75702,1,2,0:0:0:0:
120,328,76047,1,8,0:0:0:0:
224,304,76392,2,0,B|256:276|288:272|288:272|300:204,1,120,2|8,0:0|0:0,0:0:0:0:
400,252,77081,2,0,L|417:133,1,120,2|8,0:0|0:0,0:0:0:0:
436,28,77771,5,4,0:0:0:0:
332,64,78116,1,8,0:0:0:0:
248,136,78461,2,0,P|188:144|124:112,1,120,0|8,0:0|0:0,0:0:0:0:
32,92,79150,2,0,B|4:132|8:172|8:172|44:212,1,120,4|0,0:0|0:0,0:0:0:0:
80,220,79667,2,0,P|137:238|182:294,1,120,0|0,0:0|0:0,0:0:0:0:
216,316,80185,1,8,0:0:0:0:
260,348,80357,6,0,P|356:348|388:260,1,180,4|8,0:0|0:0,0:0:0:0:
384,172,81219,1,0,0:0:0:0:
304,100,81564,1,8,0:0:0:0:
196,120,81909,6,0,P|199:155|200:196,2,60,4|0|8,0:0|0:0|0:0,0:0:0:0:
188,68,82426,2,0,P|140:52|68:100,1,120,0|0,0:0|0:0,0:0:0:0:
64,132,82943,2,0,P|74:181|151:219,2,120,8|4|8,0:0|0:0|0:0,0:0:0:0:
108,32,83978,5,2,0:0:0:0:
216,40,84323,1,8,0:0:0:0:
296,112,84667,2,0,B|302:143|302:143|324:196|324:196|332:235,1,120,2|8,0:0|0:0,0:0:0:0:
368,328,85357,2,0,P|472:304|460:180,1,240,0|4,0:0|0:0,0:0:0:0:
256,192,86219,12,4,88805,0:0:0:0:
84,80,99840,6,0,P|32:152|64:236,2,180.000006866455,4|2|4,0:0|0:0|3:0,0:0:0:0:
192,84,101564,1,2,0:0:0:0:
256,168,101909,2,0,L|256:272,2,90.0000034332277,0|2|4,0:0|0:0|3:0,0:0:0:0:
320,84,102943,5,2,0:0:0:0:
428,88,103288,1,0,0:0:0:0:
484,180,103633,1,2,0:0:0:0:
484,180,103805,2,0,B|488:228|472:264|472:264|416:280,1,135.000005149841,0|2,0:0|0:0,0:0:0:0:
316,292,104667,2,0,P|276:288|231:264,2,90.0000034332277,0|2|4,0:0|0:0|3:0,0:0:0:0:
368,196,105702,5,8,0:0:0:0:
316,92,106047,2,0,P|276:96|231:119,1,90.0000034332277,2|8,0:0|0:0,0:0:0:0:
184,140,106564,2,0,B|144:140|120:168|120:168|49:125,1,135.000005149841,2|8,0:0|0:0,0:0:0:0:
120,44,107426,1,2,0:0:0:0:
228,60,107771,1,8,0:0:0:0:
264,161,108116,6,0,P|276:208|288:253,1,90.0000034332277,4|8,0:1|0:0,0:0:0:0:
316,352,108805,2,0,P|360:352|404:316,1,90.0000034332277,2|8,0:0|0:0,0:0:0:0:
436,292,109323,2,0,P|440:220|396:156,1,135.000005149841,2|8,0:0|0:0,0:0:0:0:
356,72,110185,5,2,0:0:0:0:
256,116,110530,1,8,0:0:0:0:
156,72,110874,1,4,0:1:0:0:
256,192,111047,12,4,116392,0:1:0:0:
44,116,119150,5,2,0:0:0:0:
132,180,119495,1,2,0:3:0:0:
152,72,119840,1,2,2:2:0:0:
360,72,120530,5,2,3:0:0:0:
468,116,120874,1,2,3:0:0:0:
380,180,121219,2,0,L|392:256,1,60,0|0,0:0|0:0,0:0:0:0:
336,244,121564,2,0,L|348:320,1,60,0|0,0:0|0:0,0:0:0:0:
348,356,121909,6,0,P|280:368|224:324,1,120,6|8,0:0|0:0,0:0:0:0:
212,296,122426,2,0,B|200:257|200:257|196:211|196:211|184:172,1,120,2|0,0:0|0:0,0:0:0:0:
172,128,122943,2,0,P|84:136|56:216,2,180,10|2|2,0:0|0:0|0:0,0:0:0:0:
256,196,124323,1,8,0:0:0:0:
356,232,124667,6,0,P|416:236|480:188,1,120,2|8,0:0|0:0,0:0:0:0:
488,156,125185,1,2,0:0:0:0:
452,56,125530,1,0,0:0:0:0:
452,56,125702,2,0,P|373:50|290:113,2,180,10|2|2,0:0|0:0|0:0,0:0:0:0:
488,156,127081,1,8,0:0:0:0:
436,252,127426,6,0,P|380:264|316:232,1,120,2|8,0:0|0:0,0:0:0:0:
284,204,127943,2,0,B|277:169|277:169|256:119|256:119|250:75,1,120,2|0,0:0|0:0,0:0:0:0:
228,40,128461,2,0,P|140:36|96:108,2,180,10|2|2,0:0|0:0|0:0,0:0:0:0:
332,68,129840,1,8,0:0:0:0:
412,140,130185,6,0,P|422:205|388:274,1,120,2|8,0:0|0:0,0:0:0:0:
364,292,130702,2,0,P|298:302|229:268,1,120,2|0,0:0|0:0,0:0:0:0:
216,240,131219,2,0,P|205:174|239:105,1,120,10|0,0:0|0:0,0:0:0:0:
264,88,131736,2,0,P|329:77|398:111,1,120,2|0,0:0|0:0,0:0:0:0:
412,140,132254,1,0,0:0:0:0:
472,228,132598,1,8,0:0:0:0:
420,324,132943,6,0,P|354:334|285:300,1,120,4|8,0:0|0:0,0:0:0:0:
224,244,133633,1,0,0:0:0:0:
208,136,133978,1,8,0:0:0:0:
280,56,134323,1,4,0:0:0:0:
280,56,134495,2,0,P|312:113|303:190,2,120,0|0|0,0:0|0:0|0:0,0:0:0:0:
228,44,135357,1,8,0:0:0:0:
176,36,135530,6,0,B|100:52|100:52|64:96|84:168,1,180,4|8,0:0|0:0,0:0:0:0:
92,256,136392,1,0,0:0:0:0:
168,332,136736,1,8,0:0:0:0:
272,308,137081,5,4,0:0:0:0:
272,308,137254,2,0,P|324:284|400:288,1,120,0|0,0:0|0:0,0:0:0:0:
484,328,137943,2,0,P|465:358|431:379,2,60,0|8|0,0:0|0:0|0:0,0:0:0:0:
484,272,138461,2,0,B|476:236|476:236|476:189|476:189|469:152,1,120,4|8,0:0|0:0,0:0:0:0:
448,48,139150,5,2,0:0:0:0:
344,80,139495,1,8,0:0:0:0:
256,144,139840,2,0,L|256:220,2,60,2|0|8,0:0|0:0|0:0,0:0:0:0:
168,80,140530,1,2,0:0:0:0:
64,48,140874,1,8,0:0:0:0:
8,140,141219,6,0,B|4:192|4:192|36:208|56:256,1,120,4|8,0:0|0:0,0:0:0:0:
156,240,141909,2,0,P|188:232|224:232,2,60,2|0|8,0:0|0:0|0:0,0:0:0:0:
96,332,142598,1,2,0:0:0:0:
200,360,142943,1,8,0:0:0:0:
292,308,143288,2,0,P|352:296|416:316,1,120,2|8,0:0|0:0,0:0:0:0:
500,256,143978,5,4,0:0:0:0:
472,152,144323,1,8,0:0:0:0:
380,100,144667,2,0,P|324:125|284:179,1,120,0|8,0:0|0:0,0:0:0:0:
224,256,145357,2,0,B|180:268|144:252|144:252|108:280,1,120,4|0,0:0|0:0,0:0:0:0:
64,292,145874,2,0,P|28:256|32:188,1,120,2|0,2:2|0:0,0:0:0:0:
68,148,146392,1,8,0:0:0:0:
112,116,146564,6,0,B|168:88|236:104|236:104|248:176,1,180,4|8,0:0|0:0,0:0:0:0:
256,264,147426,1,0,0:0:0:0:
340,332,147771,1,8,0:0:0:0:
444,296,148116,6,0,P|464:316|480:348,2,60,4|0|8,0:0|0:0|0:0,0:0:0:0:
420,240,148633,2,0,B|428:208|428:208|424:148|424:148|432:120,1,120,0|0,0:0|0:0,0:0:0:0:
440,68,149150,1,8,0:0:0:0:
332,52,149495,1,4,0:0:0:0:
256,140,149840,1,8,0:0:0:0:
152,176,150185,6,0,P|88:180|35:148,1,120,2|8,0:0|0:0,0:0:0:0:
112,76,150874,1,2,0:0:0:0:
216,40,151219,1,8,0:0:0:0:
256,140,151564,6,0,B|244:184|272:216|256:260,2,120,0|8|4,0:0|0:0|0:0,0:0:0:0:
352,92,152598,1,8,0:0:0:0:
456,116,152943,2,0,P|472:176|452:256,1,120,0|8,0:0|0:0,0:0:0:0:
384,304,153633,2,0,P|321:300|252:256,1,120,0|8,0:0|0:0,0:0:0:0:
184,208,154323,2,0,P|121:211|71:237,1,120,0|8,0:0|0:0,0:0:0:0:
16,144,155012,6,2,P|92:105|184:100,1,180,6|0,0:0|1:0,0:0:0:0:
292,124,155874,1,2,0:3:0:0:
292,124,156047,1,8,0:0:0:0:
372,196,156392,2,2,P|377:255|353:309,1,120,0|8,0:0|0:0,0:0:0:0:
256,264,157081,2,0,L|256:196,2,60,2|2|8,0:3|0:3|0:0,0:0:0:0:
159,309,157771,6,2,P|122:229|130:140,1,180,0|0,0:0|1:0,0:0:0:0:
196,52,158633,1,2,0:3:0:0:
196,52,158805,1,8,0:0:0:0:
292,100,159150,2,2,P|344:120|432:116,1,120,0|8,0:0|0:0,0:0:0:0:
496,184,159840,2,0,L|464:236,1,60,0|0,0:0|0:0,0:0:0:0:
412,220,160185,2,0,L|428:284,1,60,2|2,0:0|0:0,0:0:0:0:
440,332,160530,6,0,P|396:368|304:348,1,120,4|8,0:0|0:0,0:0:0:0:
256,292,161219,1,0,0:0:0:0:
256,292,161392,2,0,B|248:240|248:240|264:160|264:160|256:112,2,180,0|0|0,0:0|0:0|0:0,0:0:0:0:
256,344,162598,2,0,B|212:364|168:364|168:364|136:340,1,120,0|8,0:0|0:0,0:0:0:0:
92,252,163288,6,2,B|128:196|108:132|108:132|168:100,1,180,0|0,0:0|0:0,0:0:0:0:
256,68,164150,1,2,0:3:0:0:
256,68,164323,1,8,0:0:0:0:
312,160,164667,2,2,P|332:216|312:272,1,120,0|0,0:0|0:0,0:0:0:0:
199,270,165357,2,0,P|180:216|200:160,1,120,2|8,0:3|0:0,0:0:0:0:
256,68,166047,5,4,0:0:0:0:
