osu file format v12

[General]
AudioFilename: 04.Emergence!.mp3
AudioLeadIn: 1500
PreviewTime: 56060
Countdown: 1
SampleSet: Soft
StackLeniency: 0.7
Mode: 0
LetterboxInBreaks: 1

[Editor]
DistanceSpacing: 1
BeatDivisor: 4
GridSize: 4

[Metadata]
Title:Emergence!
TitleUnicode:Emergence!
Artist:Kurosaki Maon
ArtistUnicode:Kurosaki Maon
Creator:cRyo[iceeicee]
Version:Insane
Source:
Tags:
BeatmapID:245564
BeatmapSetID:87825

[Difficulty]
HPDrainRate:7
CircleSize:4
OverallDifficulty:7
ApproachRate:9
SliderMultiplier:1.8
SliderTickRate:1

[Events]
//Background and Video events
0,0,"BG.jpg",0,0
//Break Periods
2,89005,98723
2,116592,118550
//Storyboard Layer 0 (Background)
//Storyboard Layer 1 (Fail)
//Storyboard Layer 2 (Pass)
//Storyboard Layer 3 (Foreground)
//Storyboard Sound Samples
//Background Colour Transformations
3,100,163,162,255

[TimingPoints]
530,344.827586206897,4,2,1,40,1,0
530,-181.818181818181,4,2,1,20,0,0
616,-181.818181818181,4,2,1,30,0,0
1909,-181.818181818181,4,2,1,20,0,0
2009,-181.818181818181,4,2,1,30,0,0
3288,-181.818181818181,4,2,1,20,0,0
3388,-181.818181818181,4,2,1,30,0,0
5185,-181.818181818181,4,2,1,30,0,0
6047,-181.818181818181,4,2,1,20,0,0
6133,-181.818181818181,4,2,1,30,0,0
7426,-181.818181818181,4,2,1,20,0,0
7526,-181.818181818181,4,2,1,30,0,0
8805,-181.818181818181,4,2,1,20,0,0
8905,-181.818181818181,4,2,1,30,0,0
10961,-181.818181818181,4,2,1,5,0,0
11564,-133.333333333333,4,1,1,50,0,0
11823,-133.333333333333,4,2,1,47,0,0
12426,-133.333333333333,4,1,1,70,0,0
12526,-133.333333333333,4,2,1,47,0,0
12943,-133.333333333333,4,3,1,70,0,0
13030,-133.333333333333,4,2,1,47,0,0
13805,-133.333333333333,4,3,1,70,0,0
13905,-133.333333333333,4,2,1,47,0,0
14323,-133.333333333333,4,3,1,70,0,0
14409,-133.333333333333,4,2,1,47,0,0
15185,-133.333333333333,4,3,1,70,0,0
15285,-133.333333333333,4,2,1,47,0,0
15702,-133.333333333333,4,3,1,70,0,0
15802,-133.333333333333,4,2,1,47,0,0
16564,-133.333333333333,4,3,1,70,0,0
16650,-133.333333333333,4,2,1,47,0,0
17081,-133.333333333333,4,3,1,50,0,0
17181,-133.333333333333,4,2,1,47,0,0
17943,-133.333333333333,4,3,1,70,0,0
18043,-133.333333333333,4,2,1,47,0,0
18461,-133.333333333333,4,3,1,70,0,0
18561,-133.333333333333,4,2,1,47,0,0
19323,-133.333333333333,4,3,1,70,0,0
19423,-133.333333333333,4,2,1,47,0,0
19840,-133.333333333333,4,3,1,70,0,0
19940,-133.333333333333,4,2,1,47,0,0
20702,-133.333333333333,4,3,1,70,0,0
20788,-133.333333333333,4,2,1,47,0,0
21219,-133.333333333333,4,3,1,70,0,0
21319,-133.333333333333,4,2,1,40,0,0
21909,-133.333333333333,4,2,2,40,0,0
22081,-100,4,1,1,40,0,0
22598,-100,4,1,1,50,0,0
28030,-100,4,1,1,30,0,0
28116,-100,4,1,1,50,0,0
32167,-100,4,1,1,30,0,0
32254,-100,4,1,1,50,0,0
33719,-100,4,2,1,60,0,0
44667,-100,4,1,1,60,0,0
44840,-100,4,1,1,45,0,0
56047,-100,4,2,1,65,0,0
65357,-117.647058823529,4,1,1,60,0,0
66047,-100,4,1,1,40,0,0
66736,-100,4,1,1,50,0,0
72943,-100,4,2,1,60,0,0
74323,-100,4,3,1,45,0,0
74840,-100,4,3,1,60,0,0
75012,-100,4,1,1,60,0,0
75702,-100,4,2,1,60,0,0
76392,-100,4,3,1,40,0,0
76736,-100,4,2,1,60,0,0
77081,-100,4,1,1,40,0,0
77771,-100,4,1,1,50,0,0
83978,-100,4,2,1,60,0,0
85357,-100,4,1,1,50,0,0
86047,-100,4,1,1,50,0,0
99150,-100,4,1,1,40,0,0
99840,-133.333333333333,4,2,1,50,0,0
110874,-133.333333333333,4,2,1,60,0,0
110974,-133.333333333333,4,2,1,50,0,0
119150,-133.333333333333,4,2,1,40,0,0
121219,-100,4,1,1,40,0,0
121909,-100,4,1,1,50,0,0
131564,-100,4,1,1,40,0,0
132943,-100,4,1,1,50,0,0
139150,-100,4,2,1,60,0,0
140530,-100,4,3,1,50,0,0
141219,-100,4,1,1,50,0,0
141909,-100,4,2,1,60,0,0
142598,-100,4,3,1,50,0,0
142943,-100,4,2,1,60,0,0
143288,-100,4,1,1,40,0,0
143978,-100,4,1,1,50,0,0
150185,-100,4,2,1,60,0,0
151564,-100,4,1,1,50,0,0
151736,-100,4,3,1,50,0,0
152254,-100,4,1,1,50,0,0
155012,-133.333333333333,4,1,1,40,0,0
159840,-133.333333333333,4,3,1,40,0,0
160443,-133.333333333333,4,1,1,40,0,0

[Colours]
Combo1 : 0,152,225
Combo2 : 255,85,255
Combo3 : 47,255,255
Combo4 : 154,53,255

[HitObjects]
176,60,530,21,4,0:1:0:0:
176,60,702,1,0,0:0:0:0:
380,184,1047,1,2,0:0:0:0:
168,296,1392,5,2,0:0:0:0:
172,180,1564,1,0,0:0:0:0:
272,236,1736,1,2,0:0:0:0:
68,228,1909,5,4,0:1:0:0:
68,228,2081,1,0,0:0:0:0:
176,60,2426,1,2,0:0:0:0:
380,184,2771,5,2,0:0:0:0:
272,236,2943,1,0,0:0:0:0:
288,132,3116,1,2,0:0:0:0:
364,288,3288,5,4,0:1:0:0:
364,288,3461,1,0,0:0:0:0:
492,128,3805,1,2,0:0:0:0:
244,44,4150,5,2,0:0:0:0:
288,132,4323,1,0,0:0:0:0:
344,52,4495,1,2,0:0:0:0:
344,52,4840,5,2,0:0:0:0:
388,140,5012,1,0,0:0:0:0:
372,240,5185,2,0,P|331:259|272:256,1,99.0000030212403,2|2,0:0|0:0,0:0:0:0:
128,192,5702,2,0,L|176:176,1,49.5000015106202,0|2,0:0|0:0,0:0:0:0:
288,132,6047,5,4,0:1:0:0:
328,336,6219,1,0,0:0:0:0:
328,336,6564,1,2,0:0:0:0:
328,336,6909,5,2,0:0:0:0:
308,236,7081,1,0,0:0:0:0:
288,132,7254,1,2,0:0:0:0:
188,204,7426,5,4,0:1:0:0:
412,160,7598,1,0,0:0:0:0:
412,160,7943,1,2,0:0:0:0:
412,160,8288,5,2,0:0:0:0:
288,132,8461,1,0,0:0:0:0:
164,104,8633,1,2,0:0:0:0:
32,252,8805,5,4,0:1:0:0:
228,292,8978,1,0,0:0:0:0:
228,292,9323,1,2,0:0:0:0:
228,292,9667,5,2,0:0:0:0:
196,196,9840,1,0,0:0:0:0:
164,104,10012,1,2,0:0:0:0:
164,104,10357,6,0,P|134:108|108:116,1,49.5000015106202,2|0,0:0|0:0,0:0:0:0:
196,196,10702,2,0,P|276:192|340:164,1,148.50000453186,2|0,0:0|0:0,0:0:0:0:
424,52,11564,5,4,3:1:0:0:
424,52,11736,1,0,2:0:0:0:
420,168,11909,2,0,L|412:320,1,135.000005149842,8|0,0:0|0:0,0:0:0:0:
412,320,12340,1,2,0:0:0:0:
412,320,12426,1,0,3:0:0:0:
324,232,12598,1,8,0:0:0:0:
508,244,12771,1,0,0:0:0:0:
328,120,12943,5,0,0:0:0:0:
368,276,13116,1,0,2:0:0:0:
212,248,13288,2,0,P|140:256|80:300,1,135.000005149842,8|0,0:0|0:0,0:0:0:0:
72,308,13719,1,2,0:0:0:0:
72,308,13805,1,0,0:0:0:0:
180,352,13978,1,8,0:0:0:0:
104,188,14150,1,0,0:0:0:0:
248,88,14323,6,0,L|236:160,1,67.5000025749208,0|0,0:0|2:0,0:0:0:0:
260,328,14667,2,0,P|304:276|288:184,1,135.000005149842,8|0,0:0|0:0,0:0:0:0:
288,188,15098,1,2,0:0:0:0:
288,188,15185,1,0,0:0:0:0:
176,168,15357,1,8,0:0:0:0:
364,100,15530,1,0,0:0:0:0:
464,152,15702,6,0,P|467:187|470:219,1,67.5000025749208,0|0,0:0|0:0,0:0:0:0:
380,244,16047,2,0,P|383:279|386:311,1,67.5000025749208,8|2,0:0|0:0,0:0:0:0:
288,188,16392,1,0,2:0:0:0:
280,164,16478,1,2,0:0:0:0:
272,140,16564,1,0,3:0:0:0:
264,116,16650,1,0,0:0:0:0:
256,92,16736,2,0,P|223:87|184:84,1,67.5000025749208,8|2,0:0|0:0,0:0:0:0:
48,228,17081,6,0,P|83:231|115:235,1,67.5000025749208,4|2,0:1|0:0,0:0:0:0:
196,312,17426,2,0,P|216:268|216:216,1,101.250003862381,8|0,0:0|2:0,0:0:0:0:
204,192,17771,2,0,L|184:160,1,33.7500012874604,0|2,0:0|0:0,0:0:0:0:
140,96,17943,1,0,0:0:0:0:
296,92,18116,2,0,P|327:92|380:100,1,67.5000025749208,8|2,0:0|0:0,0:0:0:0:
440,288,18461,5,0,0:0:0:0:
304,232,18633,1,2,0:0:0:0:
400,192,18805,2,0,P|456:176|508:136,1,101.250003862381,8|0,0:0|0:0,0:0:0:0:
504,140,19150,2,0,L|483:93,1,33.7500012874604,0|2,0:0|0:0,0:0:0:0:
456,40,19323,1,0,0:0:0:0:
368,120,19495,1,8,0:0:0:0:
476,220,19667,1,2,0:0:0:0:
328,332,19840,5,0,0:0:0:0:
400,192,20012,1,2,0:0:0:0:
252,144,20185,2,0,P|220:196|228:284,1,135.000005149842,8|0,0:0|0:0,0:0:0:0:
232,284,20616,1,2,0:0:0:0:
248,296,20702,1,0,0:0:0:0:
268,300,20788,1,0,0:0:0:0:
288,300,20874,2,0,P|280:263|274:230,1,67.5000025749208,8|2,0:0|0:0,0:0:0:0:
172,216,21219,2,0,P|141:221|105:229,1,67.5000025749208,0|2,3:3|2:0,0:0:0:0:
184,128,21564,2,0,P|248:116|328:100,1,135.000005149842,8|0,0:0|1:1,0:0:0:0:
24,164,22081,5,8,0:0:0:0:
172,44,22254,1,8,0:0:0:0:
208,48,22340,1,8,0:0:0:0:
240,68,22426,1,8,0:0:0:0:
260,100,22512,1,8,0:0:0:0:
268,136,22598,2,0,P|263:180|256:248,1,90,4|2,0:3|2:0,0:0:0:0:
236,344,22943,5,8,0:0:0:0:
428,236,23116,2,0,P|380:240|338:245,1,90,4|0,0:3|0:0,0:0:0:0:
172,272,23461,1,2,2:0:0:0:
332,332,23633,1,8,0:0:0:0:
172,272,23805,1,2,2:0:0:0:
296,112,23978,5,4,0:3:0:0:
184,156,24150,1,0,1:0:0:0:
340,224,24323,2,0,P|387:204|432:192,1,90,8|4,0:0|0:3,0:0:0:0:
280,72,24667,1,2,2:2:0:0:
260,80,24754,1,2,2:0:0:0:
240,88,24840,1,0,2:0:0:0:
220,96,24926,1,2,2:0:0:0:
200,104,25012,2,0,P|152:123|108:136,1,90,8|10,1:0|2:0,0:0:0:0:
20,236,25357,5,4,0:3:0:0:
172,272,25530,1,2,2:0:0:0:
20,236,25702,1,8,0:0:0:0:
96,104,25874,2,0,P|115:150|136:196,1,90,4|0,0:3|1:0,0:0:0:0:
268,316,26219,1,2,2:2:0:0:
308,324,26305,1,0,2:0:0:0:
348,312,26392,1,8,2:0:0:0:
376,284,26478,1,0,2:0:0:0:
388,244,26564,1,2,2:2:0:0:
256,144,26736,6,0,P|265:188|296:228,1,90,4|2,0:3|2:0,0:0:0:0:
424,101,27081,2,0,P|391:70|343:55,1,90,8|4,0:0|0:3,0:0:0:0:
211,57,27426,1,2,2:2:0:0:
211,57,27512,1,2,2:2:0:0:
211,57,27598,2,0,L|145:84,1,45,0|2,0:0|2:0,0:0:0:0:
64,172,27771,1,10,0:2:0:0:
64,172,27857,1,0,2:0:0:0:
64,172,27943,2,0,L|105:189,1,45,2|0,2:0|2:0,0:0:0:0:
176,224,28116,5,4,0:3:0:0:
256,144,28288,1,2,2:0:0:0:
124,76,28461,1,8,0:0:0:0:
284,8,28633,5,4,0:3:0:0:
176,144,28805,1,2,2:0:0:0:
296,232,28978,1,0,0:0:0:0:
240,312,29150,2,0,P|183:306|150:305,1,90,8|2,0:0|2:0,0:0:0:0:
256,144,29495,6,0,P|313:150|345:150,1,90,4|2,0:3|2:0,0:0:0:0:
444,84,29840,1,8,0:0:0:0:
296,232,30012,1,4,0:3:0:0:
464,176,30185,1,2,2:0:0:0:
256,144,30357,1,0,0:3:0:0:
384,216,30530,2,0,P|408:256|412:312,1,90,8|2,0:0|2:0,0:0:0:0:
160,160,30874,6,0,P|170:113|184:44,1,90,4|2,0:3|2:0,0:0:0:0:
296,232,31219,2,0,P|286:279|277:320,1,90,8|4,0:0|0:3,0:0:0:0:
112,320,31564,1,2,2:2:0:0:
112,320,31650,1,0,2:0:0:0:
112,320,31736,2,0,L|60:328,1,45,2|0,2:0|2:0,0:0:0:0:
136,240,31909,1,8,1:1:0:0:
136,240,31995,1,0,2:0:0:0:
136,240,32081,2,0,L|84:248,1,45,2|0,2:0|2:0,0:0:0:0:
160,160,32254,6,0,P|204:156|264:140,1,90,4|0,0:3|0:0,0:0:0:0:
436,273,32598,2,0,P|392:277|348:288,1,90,8|4,0:0|0:3,0:0:0:0:
228,296,32943,2,0,L|240:348,1,45,8|8,0:0|0:0,0:0:0:0:
364,200,33116,2,0,L|353:156,1,45,8|8,0:0|0:0,0:0:0:0:
284,216,33288,2,0,L|296:268,1,45,8|8,0:0|0:0,0:0:0:0:
420,120,33461,2,0,L|409:76,1,45,8|8,0:0|0:0,0:0:0:0:
280,68,33633,6,0,P|200:124|104:124,1,180,4|8,0:0|0:0,0:0:0:0:
120,128,34150,1,0,0:0:0:0:
116,236,34323,2,0,P|68:228|24:220,1,90,0|0,3:3|3:3,0:0:0:0:
176,44,34667,1,8,0:0:0:0:
228,160,34840,2,0,P|276:168|320:176,1,90,0|0,0:0|3:0,0:0:0:0:
448,108,35185,5,2,0:0:0:0:
356,264,35357,1,8,0:0:0:0:
484,232,35530,1,0,3:3:0:0:
344,160,35702,1,0,2:0:0:0:
312,156,35788,1,0,0:0:0:0:
280,152,35874,1,0,3:0:0:0:
168,232,36047,2,0,P|120:224|68:212,1,90,8|8,0:0|0:0,0:0:0:0:
316,52,36392,1,4,3:3:0:0:
316,52,36736,6,0,P|323:93|332:144,1,90,8|0,0:0|0:0,0:0:0:0:
356,264,37081,1,0,3:0:0:0:
424,180,37254,1,0,3:0:0:0:
260,216,37426,1,8,2:0:0:0:
376,348,37598,2,0,P|424:344|462:322,1,90,0|0,0:0|3:3,0:0:0:0:
440,152,37943,5,0,0:0:0:0:
356,264,38116,1,8,0:0:0:0:
496,248,38288,1,0,3:3:0:0:
332,136,38461,1,0,2:3:0:0:
332,136,38547,1,0,0:0:0:0:
332,136,38633,1,0,3:0:0:0:
168,208,38805,2,0,P|175:250|182:296,1,90,8|8,0:0|0:0,0:0:0:0:
260,216,39150,2,0,P|247:144|237:82,1,135,4|0,3:0|2:0,0:0:0:0:
237,83,39495,6,0,P|188:97|112:105,1,90,8|0,0:0|0:0,0:0:0:0:
40,120,39840,1,0,3:0:0:0:
168,208,40012,1,0,3:0:0:0:
52,236,40185,1,8,0:0:0:0:
196,320,40357,2,0,P|239:306|292:304,1,90,0|0,0:0|3:0,0:0:0:0:
372,144,40702,1,0,0:0:0:0:
432,220,40874,2,0,P|387:235|336:236,1,90,8|0,0:0|3:0,0:0:0:0:
224,116,41219,5,0,2:0:0:0:
224,116,41305,1,0,0:0:0:0:
224,116,41392,1,0,3:0:0:0:
272,260,41564,1,8,0:0:0:0:
372,144,41736,1,8,0:0:0:0:
208,104,41909,6,0,P|162:115|107:122,1,90,4|0,3:0|0:0,0:0:0:0:
284,280,42254,2,0,P|329:268|384:261,1,90,8|0,0:0|0:0,0:0:0:0:
168,224,42598,1,0,3:0:0:0:
372,144,42771,1,0,3:0:0:0:
224,60,42943,1,8,0:0:0:0:
168,224,43116,6,0,P|120:216|72:212,1,90,0|0,0:0|3:0,0:0:0:0:
232,88,43461,1,0,0:0:0:0:
372,144,43633,2,0,P|420:152|468:156,1,90,8|0,0:0|0:0,0:0:0:0:
360,356,43978,5,0,2:0:0:0:
324,352,44064,1,0,0:0:0:0:
292,332,44150,1,0,2:0:0:0:
272,300,44236,1,0,0:0:0:0:
264,264,44323,2,0,P|269:220|276:152,1,90,8|0,0:0|0:0,0:0:0:0:
48,80,44667,5,4,0:0:0:0:
372,144,45012,6,0,P|416:148|484:148,1,90,10|0,0:0|0:0,0:0:0:0:
328,52,45357,1,2,0:0:0:0:
272,184,45530,2,0,P|228:180|160:180,1,90,2|8,0:0|0:0,0:0:0:0:
40,308,45874,6,2,P|80:292|116:252,1,90,2|0,0:0|0:0,0:0:0:0:
48,80,46219,2,2,P|59:129|96:184,1,90,2|8,0:0|0:0,0:0:0:0:
208,336,46564,2,0,P|240:304|264:236,1,90,2|0,0:0|0:0,0:0:0:0:
224,68,46909,1,2,0:0:0:0:
224,68,46995,1,0,0:0:0:0:
224,68,47081,2,0,P|192:100|168:168,1,90,10|10,0:0|0:0,0:0:0:0:
336,324,47426,2,0,P|364:256|344:184,1,135,4|0,0:0|2:0,0:0:0:0:
336,184,47771,6,0,P|292:196|248:205,1,90,10|0,0:0|0:0,0:0:0:0:
80,88,48116,1,2,0:0:0:0:
64,196,48288,2,0,P|108:184|152:175,1,90,2|8,0:0|0:0,0:0:0:0:
260,340,48633,6,0,P|212:328|180:296,1,90,2|0,0:0|0:0,0:0:0:0:
224,68,48978,1,2,0:0:0:0:
180,208,49150,1,8,0:0:0:0:
336,264,49323,2,0,P|376:248|423:242,1,90,2|0,0:0|0:0,0:0:0:0:
444,236,49581,1,0,0:0:0:0:
448,216,49667,1,2,0:0:0:0:
452,192,49754,1,0,0:0:0:0:
456,168,49840,2,0,L|468:60,1,90,8|10,0:0|0:0,0:0:0:0:
224,68,50185,5,4,0:0:0:0:
132,324,50530,6,0,P|180:308|236:296,1,90,10|0,0:0|0:0,0:0:0:0:
336,264,50874,1,2,0:0:0:0:
312,168,51047,1,2,0:0:0:0:
452,192,51219,1,8,0:0:0:0:
292,344,51392,6,0,P|260:312|248:260,1,90,2|0,0:0|0:0,0:0:0:0:
390,136,51736,1,2,0:0:0:0:
336,264,51909,1,8,0:0:0:0:
216,176,52081,2,2,P|172:188|136:216,1,90,2|0,0:0|0:0,0:0:0:0:
124,216,52340,5,0,0:0:0:0:
124,216,52426,2,0,L|80:208,1,45,2|0,0:0|0:0,0:0:0:0:
8,192,52598,1,10,0:0:0:0:
88,72,52771,1,10,0:0:0:0:
216,176,52943,2,0,P|223:225|228:272,1,90,4|0,0:0|2:0,0:0:0:0:
387,285,53288,6,0,P|380:236|376:196,1,90,10|0,0:0|0:0,0:0:0:0:
452,108,53633,1,2,0:0:0:0:
376,196,53805,1,2,0:0:0:0:
336,86,53978,1,8,0:0:0:0:
452,108,54150,6,0,P|462:153|476:196,1,90,2|0,0:0|0:0,0:0:0:0:
308,336,54495,2,0,P|297:290|284:248,2,90,2|8|2,0:0|0:0|0:0,0:0:0:0:
168,288,55012,5,0,0:0:0:0:
148,280,55098,1,0,0:0:0:0:
128,272,55185,2,0,L|80:248,1,45,2|0,0:0|0:0,0:0:0:0:
64,152,55357,1,8,0:0:0:0:
84,160,55443,1,0,0:0:0:0:
104,168,55530,2,0,L|152:192,1,45,2|0,0:0|0:0,0:0:0:0:
220,152,55702,6,0,P|280:112|368:140,1,135,4|0,0:0|2:0,0:0:0:0:
339,119,56047,2,0,P|351:164|364:216,1,90,8|0,0:0|0:0,0:0:0:0:
384,308,56392,1,0,3:0:0:0:
464,236,56564,1,0,3:0:0:0:
280,280,56736,1,8,0:0:0:0:
464,236,56909,2,0,P|453:193|441:148,1,90,0|0,0:0|3:0,0:0:0:0:
408,48,57254,5,0,0:0:0:0:
364,208,57426,1,8,0:0:0:0:
216,84,57598,1,0,3:0:0:0:
339,119,57771,5,0,0:0:0:0:
339,119,57857,1,0,0:0:0:0:
339,119,57943,2,0,L|399:135,1,45,0|0,3:0|0:0,0:0:0:0:
468,148,58116,1,8,0:0:0:0:
312,36,58288,1,8,0:0:0:0:
248,180,58461,2,0,P|194:184|158:188,1,90,4|0,3:0|0:0,0:0:0:0:
52,196,58805,5,8,0:0:0:0:
112,104,58978,1,0,0:0:0:0:
216,280,59150,1,0,3:0:0:0:
36,224,59323,1,0,3:0:0:0:
176,148,59495,1,8,0:0:0:0:
48,64,59667,1,0,0:0:0:0:
48,64,59754,1,0,0:0:0:0:
48,64,59840,1,0,3:0:0:0:
128,220,60012,5,0,0:0:0:0:
264,96,60185,1,8,0:0:0:0:
312,292,60357,1,0,3:0:0:0:
449,172,60530,1,0,0:0:0:0:
419,162,60616,1,0,0:0:0:0:
387,158,60702,1,0,3:0:0:0:
358,167,60788,1,0,0:0:0:0:
328,176,60874,2,0,P|283:194|228:191,1,90,8|8,0:0|0:0,0:0:0:0:
96,320,61219,2,0,P|142:324|186:328,1,90,4|0,3:3|0:0,0:0:0:0:
312,292,61564,5,8,0:0:0:0:
216,216,61736,1,0,0:0:0:0:
352,120,61909,1,0,3:0:0:0:
320,260,62081,1,0,3:0:0:0:
192,192,62254,1,8,0:0:0:0:
360,100,62426,2,0,L|404:108|448:116,1,90,0|0,0:0|3:0,0:0:0:0:
448,268,62771,5,0,0:0:0:0:
304,348,62943,2,0,P|312:302|320:260,1,90,8|0,0:0|3:0,0:0:0:0:
244,88,63288,1,0,0:0:0:0:
244,88,63374,1,0,0:0:0:0:
244,88,63461,1,0,3:0:0:0:
308,208,63633,1,8,0:0:0:0:
192,192,63805,1,8,0:0:0:0:
360,100,63978,6,0,P|405:107|460:112,1,90,4|0,3:0|0:0,0:0:0:0:
192,192,64323,2,0,P|146:184|92:180,1,90,8|0,0:0|0:0,0:0:0:0:
48,260,64667,1,0,3:0:0:0:
68,92,64840,1,0,3:0:0:0:
192,192,65012,2,0,P|198:238|203:281,1,90,8|0,0:0|0:0,0:0:0:0:
321,326,65357,6,0,P|352:304|384:272,1,76.5000014591217,0|0,0:0|2:0,0:0:0:0:
508,152,65702,2,0,P|477:174|445:206,1,76.5000014591217,0|0,0:0|2:0,0:0:0:0:
320,188,66047,6,0,L|380:192,1,45,8|8,0:0|0:0,0:0:0:0:
512,288,66219,2,0,L|452:284,1,45,8|8,0:0|0:0,0:0:0:0:
368,328,66392,2,0,L|372:268,1,45,8|8,0:0|0:0,0:0:0:0:
468,136,66564,2,0,L|464:196,1,45,8|8,0:0|0:0,0:0:0:0:
360,100,66736,6,0,P|307:108|256:112,1,90,4|0,0:0|0:0,0:0:0:0:
80,208,67081,2,0,P|132:199|169:196,1,90,8|0,0:0|0:0,0:0:0:0:
271,111,67426,1,0,0:0:0:0:
204,40,67598,1,0,0:0:0:0:
169,196,67771,1,8,0:0:0:0:
320,104,67943,1,0,0:0:0:0:
80,72,68116,5,4,0:0:0:0:
224,120,68288,1,0,0:0:0:0:
80,208,68461,1,8,0:0:0:0:
212,292,68633,2,0,P|252:264|272:212,1,90,0|2,0:0|0:2,0:0:0:0:
280,200,68892,5,0,0:0:0:0:
280,200,68978,2,0,L|324:188,1,45,0|0,0:2|0:0,0:0:0:0:
404,168,69150,1,8,0:0:0:0:
444,312,69323,2,0,P|400:300|369:268,1,90,0|4,0:0|0:0,0:0:0:0:
320,104,69667,5,0,0:0:0:0:
428,148,69840,1,8,0:0:0:0:
456,36,70012,1,0,0:0:0:0:
280,96,70185,5,0,0:0:0:0:
468,152,70357,1,0,0:0:0:0:
312,256,70530,1,8,0:0:0:0:
136,204,70702,2,0,P|184:194|224:186,1,90,0|4,0:0|0:0,0:0:0:0:
188,36,71047,1,0,0:0:0:0:
188,36,71133,1,0,0:0:0:0:
188,36,71219,1,8,0:0:0:0:
76,104,71392,2,0,P|67:144|57:192,1,90
60,208,71650,5,0,0:0:0:0:
64,224,71736,2,0,L|84:284,1,45
100,368,71909,2,0,L|136:332,1,45,8|0,0:0|0:0,0:0:0:0:
220,280,72081,2,0,L|172:260,1,45,8|0,0:0|0:0,0:0:0:0:
176,172,72254,2,0,P|220:160|264:156,1,90,4|0,0:0|0:0,0:0:0:0:
444,280,72598,2,0,P|460:236|456:190,1,90,8|0,0:0|2:0,0:0:0:0:
364,32,72943,5,2,0:0:0:0:
352,44,73030,1,0,0:0:0:0:
356,60,73116,1,0,0:0:0:0:
344,76,73202,1,0,0:0:0:0:
348,92,73288,1,10,0:0:0:0:
336,104,73374,1,0,0:0:0:0:
344,120,73461,1,0,0:0:0:0:
332,132,73547,1,0,0:0:0:0:
340,148,73633,5,2,0:0:0:0:
304,132,73719,1,0,0:0:0:0:
264,132,73805,1,2,0:0:0:0:
224,144,73892,1,0,0:0:0:0:
196,172,73978,1,10,0:0:0:0:
180,208,74064,1,0,0:0:0:0:
184,248,74150,1,2,0:0:0:0:
208,280,74236,1,0,0:0:0:0:
244,300,74323,6,0,L|304:316,1,45,0|0,0:0|0:0,0:0:0:0:
156,356,74495,2,0,L|112:344,1,45,0|0,0:0|0:0,0:0:0:0:
260,216,74667,2,0,L|303:204,1,45,0|0,0:0|0:0,0:0:0:0:
124,164,74840,2,0,L|80:175,1,45,0|0,0:0|0:0,0:0:0:0:
0,204,75012,6,0,P|-4:144|48:89,1,135,0|0,0:0|2:0,0:0:0:0:
64,76,75357,2,0,P|112:84|160:84,1,90,0|0,0:0|2:0,0:0:0:0:
296,48,75702,5,2,0:0:0:0:
328,56,75788,1,0,0:0:0:0:
352,76,75874,1,0,2:0:0:0:
368,104,75961,1,0,0:0:0:0:
372,136,76047,1,10,0:0:0:0:
372,168,76133,1,0,0:0:0:0:
356,196,76219,1,0,2:0:0:0:
336,220,76305,1,0,0:0:0:0:
308,232,76392,6,0,L|256:240,3,45
360,328,76736,2,0,L|404:321,3,45,10|0|2|0,0:0|0:0|0:0|0:0,0:0:0:0:
448,308,77081,5,0,0:0:0:0:
484,280,77167,1,0,0:0:0:0:
500,236,77254,1,0,0:0:0:0:
508,192,77340,1,0,0:0:0:0:
500,148,77426,1,8,0:0:0:0:
484,108,77512,1,0,0:0:0:0:
452,76,77598,1,0,0:0:0:0:
408,60,77685,1,0,0:0:0:0:
364,64,77771,6,0,P|323:73|275:78,1,90,4|0,0:0|0:0,0:0:0:0:
104,196,78116,2,0,P|145:187|192:181,1,90,8|0,0:0|0:0,0:0:0:0:
340,232,78461,1,0,0:0:0:0:
240,256,78633,1,0,0:0:0:0:
300,136,78805,1,8,0:0:0:0:
392,320,78978,5,0,0:0:0:0:
136,280,79150,1,4,0:0:0:0:
300,136,79323,2,0,P|340:156|396:168,1,90,0|8,0:0|0:0,0:0:0:0:
180,76,79667,2,0,P|136:86|96:106,1,90,0|8,0:0|0:0,0:0:0:0:
72,136,79926,1,2,0:2:0:0:
72,136,80012,2,0,L|60:196,1,45,2|0,0:2|1:0,0:0:0:0:
40,260,80185,1,0,0:2:0:0:
220,316,80357,6,0,P|215:270|208:212,1,90,0|4,0:0|0:0,0:0:0:0:
372,88,80702,2,0,P|377:134|384:192,1,90,0|0,0:0|0:0,0:0:0:0:
256,228,81047,5,0,0:0:0:0:
332,312,81219,1,0,0:0:0:0:
256,228,81392,1,0,0:0:0:0:
380,176,81564,1,8,0:0:0:0:
160,128,81736,1,0,0:0:0:0:
384,44,81909,5,4,0:0:0:0:
252,32,82081,1,0,0:0:0:0:
252,32,82167,1,0,0:0:0:0:
252,32,82254,1,8,0:0:0:0:
132,144,82426,2,0,P|137:189|140:240,1,90,0|0,0:2|0:0,0:0:0:0:
300,344,82771,1,0,0:0:0:0:
300,344,82857,1,0,0:0:0:0:
300,344,82943,2,0,P|295:299|292:248,1,90,0|0,0:2|0:0,0:0:0:0:
162,62,83288,6,0,P|138:98|132:144,1,90,4|0,0:0|0:0,0:0:0:0:
368,284,83633,2,0,P|392:248|396:184,1,90,0|0,0:0|0:0,0:0:0:0:
301,87,83978,5,2,0:0:0:0:
273,95,84064,1,0,0:0:0:0:
249,115,84150,1,0,2:0:0:0:
237,143,84236,1,0,0:0:0:0:
233,175,84323,1,2,0:0:0:0:
241,203,84409,1,0,0:0:0:0:
261,227,84495,1,0,2:0:0:0:
289,239,84581,1,0,0:0:0:0:
361,198,84667,5,2,0:0:0:0:
376,225,84754,1,0,0:0:0:0:
378,257,84840,1,2,0:0:0:0:
368,283,84926,1,0,0:0:0:0:
348,307,85012,1,2,0:0:0:0:
318,322,85098,1,0,0:0:0:0:
288,323,85185,1,2,0:0:0:0:
258,313,85271,1,2,2:0:0:0:
229,307,85357,6,0,L|181:319,1,45
108,256,85530,2,0,L|92:308,1,45,0|0,0:0|0:0,0:0:0:0:
0,208,85702,2,0,L|43:197,1,45,0|0,0:0|0:0,0:0:0:0:
88,120,85874,2,0,L|74:76,1,45,0|0,0:0|0:0,0:0:0:0:
172,168,86047,6,0,P|216:162|261:157,1,90,4|0,0:0|0:0,0:0:0:0:
396,132,86392,1,8,0:0:0:0:
396,132,86564,1,8,0:0:0:0:
452,276,86736,6,0,L|407:281|362:286,1,90,0|0,0:0|0:0,0:0:0:0:
228,308,87081,1,8,0:0:0:0:
228,308,87254,1,8,0:0:0:0:
124,224,87426,6,0,P|76:224|20:192,1,90,0|8,0:0|0:0,0:0:0:0:
38,207,87685,1,0,0:0:0:0:
38,207,87771,2,0,P|48:157|60:96,1,90,8|0,0:0|0:0,0:0:0:0:
196,52,88116,1,8,0:0:0:0:
196,52,88202,1,0,0:0:0:0:
196,52,88288,1,8,0:0:0:0:
296,260,88461,5,0,0:0:0:0:
340,256,88547,1,0,0:0:0:0:
380,232,88633,1,8,0:0:0:0:
400,192,88719,1,0,0:0:0:0:
396,148,88805,1,4,0:0:0:0:
116,80,99323,6,0,L|152:112,1,45
79,207,99495,2,0,L|88:160,1,45
207,176,99667,2,0,L|162:191,1,45
220,88,99840,6,0,P|284:88|348:128,1,135.000005149842,4|2,0:0|0:0,0:0:0:0:
376,204,100357,1,0,0:0:0:0:
324,276,100530,2,0,P|300:304|280:328,1,67.5000025749208,0|2,0:0|0:0,0:0:0:0:
440,280,100874,2,0,P|464:252|476:224,1,67.5000025749208,0|0,0:0|0:0,0:0:0:0:
292,148,101219,5,2,0:0:0:0:
412,112,101392,1,0,0:0:0:0:
376,204,101564,1,2,0:0:0:0:
260,136,101736,1,0,0:0:0:0:
192,224,101909,5,2,0:0:0:0:
180,228,101995,1,0,0:0:0:0:
168,232,102081,1,2,0:0:0:0:
156,236,102167,1,0,0:0:0:0:
144,240,102254,2,0,P|108:251|76:260,1,67.5000025749208,2|0,0:0|0:0,0:0:0:0:
72,100,102598,1,4,0:2:0:0:
72,100,102943,5,2,0:0:0:0:
144,136,103116,1,0,0:0:0:0:
140,56,103288,1,0,0:0:0:0:
36,104,103461,5,2,0:0:0:0:
104,204,103633,1,0,0:0:0:0:
216,156,103805,2,0,P|256:188|272:244,1,101.250003862381,2|0,0:0|0:0,0:0:0:0:
272,272,104150,2,0,P|280:240|308:212,1,67.5000025749208,2|0,0:0|0:0,0:0:0:0:
428,112,104495,5,2,0:0:0:0:
468,200,104667,1,0,0:0:0:0:
468,200,104754,1,0,0:0:0:0:
468,200,104840,2,0,L|488:248,1,33.7500012874604
400,272,105012,1,2,0:0:0:0:
400,272,105098,1,0,0:0:0:0:
400,272,105185,2,0,L|380:320,1,33.7500012874604
324,364,105357,6,0,P|260:372|192:332,1,135.000005149842,4|8,0:1|0:0,0:0:0:0:
164,260,105874,1,0,0:0:0:0:
196,180,106047,2,0,P|224:200|244:244,1,67.5000025749208,2|0,0:0|0:0,0:0:0:0:
96,300,106392,1,8,0:0:0:0:
124,140,106564,2,0,P|148:112|180:100,1,67.5000025749208,2|0,0:0|0:0,0:0:0:0:
284,136,106909,5,2,0:0:0:0:
284,136,106995,1,0,0:0:0:0:
284,136,107081,2,0,P|316:148|356:152,1,67.5000025749208,8|0,0:0|0:0,0:0:0:0:
464,136,107426,1,2,0:0:0:0:
480,108,107512,1,0,0:0:0:0:
476,76,107598,1,0,0:0:0:0:
456,48,107685,1,0,0:0:0:0:
424,36,107771,2,0,P|400:56|352:72,1,67.5000025749208,8|0,0:0|0:0,0:0:0:0:
208,112,108116,6,0,P|207:162|235:202,1,101.250003862381,4|0,0:1|0:0,0:0:0:0:
256,228,108461,2,0,P|256:264|244:300,1,67.5000025749208,8|0,0:0|0:0,0:0:0:0:
116,348,108805,1,2,0:0:0:0:
88,328,108892,1,0,0:0:0:0:
72,296,108978,1,0,0:0:0:0:
68,264,109064,1,0,0:0:0:0:
76,232,109150,1,8,0:0:0:0:
160,200,109323,6,0,P|160:236|148:276,1,67.5000025749208,2|0,0:0|0:0,0:0:0:0:
24,152,109667,1,2,0:0:0:0:
24,152,109840,1,8,0:0:0:0:
140,48,110012,1,2,0:0:0:0:
256,176,110185,1,0,0:0:0:0:
284,196,110271,1,0,0:0:0:0:
316,200,110357,1,0,0:0:0:0:
348,196,110443,1,0,0:0:0:0:
372,172,110530,2,0,P|352:144|312:120,1,67.5000025749208,8|0,0:0|0:0,0:0:0:0:
64,76,110874,5,4,0:1:0:0:
256,192,111047,12,4,116392,0:1:0:0:
96,88,119150,5,0,0:0:0:0:
104,92,119236,1,0,0:0:0:0:
112,96,119323,1,0,0:0:0:0:
120,100,119409,1,0,0:0:0:0:
128,104,119495,1,0,0:0:0:0:
136,108,119581,1,0,0:0:0:0:
144,112,119667,1,0,0:0:0:0:
152,116,119754,1,0,0:0:0:0:
160,120,119840,2,0,P|212:120|264:96,1,101.250003862381
280,92,120185,2,0,L|332:96,2,33.7500012874604
184,196,120530,5,0,0:0:0:0:
188,212,120616,1,0,0:0:0:0:
192,228,120702,1,0,0:0:0:0:
196,244,120788,1,0,0:0:0:0:
200,260,120874,1,0,0:0:0:0:
204,276,120961,1,0,0:0:0:0:
208,292,121047,1,0,0:0:0:0:
212,308,121133,1,0,0:0:0:0:
216,328,121219,6,0,L|232:392,1,45
304,312,121392,2,0,L|328:264,1,45
396,216,121564,2,0,L|412:280,1,45
484,196,121736,2,0,L|508:148,1,45
480,68,121909,6,0,P|400:60|312:108,1,180,6|8,0:0|0:0,0:0:0:0:
224,172,122426,1,2,0:0:0:0:
116,148,122598,2,0,P|73:138|8:124,1,90,2|0,0:0|0:0,0:0:0:0:
96,296,122943,1,10,0:0:0:0:
204,272,123116,2,2,P|247:262|312:248,1,90,0|0,0:0|0:0,0:0:0:0:
400,140,123461,5,2,0:0:0:0:
400,140,123547,1,0,0:0:0:0:
400,140,123633,2,0,P|395:187|390:229,1,90,10|0,0:0|0:0,0:0:0:0:
388,344,123978,1,2,0:0:0:0:
416,360,124064,1,0,0:0:0:0:
448,364,124150,1,0,0:0:0:0:
476,352,124236,1,0,0:0:0:0:
500,324,124323,2,0,P|504:281|509:234,1,90,10|8,0:0|0:0,0:0:0:0:
408,88,124667,5,6,0:0:0:0:
316,176,124840,1,0,0:0:0:0:
436,212,125012,1,8,0:0:0:0:
388,64,125185,2,0,P|344:72|296:76,1,90,2|2,0:0|0:0,0:0:0:0:
176,216,125530,1,0,0:0:0:0:
60,136,125702,2,0,P|104:128|149:124,1,90,10|2,0:0|0:0,0:0:0:0:
356,160,126047,5,0,0:0:0:0:
256,72,126219,1,2,0:0:0:0:
176,216,126392,2,2,P|181:258|187:305,1,90,10|0,0:0|0:0,0:0:0:0:
332,320,126736,5,2,0:0:0:0:
332,320,126823,1,0,0:0:0:0:
332,320,126909,2,0,L|372:284,1,45
444,256,127081,1,10,0:0:0:0:
444,256,127167,1,0,0:0:0:0:
444,256,127254,2,0,L|410:225,1,45,8|0,0:0|0:0,0:0:0:0:
356,160,127426,6,0,P|387:131|432:92,1,90,6|0,0:0|0:0,0:0:0:0:
256,72,127771,1,10,0:0:0:0:
176,216,127943,6,0,P|144:187|100:148,1,90,2|0,0:0|0:0,0:0:0:0:
272,128,128288,1,2,0:0:0:0:
384,272,128461,6,0,P|415:243|460:204,1,90,10|0,0:0|0:0,0:0:0:0:
288,184,128805,1,2,0:0:0:0:
208,324,128978,6,0,P|176:295|132:256,1,90,2|8,0:0|0:0,0:0:0:0:
28,148,129323,1,2,0:0:0:0:
108,60,129495,1,2,0:0:0:0:
108,60,129581,1,0,0:0:0:0:
108,60,129667,1,0,0:0:0:0:
108,60,129754,1,0,0:0:0:0:
108,60,129840,2,0,P|140:100|148:152,1,90,10|8,0:0|0:0,0:0:0:0:
100,336,130185,5,6,0:0:0:0:
168,224,130357,1,0,0:0:0:0:
312,296,130530,1,10,0:0:0:0:
360,136,130702,2,0,L|312:144|264:152,1,90,2|0,0:0|0:0,0:0:0:0:
208,312,131047,1,0,0:0:0:0:
424,264,131219,2,0,P|440:224|440:176,1,90,10|0,0:0|0:0,0:0:0:0:
400,52,131564,5,0,0:0:0:0:
400,52,131736,1,12,0:3:0:0:
240,120,131909,1,0,0:0:0:0:
240,120,132081,1,12,0:3:0:0:
96,196,132254,1,2,0:0:0:0:
100,212,132340,1,0,0:0:0:0:
104,228,132426,1,0,0:0:0:0:
108,244,132512,1,0,0:0:0:0:
112,260,132598,2,0,L|124:296,6,22.5
168,296,132943,6,0,P|216:300|268:312,1,90,4|0,0:0|0:0,0:0:0:0:
456,260,133288,2,0,P|408:256|356:244,1,90,8|0,0:0|0:0,0:0:0:0:
296,112,133633,1,2,1:2:0:0:
296,112,133719,1,0,0:0:0:0:
296,112,133805,1,0,0:0:0:0:
296,112,133892,1,0,0:0:0:0:
296,112,133978,2,0,L|352:104,1,45,8|0,0:0|0:0,0:0:0:0:
416,92,134150,1,0,0:2:0:0:
288,228,134323,5,4,0:0:0:0:
348,348,134495,2,0,P|372:312|376:260,1,90,0|8,0:0|0:0,0:0:0:0:
208,156,134840,2,0,P|184:192|180:244,1,90,0|2,0:0|0:2,0:0:0:0:
180,252,135098,1,0,0:2:0:0:
184,264,135185,1,2,0:2:0:0:
188,276,135271,1,0,0:2:0:0:
192,288,135357,6,0,P|148:304|92:324,1,90,10|0,0:2|0:0,0:0:0:0:
304,172,135702,2,0,P|348:184|400:192,1,90,4|0,0:0|0:0,0:0:0:0:
416,92,136047,5,8,0:0:0:0:
336,260,136219,1,0,0:0:0:0:
488,164,136392,1,0,0:0:0:0:
328,88,136564,5,0,0:0:0:0:
444,12,136736,1,8,0:0:0:0:
328,88,136909,1,0,0:0:0:0:
452,272,137081,1,4,0:0:0:0:
304,344,137254,1,0,0:0:0:0:
304,344,137340,1,0,0:0:0:0:
304,344,137426,2,0,P|260:336|208:328,1,90,8|0,0:0|0:0,0:0:0:0:
68,224,137771,5,0,0:0:0:0:
88,200,137857,1,0,0:0:0:0:
116,188,137943,1,0,0:0:0:0:
148,184,138030,1,0,0:0:0:0:
176,196,138116,2,0,L|188:244,1,45,8|0,0:0|0:0,0:0:0:0:
264,176,138288,2,0,L|253:132,1,45
328,88,138461,2,0,P|378:85|424:80,1,90,4|0,0:0|0:0,0:0:0:0:
508,240,138805,2,0,P|480:308|364:292,1,180,8|2,0:0|0:0,0:0:0:0:
360,292,139236,5,0,0:0:0:0:
348,264,139323,1,0,2:0:0:0:
348,232,139409,1,0,0:0:0:0:
352,200,139495,1,10,0:0:0:0:
364,172,139581,1,0,0:0:0:0:
360,140,139667,1,0,2:0:0:0:
348,112,139754,1,0,0:0:0:0:
328,88,139840,5,2,2:2:0:0:
328,88,139926,1,0,0:0:0:0:
328,88,140012,2,0,L|276:100,1,45,2|0,0:0|0:0,0:0:0:0:
200,96,140185,5,10,0:0:0:0:
200,96,140271,1,0,0:0:0:0:
200,96,140357,2,0,L|216:148,1,45,2|0,0:0|0:0,0:0:0:0:
180,214,140530,6,0,L|144:240,1,45
51,329,140702,2,0,L|88:304,1,45
208,294,140874,2,0,L|172:320,1,45
23,249,141047,2,0,L|60:224,1,45
124,144,141219,6,0,P|196:132|268:176,1,135,4|0,0:0|2:0,0:0:0:0:
275,159,141564,2,0,P|299:116|339:80,1,90,8|0,0:0|0:0,0:0:0:0:
480,84,141909,1,2,0:0:0:0:
504,124,141995,1,0,0:0:0:0:
500,168,142081,1,0,2:0:0:0:
480,208,142167,1,0,0:0:0:0:
436,220,142254,2,0,P|408:216|376:204,3,45,10|0|0|0,0:0|0:0|0:0|0:0,2:0:0:0:
348,200,142598,5,0,0:2:0:0:
308,220,142685,1,0,0:0:0:0:
288,260,142771,1,0,0:0:0:0:
288,304,142857,1,0,0:0:0:0:
308,344,142943,2,0,L|348:364,3,45,2|0|2|0,0:0|0:0|0:0|0:0,0:0:0:0:
376,284,143288,6,0,L|416:304,1,45
436,220,143461,2,0,L|476:240,1,45
412,136,143633,2,0,L|400:88,1,45
320,116,143805,2,0,L|309:72,1,45
220,84,143978,6,0,P|176:91|116:96,1,90,4|0,0:0|0:0,0:0:0:0:
176,280,144323,2,0,P|205:244|215:195,1,90,8|0,0:0|0:0,0:0:0:0:
64,176,144667,5,0,0:0:0:0:
220,84,144840,1,0,0:0:0:0:
96,56,145012,1,8,0:0:0:0:
180,188,145185,1,0,0:0:0:0:
348,60,145357,1,4,0:0:0:0:
384,192,145530,2,0,P|336:184|280:180,1,90,0|8,0:0|0:0,0:0:0:0:
176,280,145874,5,2,2:2:0:0:
180,296,145961,1,0,2:0:0:0:
184,312,146047,2,0,L|196:372,1,45,0|2,0:0|2:0,0:0:0:0:
288,296,146219,2,0,L|300:252,1,45,2|0,2:0|0:0,0:0:0:0:
384,192,146392,2,0,P|429:182|479:172,1,90,8|0,0:0|0:0,0:0:0:0:
472,173,146650,5,0,0:0:0:0:
472,173,146736,2,0,P|464:128|448:60,1,90,4|0,0:0|0:0,0:0:0:0:
272,64,147081,1,8,0:0:0:0:
176,208,147254,1,2,2:2:0:0:
172,224,147340,1,2,2:0:0:0:
168,240,147426,2,0,P|212:220|280:196,1,90
384,192,147771,5,8,0:0:0:0:
272,64,147943,1,0,0:0:0:0:
240,320,148116,1,4,0:0:0:0:
407,279,148288,1,0,0:0:0:0:
407,279,148374,1,0,0:0:0:0:
407,279,148461,2,0,P|394:232|383:187,1,90,8|0,0:0|0:0,0:0:0:0:
332,80,148805,5,2,1:2:0:0:
308,56,148892,1,0,2:0:0:0:
280,40,148978,1,0,1:0:0:0:
248,32,149064,1,0,2:0:0:0:
216,36,149150,2,0,L|164:48,1,45,8|0,0:0|0:0,0:0:0:0:
88,132,149323,2,0,L|132:143,1,45
180,232,149495,6,0,P|132:248|92:264,1,90,4|0,0:0|0:0,0:0:0:0:
312,356,149840,2,0,P|336:320|340:268,1,90,8|0,0:0|0:0,0:0:0:0:
288,96,150185,5,2,0:0:0:0:
256,104,150271,1,0,0:0:0:0:
232,124,150357,1,0,0:0:0:0:
216,152,150443,1,0,0:0:0:0:
216,184,150530,2,0,L|224:232,1,45,10|0,0:0|0:0,0:0:0:0:
156,304,150702,2,0,L|148:259,1,45
128,236,150874,5,2,0:0:0:0:
100,220,150961,1,0,0:0:0:0:
68,216,151047,1,2,0:0:0:0:
36,224,151133,1,0,0:0:0:0:
12,248,151219,2,0,L|4:203,1,45,2|0,0:0|0:0,0:0:0:0:
68,136,151392,2,0,L|60:91,1,45,2|0,0:0|0:0,0:0:0:0:
128,32,151564,6,0,P|176:36|216:64,1,90,0|0,0:0|3:0,0:0:0:0:
256,68,151823,1,0,0:0:0:0:
256,68,151909,2,0,L|308:56,1,45
340,156,152081,2,0,L|364:108,1,45
468,172,152254,6,0,P|454:128|436:72,1,90
292,268,152598,2,0,P|335:280|378:291,1,90,8|0,0:0|0:0,0:0:0:0:
184,192,152943,2,0,P|170:240|152:300,1,90
16,148,153288,2,0,P|64:134|102:122,1,90,8|0,0:0|0:0,0:0:0:0:
256,68,153633,5,0,0:0:0:0:
256,68,153719,1,0,0:0:0:0:
256,68,153805,1,0,0:0:0:0:
256,68,153892,1,0,0:0:0:0:
256,68,153978,2,0,P|292:96|316:144,1,90,8|0,0:0|0:0,0:0:0:0:
256,316,154323,5,0,0:0:0:0:
256,316,154409,1,0,0:0:0:0:
256,316,154495,1,0,0:0:0:0:
256,316,154581,1,0,0:0:0:0:
256,316,154667,2,0,P|220:288|196:240,1,90,8|8,0:0|0:0,0:0:0:0:
256,192,154926,5,0,0:0:0:0:
256,192,155012,2,2,P|328:184|392:208,1,135.000005149842,2|0,0:0|0:0,0:0:0:0:
386,204,155530,2,0,P|376:135|363:48,1,135.000005149842,2|0,0:0|0:0,0:0:0:0:
400,308,156047,1,8,0:0:0:0:
400,308,156392,6,2,P|328:300|256:344,1,135.000005149842,2|8,0:0|0:0,0:0:0:0:
112,292,156909,2,0,P|148:284|180:268,1,67.5000025749208,2|0,0:0|0:0,0:0:0:0:
184,252,157167,1,0,0:0:0:0:
188,232,157254,1,0,0:0:0:0:
192,212,157340,1,0,0:0:0:0:
196,192,157426,2,0,P|200:156|208:104,1,67.5000025749208,8|8,0:0|0:0,0:0:0:0:
296,48,157771,6,2,L|366:60|436:72,1,135.000005149842,0|8,0:0|0:0,0:0:0:0:
352,152,158288,2,0,P|422:164|480:175,1,101.250003862381,2|0,0:0|2:0,0:0:0:0:
451,169,158633,1,2,1:2:0:0:
300,296,158805,1,8,0:0:0:0:
300,296,159150,5,0,0:0:0:0:
268,304,159236,1,0,0:0:0:0:
232,304,159323,1,0,0:0:0:0:
200,292,159409,1,0,0:0:0:0:
184,264,159495,2,0,P|188:228|192:180,1,67.5000025749208,8|8,0:0|0:0,0:0:0:0:
48,56,159840,5,2,0:2:0:0:
52,88,159926,1,0,0:0:0:0:
56,120,160012,1,0,0:2:0:0:
60,152,160098,1,0,0:0:0:0:
64,184,160185,2,0,P|67:219|72:268,1,67.5000025749208,2|2,0:0|0:3,0:0:0:0:
280,208,160530,5,4,0:0:0:0:
196,176,160702,1,0,2:0:0:0:
184,264,160874,2,0,P|187:299|192:348,1,67.5000025749208,8|2,0:0|2:0,0:0:0:0:
264,112,161219,1,0,0:0:0:0:
280,208,161392,2,2,P|345:230|414:223,1,135.000005149842,2|0,0:2|2:0,0:0:0:0:
496,284,161909,6,2,P|488:213|481:149,1,135.000005149842,2|8,0:0|0:0,0:0:0:0:
472,64,162426,1,0,0:0:0:0:
360,84,162598,1,0,0:0:0:0:
328,96,162685,1,0,0:0:0:0:
296,104,162771,1,0,0:0:0:0:
264,112,162857,1,0,0:0:0:0:
232,120,162943,2,0,P|197:114|140:108,1,67.5000025749208,8|8,0:0|0:0,0:0:0:0:
32,184,163288,6,2,P|19:110|8:40,1,135.000005149842,0|0,0:0|0:0,0:0:0:0:
120,236,163805,2,0,L|144:112,1,101.250003862381,2|0,0:0|2:0,0:0:0:0:
139,136,164150,1,2,1:2:0:0:
100,340,164323,1,8,0:0:0:0:
100,340,164667,6,2,P|132:328|168:324,1,67.5000025749208,0|0,0:0|0:0,0:0:0:0:
200,316,164926,1,0,0:0:0:0:
200,316,165012,2,0,L|260:272,1,67.5000025749208,8|0,0:0|0:0,0:0:0:0:
356,188,165357,6,0,L|324:175,1,33.7500012874604
332,68,165530,6,0,L|296:104,1,33.7500012874604
180,68,165702,6,0,L|216:104,1,33.7500012874604
156,188,165874,6,0,L|187:175,1,33.7500012874604
256,144,166047,5,4,0:0:0:0:
