osu file format v14

[General]
AudioFilename: Maon Kurosaki - After Glow.mp3
AudioLeadIn: 0
PreviewTime: 209677
Countdown: 0
SampleSet: Normal
StackLeniency: 0.2
Mode: 0
LetterboxInBreaks: 1
WidescreenStoryboard: 0

[Editor]
Bookmarks: 249920
DistanceSpacing: 1
BeatDivisor: 4
GridSize: 4
TimelineZoom: 1.7

[Metadata]
Title:Afterglow
TitleUnicode:アフターグロウ
Artist:Kurosaki Maon
ArtistUnicode:黒崎真音
Creator:NerO
Version:QQ
Source:Gakkou Gurashi
Tags:
BeatmapID:781986
BeatmapSetID:355134

[Difficulty]
HPDrainRate:7
CircleSize:4
OverallDifficulty:7
ApproachRate:8.5
SliderMultiplier:1.6
SliderTickRate:1

[Events]
//Background and Video events
0,0,"Sakura.Megumi.full.1912449.jpg",0,0
//Break Periods
2,156994,167111
//Storyboard Layer 0 (Background)
//Storyboard Layer 1 (Fail)
//Storyboard Layer 2 (Pass)
//Storyboard Layer 3 (Foreground)
//Storyboard Sound Samples

[TimingPoints]
4799,365.853658536585,4,1,1,100,1,0
4799,-125,4,2,1,50,0,0
39006,-125,4,1,1,50,0,0
45774,-90.9090909090909,4,1,1,70,0,1
75042,-90.9090909090909,4,1,1,50,0,0
80164,-90.9090909090909,4,2,1,50,0,0
80896,-90.9090909090909,4,1,1,50,0,0
87481,-125,4,2,1,50,0,0
197055,-83.3333333333333,4,2,1,50,0,0
197603,-125,4,2,1,50,0,0
209677,-90.9090909090909,4,1,1,70,0,1
226323,-83.3333333333333,4,1,1,70,0,0
226872,-90.9090909090909,4,1,1,70,0,1
237481,-90.9090909090909,4,1,1,50,0,0
238945,-90.9090909090909,4,1,1,50,0,1
250652,-90.9090909090909,4,1,1,50,0,0

[HitObjects]
144,104,4799,6,0,L|160:240,1,128
158,231,5347,1,0,0:0:0:0:
364,328,5530,2,0,P|324:288|252:280,1,128
196,348,6079,1,0,0:0:0:0:
448,316,6262,2,0,L|392:184,1,128
292,144,6994,6,0,P|332:96|408:80,1,128
476,108,7542,1,0,0:0:0:0:
292,228,7725,2,0,P|228:196|200:140,1,128
92,280,8457,6,0,L|232:300,1,128
296,344,9006,1,0,0:0:0:0:
392,216,9189,2,0,P|404:144|388:80,1,128
312,248,9920,6,0,P|368:292|424:296,1,128
480,228,10469,1,0,0:0:0:0:
308,152,10652,2,0,P|244:196|216:240,1,128
148,124,11384,6,0,L|136:260,1,128
192,324,11933,1,0,0:0:0:0:
368,248,12116,1,0,0:0:0:0:
360,224,12481,1,0,0:0:0:0:
352,200,12847,1,0,0:0:0:0:
344,176,13213,1,0,0:0:0:0:
332,152,13579,6,0,B|324:112|400:52|400:52|256:104|148:52,1,384
128,64,15042,1,0,0:0:0:0:
256,192,15225,12,0,16506,0:0:0:0:
196,72,16872,6,0,L|188:152,1,64
88,128,17238,2,0,L|140:260,1,128,8|0,0:0|0:0,0:0:0:0:
344,288,17786,2,0,P|284:256|216:268,1,128,8|0,0:0|0:0,0:0:0:0:
164,352,18335,2,0,L|244:340,1,64
407,278,18701,2,0,L|327:290,1,64,8|0,0:0|0:0,0:0:0:0:
264,244,19067,5,0,0:0:0:0:
452,212,19250,2,0,P|484:276|468:332,1,128,8|0,0:0|0:0,0:0:0:0:
388,364,19798,1,0,0:0:0:0:
264,244,19981,1,0,0:0:0:0:
352,252,20164,6,0,P|308:316|248:336,1,128,8|0,0:0|0:0,0:0:0:0:
164,236,20713,2,0,P|208:172|268:152,1,128,8|0,0:0|0:0,0:0:0:0:
264,244,21262,2,0,L|208:296,1,64
152,112,21628,2,0,L|208:60,1,64,8|0,0:0|0:0,0:0:0:0:
288,64,21994,5,0,0:0:0:0:
124,192,22177,2,0,P|76:148|76:76,1,128,8|0,0:0|0:0,0:0:0:0:
152,112,22725,2,0,P|184:96|204:68,1,64
288,64,23091,6,0,L|260:196,1,128,8|0,0:0|0:0,0:0:0:0:
400,336,23640,2,0,P|328:316|296:272,1,128,8|0,0:0|0:0,0:0:0:0:
332,192,24189,1,0,0:0:0:0:
216,316,24372,6,0,P|144:344|88:332,1,128
44,264,24920,1,0,0:0:0:0:
224,224,25103,5,0,0:0:0:0:
224,224,25195,1,0,0:0:0:0:
224,224,25286,2,0,P|284:268|304:320,1,128,8|0,0:0|0:0,0:0:0:0:
140,260,25835,2,0,L|128:124,1,128,8|0,0:0|0:0,0:0:0:0:
168,52,26384,1,0,0:0:0:0:
280,136,26567,2,0,P|340:156|412:144,1,128,8|8,0:0|0:0,0:0:0:0:
480,196,27116,6,0,P|460:232|456:268,1,64,8|0,0:0|0:0,0:0:0:0:
336,252,27481,2,0,P|360:296|368:320,1,64,8|0,0:0|0:0,0:0:0:0:
480,296,27847,1,8,0:0:0:0:
336,252,28030,1,0,0:0:0:0:
480,196,28213,1,0,0:0:0:0:
392,332,28579,5,0,0:0:0:0:
384,164,28945,1,0,0:0:0:0:
240,268,29311,1,0,0:0:0:0:
384,164,29677,1,0,0:0:0:0:
208,140,30042,1,0,0:0:0:0:
384,164,30408,1,0,0:0:0:0:
276,20,30774,1,0,0:0:0:0:
116,100,31140,5,0,0:0:0:0:
292,132,31506,1,0,0:0:0:0:
100,80,31872,1,0,0:0:0:0:
216,216,32238,1,0,0:0:0:0:
120,56,32603,1,0,0:0:0:0:
104,236,32969,1,0,0:0:0:0:
140,80,33335,1,0,0:0:0:0:
4,172,33701,1,0,0:0:0:0:
168,272,34067,5,0,0:0:0:0:
348,264,34433,1,0,0:0:0:0:
152,236,34798,1,0,0:0:0:0:
364,288,35164,1,0,0:0:0:0:
132,284,35530,1,0,0:0:0:0:
384,248,35896,1,0,0:0:0:0:
100,248,36262,1,0,0:0:0:0:
420,284,36628,1,0,0:0:0:0:
228,216,36811,5,0,0:0:0:0:
220,204,36902,1,0,0:0:0:0:
216,192,36994,2,0,B|300:224|300:320|300:320|204:372|88:312|88:312|132:252|208:272,1,512
198,269,39006,5,0,0:0:0:0:
210,273,39097,1,0,0:0:0:0:
220,276,39189,1,0,0:0:0:0:
284,336,39372,5,0,0:0:0:0:
104,284,39555,1,0,0:0:0:0:
256,188,39738,1,0,0:0:0:0:
284,336,39920,6,0,P|248:352|208:352,1,64
312,260,40286,2,0,P|272:256|244:240,1,64
384,224,40652,2,0,P|352:192|340:160,1,64
460,228,41018,2,0,P|452:188|452:152,1,64
228,48,41384,6,0,P|264:32|304:32,1,64
200,124,41750,2,0,P|240:128|268:144,1,64
128,160,42116,2,0,P|160:192|172:224,1,64
52,156,42481,2,0,P|60:196|60:232,1,64
160,332,42847,6,0,L|228:312,1,64
316,136,43213,2,0,L|248:156,1,64
208,244,43579,6,0,L|276:224,1,64
336,48,43945,2,0,L|268:68,1,64
396,232,44311,6,0,P|428:168|404:108,1,128
411,117,44859,1,0,0:0:0:0:
312,244,45225,6,0,L|336:308,1,64
424,320,45591,1,0,0:0:0:0:
344,168,45774,6,0,L|244:160,1,88.000002685547
148,220,46140,1,0,0:0:0:0:
288,84,46323,2,0,L|472:76,1,176.000005371094
463,76,46872,5,0,0:0:0:0:
432,196,47055,2,0,P|428:244|444:296,1,88.000002685547
437,282,47420,5,0,0:0:0:0:
336,352,47603,1,0,0:0:0:0:
68,308,47786,2,0,L|260:276,1,176.000005371094
432,196,48335,1,0,0:0:0:0:
432,196,48518,2,0,L|240:164,1,176.000005371094
72,120,49067,5,0,0:0:0:0:
172,48,49250,2,0,P|268:32|332:84,1,176.000005371094
372,264,49798,1,0,0:0:0:0:
272,192,49981,2,0,P|176:176|112:228,1,176.000005371094
160,332,50530,6,0,P|200:284|204:252,1,88.000002685547
32,224,50896,2,0,P|44:265|76:295,1,88.000002685547
152,196,51262,1,0,0:0:0:0:
284,340,51445,1,0,0:0:0:0:
320,160,51628,2,0,P|252:88|176:84,1,176.000005371094,4|0,0:0|0:0,0:0:0:0:
272,240,52177,5,0,0:0:0:0:
272,240,52359,2,0,P|364:240|416:176,1,176.000005371094
224,152,52908,1,0,0:0:0:0:
224,152,53091,2,0,P|172:228|200:312,1,176.000005371094
339,296,53640,6,0,L|263:232,1,88.000002685547
236,324,54006,1,0,0:0:0:0:
432,276,54189,1,0,0:0:0:0:
284,156,54372,1,0,0:0:0:0:
236,324,54555,6,0,P|324:360|412:332,1,176.000005371094
168,184,55103,1,0,0:0:0:0:
168,184,55286,2,0,L|136:364,1,176.000005371094
268,72,55835,1,0,0:0:0:0:
268,72,56018,2,0,L|300:252,1,176.000005371094,4|0,0:0|0:0,0:0:0:0:
412,300,56567,5,4,0:0:0:0:
412,300,56658,1,0,0:0:0:0:
412,300,56750,1,0,0:0:0:0:
412,176,56933,1,4,0:0:0:0:
312,244,57116,1,4,0:0:0:0:
484,240,57298,5,4,0:0:0:0:
312,144,57481,1,4,0:0:0:0:
324,344,57664,1,0,0:0:0:0:
380,240,57847,1,0,0:0:0:0:
188,184,58030,6,0,L|224:356,1,176.000005371094
48,208,58579,1,0,0:0:0:0:
68,124,58762,2,0,P|144:72|240:80,1,176.000005371094
280,144,59311,5,0,0:0:0:0:
244,224,59494,1,0,0:0:0:0:
244,224,59585,1,0,0:0:0:0:
244,224,59677,1,0,0:0:0:0:
332,216,59859,1,0,0:0:0:0:
192,152,60042,5,0,0:0:0:0:
296,296,60225,1,0,0:0:0:0:
368,136,60408,1,0,0:0:0:0:
208,312,60591,5,0,0:0:0:0:
392,288,60774,1,0,0:0:0:0:
272,64,60957,2,0,P|184:68|100:104,1,176.000005371094
88,144,61414,1,0,0:0:0:0:
80,188,61506,1,0,0:0:0:0:
80,232,61597,1,0,0:0:0:0:
96,272,61689,6,0,P|176:305|264:284,1,176.000005371094
416,228,62238,2,0,P|364:252|336:284,1,88.000002685547
172,92,62603,2,0,P|256:136|288:220,2,176.000005371094,0|0|4,0:0|0:0|0:0,0:0:0:0:
172,92,63701,6,0,P|216:76|268:80,1,88.000002685547
152,168,64067,2,0,P|112:152|88:108,1,88.000002685547
236,152,64433,2,0,L|212:244,1,88.000002685547
112,272,64798,2,0,P|180:340|268:332,1,176.000005371094
308,224,65347,2,0,P|240:156|152:164,1,176.000005371094
212,248,65896,5,0,0:0:0:0:
316,68,66079,1,0,0:0:0:0:
316,68,66170,1,0,0:0:0:0:
316,68,66262,2,0,L|128:76,1,176.000005371094
132,231,66811,2,0,L|320:223,1,176.000005371094
368,160,67359,1,0,0:0:0:0:
332,308,67542,5,0,0:0:0:0:
332,308,67634,1,0,0:0:0:0:
332,308,67725,2,0,P|320:340|296:364,2,58.6666684570313
208,324,68091,2,0,P|184:344|156:352,2,58.6666684570313
108,264,68457,2,0,P|68:264|36:252,2,58.6666684570313
80,156,68823,2,0,P|56:140|28:108,2,58.6666684570313
152,40,69189,6,0,P|176:128|256:168,1,176.000005371094,4|0,0:0|0:0,0:0:0:0:
316,112,69738,1,0,0:0:0:0:
304,248,69920,2,0,P|212:264|124:232,1,176.000005371094
96,160,70469,1,0,0:0:0:0:
360,184,70652,6,0,P|384:224|388:272,1,88.000002685547
123,264,71018,2,0,P|128:221|152:184,1,88.000002685547
256,316,71384,1,0,0:0:0:0:
256,316,71750,6,0,L|256:224,1,88.000002685547
256,140,72116,5,4,0:0:0:0:
320,252,72298,1,0,0:0:0:0:
192,252,72481,1,0,0:0:0:0:
372,140,72664,5,4,0:0:0:0:
256,356,72847,1,0,0:0:0:0:
140,140,73030,1,4,0:0:0:0:
376,324,73213,5,0,0:0:0:0:
136,324,73396,1,4,0:0:0:0:
256,48,73579,1,4,0:0:0:0:
256,192,75042,6,0,P|304:276|384:288,1,176.000005371094
436,224,75591,1,0,0:0:0:0:
280,120,75774,2,0,P|232:116|192:144,1,88.000002685547
228,264,76140,2,0,P|276:268|316:240,1,88.000002685547
308,48,76506,6,0,P|220:36|140:80,1,176.000005371094
120,160,77055,1,0,0:0:0:0:
360,120,77238,2,0,P|392:76|396:32,1,88.000002685547
272,168,77603,2,0,P|240:212|236:256,1,88.000002685547
148,344,77969,6,0,L|324:320,1,176.000005371094
447,179,78518,1,0,0:0:0:0:
447,179,78701,2,0,L|259:167,1,176.000005371094
68,56,79250,1,0,0:0:0:0:
68,56,79433,2,0,L|256:44,1,176.000005371094
243,44,79981,1,0,0:0:0:0:
408,48,80164,5,0,0:0:0:0:
391,73,80256,1,0,0:0:0:0:
382,103,80347,1,0,0:0:0:0:
383,133,80439,1,0,0:0:0:0:
393,162,80530,5,0,0:0:0:0:
412,204,80622,1,0,0:0:0:0:
423,246,80713,1,0,0:0:0:0:
423,290,80805,1,0,0:0:0:0:
412,332,80896,6,0,P|324:356|240:328,1,176.000005371094
245,331,81445,1,0,0:0:0:0:
88,148,81628,2,0,P|168:196|172:284,1,176.000005371094
176,271,82177,1,0,0:0:0:0:
32,84,82359,6,0,P|112:44|208:56,1,176.000005371094
196,51,82908,1,0,0:0:0:0:
408,140,83091,2,0,P|316:164|248:124,1,176.000005371094
249,125,83640,1,0,0:0:0:0:
472,72,83823,6,0,P|488:164|440:232,1,176.000005371094
444,228,84372,1,0,0:0:0:0:
220,324,84555,2,0,L|404:304,1,176.000005371094
394,304,85103,1,0,0:0:0:0:
188,224,85286,5,0,0:0:0:0:
120,336,85469,1,0,0:0:0:0:
164,208,85652,1,0,0:0:0:0:
44,272,85835,1,0,0:0:0:0:
152,184,86018,1,0,0:0:0:0:
24,160,86201,1,0,0:0:0:0:
156,156,86384,1,0,0:0:0:0:
68,52,86567,1,0,0:0:0:0:
172,136,86750,1,0,0:0:0:0:
172,136,87481,6,0,L|244:132,1,64,8|0,0:0|0:0,0:0:0:0:
308,76,87847,1,0,0:0:0:0:
112,76,88030,2,0,P|84:140|108:196,1,128,8|0,0:0|0:0,0:0:0:0:
152,268,88579,2,0,P|160:312|156:340,1,64
244,356,88945,6,0,L|384:348,1,128,8|0,0:0|0:0,0:0:0:0:
456,168,89494,2,0,L|316:176,1,128,8|0,0:0|0:0,0:0:0:0:
244,144,90042,5,0,0:0:0:0:
416,256,90225,1,0,0:0:0:0:
412,64,90408,2,0,P|344:32|288:40,1,128,8|0,0:0|0:0,0:0:0:0:
125,118,90957,2,0,P|193:150|249:142,1,128,8|0,0:0|0:0,0:0:0:0:
76,48,91506,6,0,L|32:112,1,64
272,244,91872,2,0,L|340:132,1,128,8|0,0:0|0:0,0:0:0:0:
204,200,92420,2,0,P|196:272|232:320,1,128,8|0,0:0|0:0,0:0:0:0:
312,340,92969,5,0,0:0:0:0:
248,132,93152,1,0,0:0:0:0:
116,324,93335,2,0,P|56:296|32:232,1,128,8|0,0:0|0:0,0:0:0:0:
336,252,93884,2,0,P|396:224|420:160,1,128,8|0,0:0|0:0,0:0:0:0:
300,84,94433,6,0,P|272:100|252:124,1,64
308,184,94798,2,0,P|336:168|356:144,1,64
240,28,95164,2,0,P|212:44|192:68,1,64
72,204,95530,6,0,P|136:200|184:144,1,128,8|0,0:0|0:0,0:0:0:0:
168,68,96079,1,0,0:0:0:0:
72,204,96262,2,0,L|84:276,1,64
228,300,96628,2,0,L|216:228,1,64
328,112,96994,2,0,L|360:256,1,128,8|0,0:0|0:0,0:0:0:0:
424,296,97542,1,0,0:0:0:0:
244,120,97725,6,0,P|248:80|264:52,1,64
340,24,98091,1,0,0:0:0:0:
256,208,98274,1,0,0:0:0:0:
156,24,98457,6,0,P|100:64|84:124,1,128,8|0,0:0|0:0,0:0:0:0:
256,208,99006,1,0,0:0:0:0:
428,118,99189,2,0,P|408:58|356:24,1,128,8|0,0:0|0:0,0:0:0:0:
256,100,99738,2,0,B|240:144|288:184|252:236,1,128,8|0,0:0|0:0,0:0:0:0:
312,296,100286,2,0,P|352:288|380:264,1,64
160,248,100652,6,0,P|164:320|204:364,1,128,8|0,0:0|0:0,0:0:0:0:
352,248,101201,2,0,P|351:310|313:360,1,128,8|0,0:0|0:0,0:0:0:0:
256,264,101750,2,0,L|256:200,1,64
196,136,102116,6,0,P|256:116|324:140,1,128,8|0,0:0|0:0,0:0:0:0:
316,260,102664,2,0,P|256:280|188:256,1,128,8|0,0:0|0:0,0:0:0:0:
224,192,103213,2,0,L|288:192,1,64
172,340,103579,2,0,P|124:300|120:228,1,128,8|0,0:0|0:0,0:0:0:0:
395,237,104128,2,0,P|388:299|340:340,1,128,8|0,0:0|0:0,0:0:0:0:
256,304,104677,5,0,0:0:0:0:
196,192,104859,1,0,0:0:0:0:
260,80,105042,2,0,P|332:72|404:88,1,128,8|0,0:0|0:0,0:0:0:0:
460,136,105591,1,8,0:0:0:0:
196,192,105774,2,0,P|132:200|69:190,1,128,8|0,0:0|0:0,0:0:0:0:
336,288,106323,2,0,P|399:296|462:286,1,128
462,286,106872,1,0,0:0:0:0:
344,200,107055,5,0,0:0:0:0:
344,200,107146,1,0,0:0:0:0:
344,200,107238,2,0,P|280:224|244:284,1,128,8|0,0:0|0:0,0:0:0:0:
99,120,107786,2,0,P|163:144|199:204,1,128,8|0,0:0|0:0,0:0:0:0:
172,280,108335,1,0,0:0:0:0:
100,332,108518,5,0,0:0:0:0:
100,332,108609,1,0,0:0:0:0:
100,332,108701,1,8,0:0:0:0:
112,216,108884,1,0,0:0:0:0:
204,280,109067,1,0,0:0:0:0:
4,252,109250,1,0,0:0:0:0:
4,252,109341,1,0,0:0:0:0:
4,252,109433,1,8,0:0:0:0:
200,136,109615,1,8,0:0:0:0:
56,116,109798,1,8,0:0:0:0:
204,280,109981,1,8,0:0:0:0:
268,204,110164,6,0,P|292:140|280:80,1,128,8|0,0:0|0:0,0:0:0:0:
216,20,110713,1,0,0:0:0:0:
296,284,110896,2,0,P|364:240|384:192,1,128
384,108,111445,1,0,0:0:0:0:
224,332,111628,2,0,P|288:372|352:372,1,128
420,332,112177,1,0,0:0:0:0:
184,252,112359,2,0,P|136:308|128:372,1,128
268,180,113091,6,0,P|292:244|280:304,1,128
216,364,113640,1,0,0:0:0:0:
296,100,113823,2,0,P|364:144|384:192,1,128
384,276,114372,1,0,0:0:0:0:
224,52,114555,2,0,P|288:12|352:12,1,128
420,52,115104,1,0,0:0:0:0:
184,132,115286,2,0,P|136:76|128:12,1,128
126,24,115835,1,0,0:0:0:0:
184,132,116018,6,0,L|140:260,1,128
264,188,116567,1,0,0:0:0:0:
264,188,116750,2,0,L|248:328,1,128
352,196,117298,1,0,0:0:0:0:
352,196,117481,2,0,L|352:336,1,128
440,176,118030,1,0,0:0:0:0:
440,176,118213,2,0,L|460:304,1,128
52,236,118762,5,0,0:0:0:0:
52,236,118853,1,0,0:0:0:0:
52,236,118945,6,0,L|8:108,1,128
132,180,119494,1,0,0:0:0:0:
132,180,119677,2,0,L|116:40,1,128
220,172,120225,1,0,0:0:0:0:
220,172,120408,2,0,L|220:32,1,128
308,192,120957,1,0,0:0:0:0:
308,192,121140,2,0,L|328:64,1,128
408,28,121689,1,0,0:0:0:0:
384,224,121872,6,0,P|360:260|324:276,1,64
228,168,122238,2,0,P|252:132|288:116,1,64
308,192,122603,2,0,L|264:244,1,64
152,128,122969,2,0,L|196:76,1,64
128,228,123335,6,0,P|92:252|60:252,1,64
140,352,123701,2,0,P|164:324|172:292,1,64
256,296,124067,2,0,P|260:336|252:368,1,64
352,352,124433,2,0,L|340:284,1,64
384,88,124798,6,0,L|432:152,1,64
292,168,125164,2,0,L|312:236,1,64
172,212,125530,2,0,L|176:280,1,64
48,244,125896,2,0,L|28:324,1,64
152,348,126170,5,0,0:0:0:0:
152,348,126262,2,0,L|140:216,1,128
140,220,126811,1,0,0:0:0:0:
272,144,127177,2,0,L|252:216,1,64
276,292,127542,1,0,0:0:0:0:
352,100,127725,6,0,P|304:68|208:76,1,128
192,188,128274,1,0,0:0:0:0:
192,188,128457,2,0,P|240:220|336:212,1,128
272,144,129006,1,0,0:0:0:0:
168,288,129189,1,0,0:0:0:0:
352,288,129372,5,0,0:0:0:0:
380,276,129463,1,0,0:0:0:0:
404,256,129555,1,0,0:0:0:0:
420,228,129646,1,0,0:0:0:0:
448,248,129738,1,0,0:0:0:0:
480,248,129829,1,0,0:0:0:0:
508,232,129920,2,0,P|516:284|504:336,2,96
248,212,130652,6,0,P|336:204|376:172,1,128
396,96,131201,1,0,0:0:0:0:
192,280,131384,2,0,P|248:324|320:328,1,128
384,292,131933,1,0,0:0:0:0:
100,276,132116,6,0,P|104:316|124:352,1,64
192,280,132481,1,0,0:0:0:0:
48,192,132664,1,0,0:0:0:0:
192,104,132847,5,0,0:0:0:0:
144,192,133030,1,0,0:0:0:0:
100,104,133213,1,0,0:0:0:0:
240,192,133396,1,0,0:0:0:0:
284,104,133579,6,0,P|256:40|192:12,1,128
116,24,134128,1,0,0:0:0:0:
356,148,134311,2,0,P|372:76|352:16,1,128
357,25,134859,1,0,0:0:0:0:
364,232,135042,6,0,L|440:248,1,64
296,332,135408,2,0,L|220:316,1,64
104,192,135774,5,0,0:0:0:0:
144,272,135957,1,0,0:0:0:0:
196,200,136140,1,0,0:0:0:0:
52,268,136323,1,0,0:0:0:0:
160,120,136506,6,0,P|224:100|288:112,1,128
360,160,137055,1,0,0:0:0:0:
228,280,137238,2,0,P|164:300|100:288,1,128
36,232,137786,1,0,0:0:0:0:
160,120,137969,5,8,0:0:0:0:
160,208,138152,1,0,0:0:0:0:
84,160,138335,1,8,0:0:0:0:
236,160,138518,5,8,0:0:0:0:
80,252,138701,1,0,0:0:0:0:
80,80,138884,1,8,0:0:0:0:
240,240,139067,5,8,0:0:0:0:
4,200,139250,1,8,0:0:0:0:
160,40,139433,2,0,L|296:56,1,128,8|0,0:0|0:0,0:0:0:0:
287,54,139981,1,0,0:0:0:0:
424,164,140164,6,0,L|288:176,1,128
296,175,140713,1,0,0:0:0:0:
80,236,140896,6,0,L|216:248,1,128
207,247,141445,1,0,0:0:0:0:
460,320,141628,6,0,L|324:332,1,128
333,331,142177,1,0,0:0:0:0:
148,244,142359,6,0,P|132:180|144:116,1,128
312,48,142908,5,0,0:0:0:0:
360,124,143091,2,0,P|372:188|356:260,1,128
112,328,143640,5,0,0:0:0:0:
148,244,143823,2,0,P|196:292|200:352,1,128
400,324,144372,5,0,0:0:0:0:
364,244,144555,2,0,P|316:292|312:352,1,128
400,324,145103,1,0,0:0:0:0:
428,128,145286,6,0,L|300:152,2,128
184,56,146384,2,0,L|248:80,1,64
96,64,146750,2,0,P|72:136|88:196,1,128
176,344,147298,2,0,P|185:281|162:222,1,128
256,232,147847,2,0,P|268:280|264:308,1,64
348,320,148213,6,0,P|348:240|328:184,1,128
260,140,148762,1,0,0:0:0:0:
448,216,148945,2,0,P|408:152|368:116,1,128
260,140,149494,1,0,0:0:0:0:
64,215,149677,6,0,P|96:161|142:117,1,128
48,56,150225,2,0,P|124:32|184:40,1,128
260,140,150774,2,0,L|248:60,1,64
360,116,151140,6,0,L|336:248,1,128
264,296,151689,1,0,0:0:0:0:
448,152,151872,2,0,L|424:284,1,128
352,332,152420,1,0,0:0:0:0:
128,264,152603,6,0,L|92:124,1,128
40,72,153152,1,0,0:0:0:0:
216,232,153335,2,0,L|180:92,1,128
128,40,153884,1,0,0:0:0:0:
296,184,154067,5,0,0:0:0:0:
140,96,167786,5,0,0:0:0:0:
140,96,167878,1,0,0:0:0:0:
140,96,167969,1,8,0:0:0:0:
200,164,168152,1,8,0:0:0:0:
228,80,168335,1,8,0:0:0:0:
108,180,168518,1,8,0:0:0:0:
292,140,168701,6,0,L|320:76,1,64
368,184,169067,2,0,L|412:128,1,64
424,260,169433,2,0,L|480:228,1,64
432,348,169798,2,0,L|504:344,1,64
80,348,170164,6,0,L|16:344,1,64
88,260,170529,2,0,L|32:228,1,64
144,184,170895,2,0,L|104:133,1,64
220,140,171261,2,0,L|194:81,1,64
368,272,171628,6,0,P|344:304|312:320,1,64
323,67,171994,2,0,P|350:85|368:112,1,64
144,112,172359,2,0,P|161:85|188:67,1,64
188,316,172725,2,0,P|161:298|144:272,1,64
256,192,173091,6,0,L|308:144,1,64
256,192,173457,2,0,L|204:144,1,64
256,192,173823,2,0,L|204:240,1,64
256,192,174189,2,0,L|308:240,1,64
128,140,174555,6,0,P|140:100|168:76,1,64,8|0,0:0|0:0,0:0:0:0:
384,244,174920,2,0,P|372:284|344:308,1,64,8|0,0:0|0:0,0:0:0:0:
200,192,175286,2,0,P|212:152|240:128,1,64
312,192,175652,2,0,P|300:232|272:256,1,64
280,48,176018,6,0,P|312:60|340:88,1,64,8|0,0:0|0:0,0:0:0:0:
232,336,176384,2,0,P|200:324|172:296,1,64,8|0,0:0|0:0,0:0:0:0:
400,216,176750,2,0,P|388:248|360:276,1,64
112,168,177116,2,0,P|124:136|152:108,1,64
384,132,177481,6,0,L|316:156,1,64,8|0,0:0|0:0,0:0:0:0:
100,220,177847,2,0,L|180:240,1,64,8|0,0:0|0:0,0:0:0:0:
488,244,178213,2,0,L|408:232,1,64
36,148,178579,2,0,L|112:124,1,64
256,192,178945,1,8,0:0:0:0:
256,272,179311,6,0,L|256:340,1,64
256,336,179859,1,0,0:0:0:0:
256,192,180042,2,0,L|256:128,1,64
256,36,180408,5,0,0:0:0:0:
332,172,180591,1,0,0:0:0:0:
180,172,180774,1,0,0:0:0:0:
380,112,180957,2,0,P|408:172|384:228,1,128
125,225,181506,1,0,0:0:0:0:
125,225,181689,2,0,P|104:167|132:112,1,128
256,240,182238,5,0,0:0:0:0:
256,240,182420,2,0,B|272:284|232:324|256:364,1,128
256,144,182969,1,0,0:0:0:0:
256,144,183152,2,0,B|272:100|232:60|256:20,1,128
360,164,183701,5,0,0:0:0:0:
360,164,183884,2,0,P|412:120|416:52,1,128
152,164,184433,1,0,0:0:0:0:
152,164,184616,2,0,P|100:120|96:52,1,128
256,176,185164,6,0,L|256:312,2,128
256,176,186262,1,0,0:0:0:0:
360,228,186628,6,0,P|368:264|368:304,1,64
143,291,186994,2,0,P|144:259|152:228,1,64
328,108,187359,2,0,P|360:100|400:104,1,64
184,108,187725,2,0,P|152:100|112:104,1,64
48,156,188091,1,0,0:0:0:0:
240,172,188274,2,0,P|256:104|240:44,1,128
242,48,188823,1,0,0:0:0:0:
200,256,189006,5,0,0:0:0:0:
208,264,189097,1,0,0:0:0:0:
216,272,189189,2,0,P|280:284|348:252,1,128
372,180,189738,1,0,0:0:0:0:
116,232,189920,2,0,P|128:312|164:364,1,128
240,372,190469,1,0,0:0:0:0:
80,152,190652,2,0,P|32:200|20:264,1,128
224,280,191201,5,0,0:0:0:0:
216,260,191292,1,0,0:0:0:0:
208,240,191384,1,8,0:0:0:0:
120,240,191567,1,8,0:0:0:0:
320,312,191750,2,0,L|276:188,1,128,8|0,0:0|0:0,0:0:0:0:
204,140,192298,5,0,0:0:0:0:
116,132,192481,1,0,0:0:0:0:
56,312,192664,2,0,P|128:332|184:308,1,128
120,192,193213,1,0,0:0:0:0:
175,69,193396,2,0,P|115:51|56:72,1,128
56,71,193945,5,0,0:0:0:0:
248,172,194128,2,0,L|392:136,1,128
420,64,194677,1,0,0:0:0:0:
240,264,194859,2,0,L|384:228,1,128
440,160,195408,5,0,0:0:0:0:
136,244,195591,2,0,P|148:312|200:360,1,128
256,200,196140,1,0,0:0:0:0:
376,244,196323,2,0,P|364:312|312:360,1,128
256,292,196872,5,0,0:0:0:0:
180,136,197055,2,0,B|220:124|256:20|256:20|292:124|336:140,1,287.999991210938
376,240,197786,5,0,0:0:0:0:
368,256,197878,1,0,0:0:0:0:
356,268,197969,2,0,P|320:276|280:272,1,64,8|0,0:0|0:0,0:0:0:0:
156,204,198335,2,0,P|192:196|232:200,1,64
356,136,198701,2,0,P|320:144|280:140,1,64
156,72,199067,2,0,P|192:64|232:68,1,64
424,88,199433,6,0,P|432:132|428:168,1,64,8|0,0:0|0:0,0:0:0:0:
340,304,199798,2,0,P|332:260|336:224,1,64
172,80,200164,2,0,P|179:111|179:143,1,64
87,295,200529,2,0,P|80:264|80:232,1,64
388,265,200896,6,0,P|364:296|333:306,1,64,8|0,0:0|0:0,0:0:0:0:
123,118,201262,2,0,P|148:88|179:78,1,64
182,324,201628,2,0,P|152:300|142:269,1,64
329,59,201994,2,0,P|360:84|370:115,1,64
212,204,202359,6,0,P|256:192|308:208,2,96
212,204,203000,2,0,L|200:240,1,32
196,252,203183,1,0,0:0:0:0:
193,271,203274,1,0,0:0:0:0:
195,290,203365,1,0,0:0:0:0:
201,308,203457,1,0,0:0:0:0:
212,324,203548,1,0,0:0:0:0:
226,337,203640,1,0,0:0:0:0:
244,348,203731,1,0,0:0:0:0:
264,352,203823,1,0,0:0:0:0:
404,80,205286,5,0,0:0:0:0:
132,224,206750,5,0,0:0:0:0:
256,192,206933,12,0,208030,0:0:0:0:
256,192,208213,12,0,209494,0:0:0:0:
196,216,209677,5,0,0:0:0:0:
296,132,209859,1,0,0:0:0:0:
172,100,210042,1,0,0:0:0:0:
328,252,210225,6,0,P|420:244|476:176,1,176.000005371094
480,96,210774,1,0,0:0:0:0:
248,288,210957,2,0,P|324:344|376:344,1,132.00000402832
400,332,211323,1,0,0:0:0:0:
360,204,211506,1,0,0:0:0:0:
160,240,211689,6,0,P|156:324|200:372,1,132.00000402832
224,368,212055,1,0,0:0:0:0:
224,368,212238,1,0,0:0:0:0:
144,156,212420,2,0,P|68:196|40:292,1,176.000005371094
88,352,212969,1,0,0:0:0:0:
280,300,213152,6,0,L|300:116,1,176.000005371094
55,80,213701,1,0,0:0:0:0:
244,180,213884,2,0,P|304:112|264:32,1,176.000005371094
416,20,214433,2,0,L|392:112,1,88.000002685547
496,232,214798,2,0,L|464:136,1,88.000002685547
468,148,215164,1,0,0:0:0:0:
400,260,215347,1,0,0:0:0:0:
484,364,215530,2,0,P|396:344|304:368,1,176.000005371094,4|0,0:0|0:0,0:0:0:0:
192,312,216079,5,0,0:0:0:0:
192,312,216262,2,0,P|208:272|208:216,1,88.000002685547
152,72,216628,2,0,P|136:112|136:168,1,88.000002685547
380,168,216994,2,0,P|300:120|216:136,1,176.000005371094
192,248,217542,2,0,P|272:296|356:280,1,176.000005371094
288,204,218091,5,0,0:0:0:0:
112,216,218274,1,0,0:0:0:0:
108,224,218366,1,0,0:0:0:0:
104,232,218457,2,0,P|120:332|184:372,1,176.000005371094
256,272,219006,1,0,0:0:0:0:
408,232,219189,2,0,P|392:332|328:372,1,176.000005371094
256,272,219738,1,0,0:0:0:0:
256,140,219920,5,4,0:0:0:0:
256,140,220012,1,0,0:0:0:0:
256,140,220103,1,0,0:0:0:0:
328,204,220286,1,0,0:0:0:0:
184,204,220469,1,4,0:0:0:0:
376,120,220652,1,0,0:0:0:0:
100,264,220835,1,4,0:0:0:0:
412,264,221018,1,4,0:0:0:0:
136,120,221201,1,4,0:0:0:0:
252,312,221384,5,4,0:0:0:0:
336,340,221567,1,0,0:0:0:0:
400,272,221750,1,0,0:0:0:0:
316,244,221933,1,0,0:0:0:0:
316,244,222024,1,0,0:0:0:0:
316,244,222116,1,0,0:0:0:0:
420,364,222298,5,0,0:0:0:0:
388,176,222481,1,0,0:0:0:0:
252,312,222664,2,0,L|152:316,1,88.000002685547
84,280,223030,5,0,0:0:0:0:
240,196,223213,1,0,0:0:0:0:
84,116,223396,1,0,0:0:0:0:
84,116,223488,1,0,0:0:0:0:
84,116,223579,1,0,0:0:0:0:
136,196,223762,5,0,0:0:0:0:
280,96,223945,1,0,0:0:0:0:
404,220,224128,2,0,L|376:312,1,88.000002685547
160,284,224494,5,0,0:0:0:0:
260,80,224677,1,0,0:0:0:0:
352,284,224859,1,0,0:0:0:0:
352,284,224951,1,0,0:0:0:0:
352,284,225042,1,0,0:0:0:0:
128,312,225225,5,0,0:0:0:0:
260,40,225408,1,0,0:0:0:0:
384,312,225591,2,0,P|420:352|460:360,1,88.000002685547
484,188,225957,1,0,0:0:0:0:
324,260,226140,1,0,0:0:0:0:
144,192,226323,6,0,B|188:120|280:68|280:68|288:136|340:140,1,287.999991210938
360,68,227055,1,0,0:0:0:0:
144,192,227238,5,4,0:0:0:0:
144,192,227329,1,0,0:0:0:0:
144,192,227420,1,0,0:0:0:0:
232,316,227603,6,0,L|220:224,1,88.000002685547
280,68,227969,2,0,L|292:160,1,88.000002685547
112,332,228335,2,0,L|136:240,1,88.000002685547
400,52,228701,2,0,L|376:144,1,88.000002685547
312,196,229067,1,0,0:0:0:0:
488,44,229250,6,0,L|440:224,1,176.000005371094
442,214,229798,1,0,0:0:0:0:
392,328,229981,1,0,0:0:0:0:
392,328,230073,1,0,0:0:0:0:
392,328,230164,2,0,P|300:336|248:272,1,176.000005371094
160,280,230713,2,0,L|196:96,1,176.000005371094
264,56,231262,1,0,0:0:0:0:
96,144,231445,5,0,0:0:0:0:
96,144,231536,1,0,0:0:0:0:
96,144,231628,2,0,P|88:184|96:216,2,58.6666684570313
128,288,231994,2,0,P|144:312|180:336,2,58.6666684570313
268,344,232359,2,0,P|304:344|340:332,2,58.6666684570313
404,268,232725,2,0,P|428:236|436:208,2,58.6666684570313
372,36,233091,6,0,P|340:120|356:208,1,176.000005371094,4|0,0:0|0:0,0:0:0:0:
353,202,233640,1,0,0:0:0:0:
140,36,233823,2,0,P|172:120|156:208,1,176.000005371094
158,202,234372,1,0,0:0:0:0:
400,144,234555,6,0,P|424:184|424:232,1,88.000002685547
86,224,234920,2,0,P|88:180|112:144,1,88.000002685547
256,88,235286,2,0,B|288:144|232:228|260:272,1,176.000005371094
254,260,235835,1,0,0:0:0:0:
204,144,236018,5,4,0:0:0:0:
316,200,236201,1,0,0:0:0:0:
184,224,236384,1,0,0:0:0:0:
284,128,236567,1,4,0:0:0:0:
360,340,236750,5,0,0:0:0:0:
96,148,236933,1,4,0:0:0:0:
416,148,237116,1,0,0:0:0:0:
152,340,237298,1,4,0:0:0:0:
256,24,237481,1,4,0:0:0:0:
132,96,238945,6,0,P|184:172|272:152,1,176.000005371094
220,84,239494,1,0,0:0:0:0:
96,200,239677,2,0,P|136:240|180:244,1,88.000002685547
288,56,240042,2,0,P|248:16|204:12,1,88.000002685547
24,232,240408,6,0,P|88:308|164:328,1,176.000005371094,4|0,0:0|0:0,0:0:0:0:
488,232,240957,2,0,P|424:308|348:328,1,176.000005371094
256,208,241506,2,0,L|256:312,1,88.000002685547
184,172,241872,6,0,P|260:128|332:184,1,176.000005371094,4|0,0:0|0:0,0:0:0:0:
256,288,242420,1,0,0:0:0:0:
172,72,242603,2,0,P|256:48|352:84,1,176.000005371094,4|0,0:0|0:0,0:0:0:0:
256,288,243152,1,0,0:0:0:0:
256,288,243335,2,0,B|224:232|288:172|252:108,1,176.000005371094,4|0,0:0|0:0,0:0:0:0:
336,340,243884,2,0,P|252:364|160:328,1,176.000005371094
84,196,244433,6,0,P|116:244|124:288,1,88.000002685547
168,64,244798,2,0,L|200:248,1,176.000005371094,4|0,0:0|0:0,0:0:0:0:
344,64,245347,1,0,0:0:0:0:
344,64,245530,2,0,L|312:248,1,176.000005371094,4|0,0:0|0:0,0:0:0:0:
96,296,246079,5,0,0:0:0:0:
96,296,246262,2,0,L|36:120,1,176.000005371094,4|0,0:0|0:0,0:0:0:0:
416,296,246811,1,0,0:0:0:0:
416,296,246994,2,0,L|472:129,1,176.000005371094,4|0,0:0|0:0,0:0:0:0:
196,244,247542,5,0,0:0:0:0:
196,244,247725,2,0,P|136:312|48:308,1,176.000005371094,4|0,0:0|0:0,0:0:0:0:
316,244,248274,1,0,0:0:0:0:
316,244,248457,2,0,P|376:312|464:308,1,176.000005371094,4|0,0:0|0:0,0:0:0:0:
316,244,249006,1,0,0:0:0:0:
164,132,249189,5,4,0:0:0:0:
348,132,249372,1,0,0:0:0:0:
196,244,249555,1,0,0:0:0:0:
256,52,249738,1,0,0:0:0:0:
416,244,249920,5,4,0:0:0:0:
96,244,250103,1,0,0:0:0:0:
348,32,250286,1,0,0:0:0:0:
256,348,250468,1,0,0:0:0:0:
164,32,250651,1,4,0:0:0:0:
