osu file format v12

[General]
AudioFilename: ANSWER.mp3
AudioLeadIn: 0
PreviewTime: 72338
Countdown: 0
SampleSet: Soft
StackLeniency: 0.7
Mode: 0
LetterboxInBreaks: 0

[Editor]
Bookmarks: 136594
DistanceSpacing: 1
BeatDivisor: 4
GridSize: 4

[Metadata]
Title:ANSWER
TitleUnicode:ANSWER
Artist:Kurosaki Maon
ArtistUnicode:黒崎 真音
Creator:B2IN
Version:Normal
Source:Toaru Majutsu no Index
Tags:Saten saten-san ALTIMA Magic world Iuchi Maiko
BeatmapID:213962
BeatmapSetID:74152

[Difficulty]
HPDrainRate:4
CircleSize:3
OverallDifficulty:3
ApproachRate:5
SliderMultiplier:1.3
SliderTickRate:1

[Events]
//Background and Video events
0,0,"bg.jpg",0,0
//Break Periods
2,31270,43487
2,106163,111572
2,174249,186466
2,271270,280083
//Storyboard Layer 0 (Background)
//Storyboard Layer 1 (Fail)
//Storyboard Layer 2 (Pass)
//Storyboard Layer 3 (Foreground)
//Storyboard Sound Samples
//Background Colour Transformations
3,100,163,162,255

[TimingPoints]
432,425.531914893617,4,2,1,55,1,0
12346,-100,4,2,1,5,0,0
15751,-100,4,2,1,55,0,0
31070,-100,4,1,0,56,0,0
44687,-100,4,2,1,55,0,0
73623,-100,4,2,1,55,0,1
86389,-100,4,2,1,55,0,0
87240,-100,4,2,1,55,0,1
97453,-95.2380952380952,4,2,1,55,0,1
98304,-90.9090909090909,4,2,1,55,0,1
99155,-86.9565217391304,4,2,1,55,0,1
100006,-83.3333333333333,4,2,1,55,0,1
100857,-100,4,2,1,55,0,1
102346,-153.846153846153,4,2,1,55,0,1
102985,-153.846153846153,4,2,1,55,0,0
104261,-100,4,2,1,5,0,0
105963,-100,4,2,1,65,0,0
112772,-125,4,2,1,65,0,0
126389,-100,4,2,1,65,0,0
139155,-100,4,3,0,40,0,0
139580,-100,4,1,0,40,0,0
140006,-100,4,2,1,65,0,0
141708,-100,4,2,1,55,0,1
154474,-100,4,2,1,55,0,0
155325,-100,4,2,1,55,0,1
165538,-95.2380952380952,4,2,1,55,0,1
166389,-90.9090909090909,4,2,1,55,0,1
167240,-86.9565217391304,4,2,1,55,0,1
168091,-83.3333333333333,4,2,1,55,0,1
168942,-100,4,2,1,55,0,1
170431,-153.846153846153,4,2,1,55,0,1
171070,-100,4,2,1,50,0,0
172346,-100,4,2,1,5,0,0
174049,-100,4,1,0,35,0,0
187666,-100,4,2,1,40,0,0
220006,-133.333333333333,4,2,1,55,0,0
222134,-100,4,2,1,55,0,0
232772,-100,4,2,1,55,0,0
237027,-100,4,2,1,55,0,1
249793,-100,4,2,1,55,0,0
250644,-100,4,2,1,55,0,1
260857,-95.2380952380952,4,2,1,55,0,1
261708,-90.9090909090909,4,2,1,55,0,1
262559,-86.9565217391304,4,2,1,55,0,1
263410,-83.3333333333333,4,2,1,55,0,1
264261,-100,4,2,1,55,0,1
265751,-153.846153846153,4,2,1,55,0,1
266389,-100,4,1,0,50,0,0
266495,-100,4,2,0,70,0,0
267666,-100,4,2,1,70,0,0
281283,-100,4,2,1,50,0,1
294049,-100,4,3,0,50,0,1
294900,-117.647058823529,4,2,1,65,0,0
295006,-117.647058823529,4,2,1,40,0,0
296602,-117.647058823529,4,2,1,5,0,0
297240,-117.647058823529,4,1,0,50,0,0
297453,-117.647058823529,4,2,1,65,0,0

[Colours]
Combo1 : 6,204,169
Combo2 : 204,13,108
Combo3 : 255,90,11

[HitObjects]
256,192,12346,12,4,15751,0:0:0:0:
256,192,17453,6,0,P|220:244|224:308,1,130,4|8,0:0|0:0,0:0:0:0:
200,368,18091,2,0,P|140:332|112:276,1,130
56,244,18729,2,0,P|8:288|4:352,2,130,8|0|8,0:0|0:0|0:0,0:0:0:0:
176,192,20006,2,0,L|240:208,1,65
304,204,20432,2,0,P|352:156|360:96,1,130,8|0,0:0|0:0,0:0:0:0:
256,20,21283,5,8,0:0:0:0:
256,20,21495,2,0,L|136:76,1,130
112,136,22134,1,8,0:0:0:0:
144,264,22559,1,0,0:0:0:0:
256,328,22985,1,8,0:0:0:0:
368,264,23410,2,0,P|372:144|256:116,1,260,0|4,0:0|0:0,0:0:0:0:
256,248,24687,5,8,0:0:0:0:
256,248,24900,2,0,P|200:272|132:264,1,130
68,260,25538,2,0,P|87:323|144:356,2,130,8|0|8,0:0|0:0|0:0,0:0:0:0:
104,112,26814,1,0,0:0:0:0:
256,88,27240,1,8,0:0:0:0:
408,112,27666,6,0,B|432:192|388:244|308:256|256:184|256:184|204:256|124:244|80:192|104:112,2,520,0|0|4,0:0|0:0|0:0,0:0:0:0:
256,192,44687,6,0,P|171:274|88:192,2,260,2|2|2,0:0|0:0|0:0,0:0:0:0:
328,84,46814,1,0,0:0:0:0:
452,116,47240,2,0,P|486:174|475:233,1,130,2|0,0:0|0:0,0:0:0:0:
352,192,48091,6,0,P|233:206|236:324,2,260,2|2|2,0:0|0:0|0:0,0:0:0:0:
468,252,50219,2,0,P|489:192|468:132,2,130,0|2|0,0:0|0:0|0:0,0:0:0:0:
352,356,51495,6,0,P|308:280|352:192,1,195,2|0,0:0|0:0,0:0:0:0:
348,128,52346,2,0,P|263:150|232:243,1,195,2|0,0:0|0:0,0:0:0:0:
184,288,53197,2,0,P|140:200|184:124,1,195,2|0,0:0|0:0,0:0:0:0:
180,60,54049,2,0,P|95:82|64:175,1,195,2|0,0:0|0:0,0:0:0:0:
60,240,54900,6,0,B|76:316|156:340|228:308|256:244|256:244|284:308|356:340|436:316|452:240,2,520,2|2|4,0:0|0:0|0:0,0:0:0:0:
24,116,58729,5,2,0:0:0:0:
128,36,59155,1,0,0:0:0:0:
256,48,59580,2,0,P|308:76|376:64,2,130,2|0|2,0:0|0:0|0:0,0:0:0:0:
200,80,60644,2,0,P|232:152|336:192,1,195,0|2,0:0|0:0,0:0:0:0:
256,296,61708,1,0,0:0:0:0:
372,360,62134,6,0,P|424:324|444:260,1,130,2|0,0:0|0:0,0:0:0:0:
336,192,62985,2,0,P|313:129|333:70,2,130,2|0|2,0:0|0:0|0:0,0:0:0:0:
308,252,64049,2,0,P|232:208|204:108,1,195,0|2,0:0|0:0,0:0:0:0:
80,76,65112,6,0,P|29:192|80:308,1,260,4|0,0:0|0:0,0:0:0:0:
208,336,66389,1,2,0:0:0:0:
208,336,66602,2,0,P|264:272|256:168,1,195,0|2,0:0|0:0,0:0:0:0:
320,52,67666,2,0,P|384:44|444:72,1,130,0|2,0:0|0:0,0:0:0:0:
484,192,68517,6,0,B|409:251|316:225|386:98|226:80|256:192|286:303|125:285|196:158|103:132|24:192,2,520,0|0|0,0:0|3:3|0:0,0:0:0:0:
256,192,73623,6,0,P|192:156|168:108,1,130,4|8,0:0|0:0,0:0:0:0:
32,64,74474,2,0,L|56:192,1,130,0|8,0:0|0:0,0:0:0:0:
136,308,75325,2,0,L|188:348,2,65,0|0|8,0:0|0:0|0:0,0:0:0:0:
196,180,76176,2,0,P|256:159|316:180,2,130,0|8|0,0:0|0:0|0:0,0:0:0:0:
256,308,77453,5,8,0:0:0:0:
400,312,77878,1,0,0:0:0:0:
500,208,78304,1,8,0:0:0:0:
396,304,78729,1,4,0:0:0:0:
252,296,79155,1,8,0:0:0:0:
136,216,79580,2,0,P|148:152|192:108,1,130,4|8,0:0|0:0,0:0:0:0:
332,80,80432,6,0,L|388:116,1,65,4|0,0:0|0:0,0:0:0:0:
368,172,80857,2,0,L|416:220,1,65,8|0,0:0|0:0,0:0:0:0:
368,256,81283,2,0,L|392:320,1,65
360,368,81708,1,8,0:0:0:0:
180,304,82134,6,0,L|124:268,1,65,4|0,0:0|0:0,0:0:0:0:
144,212,82559,2,0,L|96:164,1,65,8|0,0:0|0:0,0:0:0:0:
144,128,82985,2,0,L|120:64,1,65
152,16,83410,1,8,0:0:0:0:
320,24,83836,6,0,L|416:112,1,130,4|8,0:0|0:0,0:0:0:0:
332,228,84687,2,0,L|236:140,1,130,0|8,0:0|0:0,0:0:0:0:
152,256,85538,2,0,L|248:344,2,130,4|8|4,0:0|0:0|0:0,0:0:0:0:
124,116,86814,1,8,0:0:0:0:
256,56,87240,6,0,P|316:84|380:76,2,130,4|8|0,0:0|0:0|0:0,0:0:0:0:
124,116,88517,2,0,L|76:236,2,130,8|0|8,0:0|0:0|0:0,0:0:0:0:
256,168,89793,2,0,L|316:192,2,65,0|0|8,0:0|0:0|0:0,0:0:0:0:
148,264,90644,6,0,P|192:308|256:328,1,130,2|8,0:0|0:0,0:0:0:0:
352,224,91495,2,0,P|292:255|230:255,1,130,2|8,0:0|0:0,0:0:0:0:
168,128,92346,2,0,P|211:172|276:192,1,130,2|8,0:0|0:0,0:0:0:0:
368,84,93197,2,0,P|308:115|246:115,1,130,2|8,0:0|0:0,0:0:0:0:
124,40,94049,5,4,0:0:0:0:
12,128,94474,2,0,L|0:192,2,65,8|0|0,0:0|0:0|0:0,0:0:0:0:
136,196,95325,2,0,P|196:224|256:212,1,130,8|0,0:0|0:0,0:0:0:0:
372,124,96176,5,8,0:0:0:0:
256,36,96602,1,0,0:0:0:0:
140,124,97027,1,8,0:0:0:0:
256,32,97453,6,0,L|256:168,1,136.499995834351,4|8,0:0|0:0,0:0:0:0:
372,272,98304,6,0,L|372:128,1,143.000004364014,4|8,0:0|0:0,0:0:0:0:
256,28,99155,6,0,L|256:180,1,149.500002851486,4|8,0:0|0:0,0:0:0:0:
140,272,100006,6,4,L|140:116,1,155.999995239258,4|8,0:0|0:0,0:0:0:0:
256,24,100857,6,0,P|296:68|364:88,1,130,4|8,0:0|0:0,0:0:0:0:
480,168,101708,2,0,L|500:232,2,65,0|0|8,0:0|0:0|0:0,0:0:0:0:
428,192,102346,6,0,B|404:272|404:272|372:300,1,126.749994197846,0|4,0:0|0:0,0:0:0:0:
256,192,104261,12,4,105963,0:0:0:0:
256,192,112772,6,0,P|425:266|476:88,2,416,4|2|2,0:0|0:0|0:0,0:0:0:0:
204,80,116602,5,0,0:0:0:0:
80,104,117027,2,0,P|32:192|80:280,2,208,2|0|2,0:0|0:0|0:0,0:0:0:0:
256,192,119368,5,0,0:0:0:0:
256,192,119580,2,0,P|316:152|344:72,1,156,2|0,0:0|0:0,0:0:0:0:
284,64,120432,2,0,P|210:98|139:84,1,156,2|0,0:0|0:0,0:0:0:0:
76,76,121283,2,0,P|103:152|163:192,1,156,2|0,0:0|0:0,0:0:0:0:
180,252,122134,2,0,P|109:266|35:231,1,156,2|0,0:0|0:0,0:0:0:0:
24,172,122985,5,2,0:0:0:0:
86,63,123411,1,0,0:0:0:0:
211,63,123836,1,2,0:0:0:0:
273,172,124262,1,0,0:0:0:0:
211,280,124687,2,0,P|384:358|472:192,1,416,2|4,0:0|0:0,0:0:0:0:
376,104,126814,5,2,0:0:0:0:
256,56,127240,1,0,0:0:0:0:
136,104,127666,1,2,0:0:0:0:
256,56,128091,6,0,P|300:140|256:224,2,195,0|2|2,0:0|0:0|0:0,0:0:0:0:
136,104,129793,1,0,0:0:0:0:
40,192,130219,5,2,0:0:0:0:
136,280,130644,1,0,0:0:0:0:
256,328,131070,1,2,0:0:0:0:
136,280,131495,6,0,B|160:188|232:228|256:136,2,195,0|2|2,0:0|0:0|0:0,0:0:0:0:
256,328,133197,6,0,P|352:248|352:120,1,260,0|0,0:0|0:0,0:0:0:0:
256,32,134474,1,2,0:0:0:0:
159,121,134900,6,0,P|160:248|256:328,1,260
256,200,136176,1,2,0:0:0:0:
256,68,136602,6,0,P|385:180|256:296,1,390
212,248,138091,2,0,P|365:166|426:325,1,390,2|0,0:0|0:0,0:0:0:0:
380,372,139580,2,0,P|328:336|323:273,1,130,0|0,0:0|0:0,0:0:0:0:
256,192,141708,6,0,P|188:172|132:184,1,130,4|8,0:0|0:0,0:0:0:0:
28,284,142559,2,0,L|16:348,2,65,0|0|8,0:0|0:0|0:0,0:0:0:0:
160,340,143410,1,0,0:0:0:0:
256,236,143836,1,8,0:0:0:0:
352,340,144261,1,0,0:0:0:0:
256,232,144687,1,8,0:0:0:0:
160,340,145112,6,0,P|104:304|80:248,1,130,0|8,0:0|0:0,0:0:0:0:
176,140,145963,2,0,P|232:104|256:48,1,130,0|8,0:0|0:0,0:0:0:0:
116,24,146814,6,0,L|0:88,1,130,4|8,0:0|0:0,0:0:0:0:
100,192,147666,2,0,L|216:256,1,130,4|8,0:0|0:0,0:0:0:0:
344,192,148517,6,0,P|348:160|340:128,1,65,4|0,0:0|0:0,0:0:0:0:
280,132,148942,2,0,P|264:96|248:76,1,65,8|0,0:0|0:0,0:0:0:0:
192,92,149368,2,0,P|160:72|132:68,1,65
84,96,149793,1,8,0:0:0:0:
12,248,150219,6,0,P|8:280|16:312,1,65,4|0,0:0|0:0,0:0:0:0:
76,308,150644,2,0,P|92:344|108:364,1,65,8|0,0:0|0:0,0:0:0:0:
164,348,151070,2,0,P|196:368|224:372,1,65
272,344,151495,1,8,0:0:0:0:
172,208,151921,5,4,0:0:0:0:
256,92,152346,2,0,P|379:83|432:192,1,260,8|8,0:0|0:0,0:0:0:0:
292,228,153623,6,0,P|228:237|172:208,1,130,4|8,0:0|0:0,0:0:0:0:
136,68,154474,2,0,P|200:77|256:48,1,130,4|8,0:0|0:0,0:0:0:0:
396,72,155325,6,0,P|424:132|412:192,1,130,4|8,0:0|0:0,0:0:0:0:
300,284,156176,1,0,0:0:0:0:
256,148,156602,1,8,0:0:0:0:
132,76,157027,2,0,P|64:96|24:140,1,130,0|8,0:0|0:0,0:0:0:0:
84,268,157878,2,0,P|141:265|203:299,1,130,0|8,0:0|0:0,0:0:0:0:
332,360,158729,6,0,P|380:316|396:252,2,130,2|8|2,0:0|0:0|0:0,0:0:0:0:
256,240,160006,1,8,0:0:0:0:
180,120,160431,2,0,P|132:164|116:228,2,130,2|8|2,0:0|0:0|0:0,0:0:0:0:
256,240,161708,1,8,0:0:0:0:
188,364,162134,6,0,P|124:352|72:308,1,130,4|8,0:0|0:0,0:0:0:0:
160,196,162985,2,0,P|123:142|117:74,1,130,0|8,0:0|0:0,0:0:0:0:
256,40,163836,1,0,0:0:0:0:
395,79,164261,2,0,L|432:136,2,65,8|0|0,0:0|0:0|0:0,0:0:0:0:
260,128,165112,1,8,0:0:0:0:
216,272,165538,6,0,L|256:328,2,68.2499979171754,4|0|8,0:0|0:0|0:0,0:0:0:0:
76,244,166389,6,0,L|48:312,2,71.5000021820069,4|0|8,0:0|0:0|0:0,0:0:0:0:
180,136,167240,6,0,L|228:192,2,74.7500014257431,4|0|8,0:0|0:0|0:0,0:0:0:0:
48,92,168091,6,0,L|8:160,2,77.999997619629,4|0|8,0:0|0:0|0:0,0:0:0:0:
180,40,168942,6,0,P|248:64|284:112,1,130,4|8,0:0|0:0,0:0:0:0:
168,192,169793,2,0,L|100:176,2,65,0|0|8,0:0|0:0|0:0,0:0:0:0:
180,248,170431,6,0,B|136:320|136:320|96:336,1,126.749994197846,0|4,0:0|0:0,0:0:0:0:
256,192,172346,12,4,174049,0:0:0:0:
256,192,187666,6,0,P|316:164|376:176,1,130,2|8,0:0|0:0,0:0:0:0:
320,292,188517,2,0,P|196:293|140:184,1,260,2|2,0:0|0:0,0:0:0:0:
216,76,189793,6,0,B|288:36|340:76|392:116|468:72,1,260,8|8,0:0|0:0,0:0:0:0:
468,204,191070,2,0,B|393:247|341:207|289:167|217:207,3,260,2|0|2|0,0:0|0:0|0:0|0:0,0:0:0:0:
124,296,194049,1,8,0:0:0:0:
28,208,194474,6,0,P|24:140|48:84,1,130,2|8,0:0|0:0,0:0:0:0:
152,160,195325,2,0,P|197:109|253:86,1,130,0|8,0:0|0:0,0:0:0:0:
272,212,196176,2,0,P|171:285|49:248,2,260,0|0|2,0:0|0:0|0:0,0:0:0:0:
256,84,198304,5,8,0:0:0:0:
132,48,198729,2,0,P|56:64|16:96,1,130,0|8,0:0|0:0,0:0:0:0:
88,204,199580,2,0,P|152:184|216:192,1,130,2|8,0:0|0:0,0:0:0:0:
336,236,200431,1,0,0:0:0:0:
380,356,200857,1,8,0:0:0:0:
336,236,201283,6,0,P|392:196|452:192,1,130,2|8,0:0|0:0,0:0:0:0:
432,64,202134,2,0,P|364:60|308:84,1,130,0|8,0:0|0:0,0:0:0:0:
256,204,202985,2,0,P|160:200|96:132,2,195,0|0|8,0:0|0:0|0:0,0:0:0:0:
388,208,204687,6,0,P|424:272|424:332,1,130,2|8,0:0|0:0,0:0:0:0:
300,296,205538,2,0,P|236:296|176:324,1,130,0|8,0:0|0:0,0:0:0:0:
48,336,206389,2,0,P|45:239|109:170,2,195,2|0|8,0:0|0:0|0:0,0:0:0:0:
176,360,208091,6,0,B|324:408|472:400|524:240|452:96|260:56|256:192|252:328|60:288|-12:144|40:-16|188:-24|336:24,2,1040
256,192,215325,12,0,218304,0:0:0:0:
62,192,220006,6,4,B|109:295|256:295|256:192|256:88|402:88|449:192,1,487.50001859665
256,364,223410,5,4,0:0:0:0:
100,192,224261,1,4,0:0:0:0:
256,20,225112,1,4,0:0:0:0:
256,192,225751,2,0,P|316:216|380:208,1,130,4|4,0:0|0:0,0:0:0:0:
256,360,226814,6,0,P|143:222|256:80,1,390,4|0,0:0|0:0,0:0:0:0:
308,228,228517,6,0,P|130:210|110:30,1,390,4|0,0:0|0:0,0:0:0:0:
256,88,230219,6,4,B|276:168|276:168|236:256|236:256|256:336,3,260
256,192,233197,12,4,235325,0:0:0:0:
256,192,237027,6,0,P|312:156|336:96,1,130,4|8,0:0|0:0,0:0:0:0:
196,64,237878,2,0,L|64:64,2,130,0|8|0,0:0|0:0|0:0,0:0:0:0:
128,192,239155,1,8,0:0:0:0:
196,320,239580,1,0,0:0:0:0:
132,192,240006,1,8,0:0:0:0:
196,64,240431,1,0,0:0:0:0:
136,192,240857,6,0,B|212:220|260:172|308:124|384:152,1,260,8|8,0:0|0:0,0:0:0:0:
400,296,242134,2,0,P|336:316|276:304,1,130,4|8,0:0|0:0,0:0:0:0:
180,196,242985,2,0,P|240:192|296:152,1,130,4|8,0:0|0:0,0:0:0:0:
416,80,243836,6,0,L|476:108,1,65,4|0,0:0|0:0,0:0:0:0:
476,168,244261,2,0,L|416:196,1,65,8|0,0:0|0:0,0:0:0:0:
416,256,244687,2,0,L|476:284,1,65
476,344,245112,1,8,0:0:0:0:
308,356,245538,6,0,L|280:296,1,65,4|0,0:0|0:0,0:0:0:0:
220,296,245963,2,0,L|192:356,1,65,8|0,0:0|0:0,0:0:0:0:
132,356,246389,2,0,L|104:296,1,65
44,296,246814,1,8,0:0:0:0:
24,128,247240,6,0,P|76:88|140:80,1,130,4|8,0:0|0:0,0:0:0:0:
192,212,248091,2,0,P|256:228|320:212,1,130,0|8,0:0|0:0,0:0:0:0:
373,79,248942,6,0,P|436:88|488:128,1,130,4|8,0:0|0:0,0:0:0:0:
488,256,249793,2,0,P|436:296|373:304,1,130,4|8,0:0|0:0,0:0:0:0:
256,224,250644,6,0,L|256:92,1,130,4|8,0:0|0:0,0:0:0:0:
120,52,251495,2,0,L|56:64,2,65,0|0|8,0:0|0:0|0:0,0:0:0:0:
256,88,252346,1,0,0:0:0:0:
392,52,252772,1,8,0:0:0:0:
256,84,253197,2,0,L|256:214,1,130,0|8,0:0|0:0,0:0:0:0:
140,312,254049,6,0,P|80:292|40:240,1,130,2|8,0:0|0:0,0:0:0:0:
176,192,254900,2,0,P|157:131|177:68,1,130,2|8,0:0|0:0,0:0:0:0:
336,69,255751,2,0,P|355:131|336:192,1,130,2|8,0:0|0:0,0:0:0:0:
472,240,256602,2,0,P|432:292|372:312,1,130,2|8,0:0|0:0,0:0:0:0:
256,228,257453,5,4,0:0:0:0:
256,84,257878,2,0,L|256:20,2,65,8|0|0,0:0|0:0|0:0,0:0:0:0:
164,192,258729,1,8,0:0:0:0:
92,68,259155,1,0,0:0:0:0:
20,192,259580,1,8,0:0:0:0:
92,316,260006,2,0,P|156:328|216:304,1,130,0|8,0:0|0:0,0:0:0:0:
352,340,260857,6,0,P|408:308|428:240,1,136.499995834351,4|8,0:0|0:0,0:0:0:0:
288,208,261708,6,0,P|308:140|284:72,1,143.000004364014,4|8,0:0|0:0,0:0:0:0:
156,144,262559,6,0,P|96:100|24:96,1,149.500002851486,4|8,0:0|0:0,0:0:0:0:
28,252,263410,6,0,P|48:328|112:368,1,155.999995239258,4|8,0:0|0:0,0:0:0:0:
256,308,264261,6,0,L|256:176,1,130,4|8,0:0|0:0,0:0:0:0:
372,92,265112,2,0,L|432:116,2,65,0|0|8,0:0|0:0|0:0,0:0:0:0:
336,136,265751,6,0,B|344:220|344:220|372:252,1,126.749994197846,0|4,0:0|0:0,0:0:0:0:
256,192,267666,12,0,271070,0:0:0:0:
256,192,281283,6,0,B|196:168|196:168|128:168,1,130,4|8,0:0|0:0,0:0:0:0:
72,140,281921,2,0,B|100:80|100:80|152:44,1,130
208,80,282559,2,0,B|268:108|268:108|336:108,2,130,8|0|8,0:0|0:0|0:0,0:0:0:0:
160,200,283836,1,0,0:0:0:0:
256,288,284261,1,8,0:0:0:0:
352,200,284687,6,0,P|416:192|472:224,1,130,0|8,0:0|0:0,0:0:0:0:
452,284,285325,2,0,P|384:292|336:328,1,130
284,368,285963,2,0,P|224:336|204:280,1,130,8|0,0:0|0:0,0:0:0:0:
256,160,286814,1,8,0:0:0:0:
128,192,287240,1,0,0:0:0:0:
120,64,287666,1,8,0:0:0:0:
124,192,288091,6,0,P|148:252|204:280,1,130,0|8,0:0|0:0,0:0:0:0:
256,240,288729,2,0,P|320:236|372:272,1,130
428,308,289368,2,0,P|466:252|468:192,2,130,8|0|8,0:0|0:0|0:0,0:0:0:0:
300,336,290644,1,0,0:0:0:0:
176,304,291070,1,8,0:0:0:0:
108,192,291495,6,0,B|216:104|288:192|360:280|468:192,1,390,0|8,0:0|0:0,0:0:0:0:
448,64,293197,1,0,0:0:0:0:
324,24,293623,1,8,0:0:0:0:
188,24,294049,1,0,0:0:0:0:
64,64,294474,1,0,0:0:0:0:
44,192,294900,6,0,P|256:316|256:60,1,607.750011591912,0|4,0:0|0:0,0:0:0:0:
256,192,297453,12,0,300006,0:0:0:0:
