osu file format v12

[General]
AudioFilename: ANSWER.mp3
AudioLeadIn: 0
PreviewTime: 72338
Countdown: 0
SampleSet: Soft
StackLeniency: 0.7
Mode: 0
LetterboxInBreaks: 0

[Editor]
Bookmarks: 136594
DistanceSpacing: 1.2
BeatDivisor: 4
GridSize: 4

[Metadata]
Title:ANSWER
TitleUnicode:ANSWER
Artist:Kurosaki Maon
ArtistUnicode:黒崎 真音
Creator:B2IN
Version:Hard
Source:Toaru Majutsu no Index
Tags:Saten saten-san ALTIMA Magic world Iuchi Maiko
BeatmapID:210805
BeatmapSetID:74152

[Difficulty]
HPDrainRate:6
CircleSize:4
OverallDifficulty:6
ApproachRate:7
SliderMultiplier:1.6
SliderTickRate:1

[Events]
//Background and Video events
0,0,"bg.jpg",0,0
//Break Periods
2,31270,42085
2,106163,110170
2,174249,186766
//Storyboard Layer 0 (Background)
//Storyboard Layer 1 (Fail)
//Storyboard Layer 2 (Pass)
//Storyboard Layer 3 (Foreground)
//Storyboard Sound Samples
//Background Colour Transformations
3,100,163,162,255

[TimingPoints]
432,425.531914893617,4,2,1,65,1,0
23517,-100,4,3,0,48,0,0
24049,-100,4,2,1,65,0,0
30219,-100,4,3,0,50,0,0
30325,-100,4,1,0,35,0,0
30644,-100,4,1,0,40,0,0
31070,-100,4,1,0,56,0,0
44687,-100,4,2,1,65,0,0
56814,-100,4,1,0,45,0,0
57453,-100,4,1,0,50,0,0
57878,-100,4,2,1,65,0,0
71070,-100,4,3,0,40,0,0
71495,-100,4,1,0,40,0,0
71921,-100,4,2,1,65,0,0
73623,-100,4,2,1,65,0,1
80006,-83.3333333333333,4,2,1,65,0,1
80219,-100,4,2,1,65,0,1
86389,-100,4,2,1,65,0,0
87240,-100,4,2,1,65,0,1
102346,-153.846153846153,4,2,1,65,0,1
102985,-100,4,1,0,50,0,0
104261,-100,4,1,1,65,0,0
104368,-100,4,2,1,65,0,0
124900,-100,4,1,0,45,0,0
125538,-100,4,1,0,50,0,0
125963,-100,4,2,1,65,0,0
139155,-100,4,3,0,40,0,0
139580,-100,4,1,0,40,0,0
140006,-100,4,2,1,65,0,0
141708,-100,4,2,1,65,0,1
148091,-83.3333333333333,4,2,1,65,0,1
148304,-100,4,2,1,65,0,1
154474,-100,4,2,1,65,0,0
155325,-100,4,2,1,65,0,1
170432,-153.846153846153,4,2,1,65,0,1
171070,-100,4,1,0,50,0,0
174049,-100,4,1,0,35,0,0
187666,-100,4,2,1,45,0,0
213197,-100,4,2,1,30,0,0
213410,-100,4,2,1,45,0,0
214900,-100,4,2,1,30,0,0
215006,-100,4,2,1,45,0,0
220006,-100,4,2,1,65,0,0
221495,-83.3333333333333,4,2,1,40,0,0
221708,-83.3333333333333,4,2,1,50,0,0
221921,-83.3333333333333,4,2,1,60,0,0
222134,-83.3333333333333,4,2,1,65,0,0
223410,-100,4,2,1,65,0,0
232772,-100,4,2,1,65,0,0
232878,-100,4,1,0,30,0,0
233197,-100,4,1,0,35,0,0
233623,-100,4,1,0,40,0,0
234049,-100,4,1,0,45,0,0
234474,-100,4,1,0,50,0,0
234900,-100,4,1,0,60,0,0
237027,-100,4,2,1,65,0,1
243410,-83.3333333333333,4,2,1,65,0,1
243623,-100,4,2,1,65,0,1
249793,-100,4,2,1,65,0,0
250644,-100,4,2,1,65,0,1
265751,-153.846153846153,4,2,1,65,0,1
266389,-100,4,1,0,50,0,0
266495,-100,4,2,1,50,0,0
267666,-100,4,2,1,70,0,0
281283,-100,4,2,1,70,0,1
294049,-100,4,3,0,50,0,1
294900,-100,4,2,1,65,0,0
295006,-100,4,2,1,20,0,0
296602,-100,4,2,1,5,0,0
297240,-100,4,1,0,50,0,0
297346,-100,4,2,1,65,0,0

[Colours]
Combo1 : 6,204,169
Combo2 : 204,13,108
Combo3 : 255,90,11

[HitObjects]
256,192,15751,12,8,17027,0:0:0:0:
168,192,17453,5,4,0:0:0:0:
256,232,17666,1,0,0:0:0:0:
344,192,17878,2,0,B|344:96|344:96|308:40,1,160,8|0,0:0|0:0,0:0:0:0:
256,124,18517,1,0,0:0:0:0:
202,42,18729,6,0,B|168:96|168:96|168:192,1,160,8|0,0:0|0:0,0:0:0:0:
216,276,19368,2,0,P|256:284|296:276,1,80,0|8,0:0|0:0,0:0:0:0:
344,192,19793,1,0,0:0:0:0:
392,276,20006,2,0,L|392:368,2,80,0|0|8,0:0|0:0|0:0,0:0:0:0:
344,192,20644,1,0,0:0:0:0:
392,108,20857,6,0,L|392:16,1,80,0|0,0:0|0:0,0:0:0:0:
300,56,21283,2,0,B|256:112|256:112|164:112,1,160,8|0,0:0|0:0,0:0:0:0:
120,192,21921,1,0,0:0:0:0:
167,272,22134,6,0,B|256:272|256:272|300:328,1,160,8|0,0:0|0:0,0:0:0:0:
400,328,22772,2,0,L|453:260,1,80,0|8,0:0|0:0,0:0:0:0:
504,188,23197,1,0,0:0:0:0:
420,140,23410,2,0,L|372:148,1,40,0|8,0:0|0:0,0:0:0:0:
264,85,23729,2,0,L|304:92,1,40,0|4,0:0|0:0,0:0:0:0:
184,136,24049,5,0,0:0:0:0:
164,155,24155,1,0,0:0:0:0:
144,174,24261,2,0,L|144:274,1,80,4|0,0:0|0:0,0:0:0:0:
128,348,24687,2,0,B|172:348|200:328|200:328|284:356,1,160,8|0,0:0|0:0,0:0:0:0:
347,286,25325,1,0,0:0:0:0:
444,300,25538,6,0,B|444:256|424:228|424:228|452:144,1,160,8|0,0:0|0:0,0:0:0:0:
450,52,26176,2,0,L|368:64,1,80,0|8,0:0|0:0,0:0:0:0:
292,120,26602,2,0,L|210:108,1,80
128,68,27027,1,0,0:0:0:0:
100,160,27240,1,8,0:0:0:0:
256,308,27453,5,0,0:0:0:0:
256,308,27559,1,0,0:0:0:0:
256,308,27666,2,0,L|256:212,1,80
256,132,28091,2,0,B|300:144|344:132|344:132|412:160,1,160,8|0,0:0|0:0,0:0:0:0:
256,132,28729,5,0,0:0:0:0:
256,132,28942,2,0,B|212:144|168:132|168:132|100:160,1,160,8|0,0:0|0:0,0:0:0:0:
34,226,29580,1,0,0:0:0:0:
34,226,29793,1,8,0:0:0:0:
101,293,30006,1,0,0:0:0:0:
168,225,30219,2,0,L|213:225,3,40,8|0|0|0,0:0|0:0|0:0|0:0,0:0:0:0:
241,191,30644,2,0,L|286:191,3,40
315,156,31070,1,4,0:0:0:0:
256,192,42985,12,0,44261,0:0:0:0:
72,72,44687,6,0,P|108:136|188:168,1,160,0|2,0:0|0:0,0:0:0:0:
440,72,45538,2,0,P|404:136|324:168,1,160,0|2,0:0|0:0,0:0:0:0:
256,232,46176,6,0,L|256:328,1,80
340,360,46602,1,0,0:0:0:0:
436,348,46814,1,2,0:0:0:0:
484,264,47027,1,0,0:0:0:0:
440,180,47240,2,0,P|408:208|388:248,2,80,0|0|2,0:0|0:0|0:0,0:0:0:0:
484,264,47878,5,0,0:0:0:0:
484,264,48091,2,0,L|336:164,1,160,0|2,0:0|0:0,0:0:0:0:
256,168,48729,1,0,0:0:0:0:
160,174,48942,2,0,L|28:264,1,160,0|2,0:0|0:0,0:0:0:0:
100,330,49580,5,0,0:0:0:0:
100,330,49793,2,0,B|157:335|201:311|201:311|257:311,1,160,0|2,0:0|0:0,0:0:0:0:
413,330,50644,2,0,B|356:335|312:311|312:311|256:311,1,160,0|2,0:0|0:0,0:0:0:0:
256,216,51283,1,0,0:0:0:0:
212,132,51495,6,0,P|143:168|106:239,1,160,0|2,0:0|0:0,0:0:0:0:
84,332,52134,1,0,0:0:0:0:
180,336,52346,2,0,P|256:360|332:336,1,160,0|2,0:0|0:0,0:0:0:0:
428,332,52985,1,0,0:0:0:0:
405,239,53197,6,0,P|368:168|300:132,1,160,0|2,0:0|0:0,0:0:0:0:
256,216,53836,1,0,0:0:0:0:
212,132,54049,2,0,P|144:168|107:239,1,160,0|2,0:0|0:0,0:0:0:0:
168,316,54687,5,0,0:0:0:0:
168,316,54793,1,0,0:0:0:0:
168,316,54900,2,0,B|212:316|212:316|244:296,1,80
320,240,55325,1,2,0:0:0:0:
232,200,55538,1,0,0:0:0:0:
243,297,55751,1,0,0:0:0:0:
68,132,56176,1,2,0:0:0:0:
100,372,56602,1,4,0:0:0:0:
196,356,56814,5,0,0:0:0:0:
280,240,57027,1,0,0:0:0:0:
296,252,57134,1,0,0:0:0:0:
312,264,57240,1,0,0:0:0:0:
408,232,57453,1,0,0:0:0:0:
423,243,57559,1,0,0:0:0:0:
440,256,57666,1,0,0:0:0:0:
456,268,57772,1,0,0:0:0:0:
472,280,57878,2,0,L|472:364,1,80,2|2,0:0|0:0,0:0:0:0:
348,348,58304,5,4,0:0:0:0:
124,268,58729,2,0,P|97:193|125:121,2,160,2|0|2,0:0|0:0|0:0,0:0:0:0:
144,364,59793,1,0,0:0:0:0:
228,320,60006,6,0,P|268:304|308:304,1,80
392,340,60431,1,2,0:0:0:0:
392,340,60644,2,0,P|428:268|408:192,1,160
336,136,61283,1,2,0:0:0:0:
320,232,61495,1,0,0:0:0:0:
409,194,61708,5,0,0:0:0:0:
217,193,62134,2,0,L|45:193,1,160,2|0,0:0|0:0,0:0:0:0:
118,269,62772,1,0,0:0:0:0:
118,269,62985,2,0,P|150:193|122:121,1,160,2|0,0:0|0:0,0:0:0:0:
58,193,63623,5,0,0:0:0:0:
36,288,63836,2,0,P|56:328|92:348,1,80,2|0,0:0|0:0,0:0:0:0:
180,352,64261,1,0,0:0:0:0:
240,276,64474,2,0,P|277:256|319:256,2,80,0|2|0,0:0|0:0|0:0,0:0:0:0:
298,335,65112,6,0,L|250:167,1,160,0|2,0:0|0:0,0:0:0:0:
184,116,65751,2,0,B|156:144|156:144|116:144,1,80
76,232,66176,2,0,B|36:232|36:232|8:260,1,80,0|2,0:0|0:0,0:0:0:0:
80,324,66602,6,0,B|164:324|164:324|224:272,1,160
308,232,67240,1,2,0:0:0:0:
416,216,67453,2,0,P|460:280|412:340,1,160
320,344,68091,2,0,P|283:326|239:318,1,80,2|0,0:0|0:0,0:0:0:0:
148,324,68517,5,4,0:0:0:0:
172,232,68729,1,0,0:0:0:0:
172,232,68942,1,2,0:0:0:0:
256,276,69155,1,0,0:0:0:0:
256,276,69261,2,0,P|312:264|352:216,1,120,2|0,0:0|0:0,0:0:0:0:
264,180,69793,1,2,0:0:0:0:
272,348,70006,6,0,P|348:324|408:264,1,160,4|0,0:0|0:0,0:0:0:0:
404,173,70644,1,2,0:0:0:0:
404,173,70857,1,0,0:0:0:0:
344,60,71070,2,0,P|308:88|292:120,1,80,4|0,0:0|0:0,0:0:0:0:
296,224,71495,1,0,0:0:0:0:
272,240,71602,1,0,0:0:0:0:
244,240,71708,1,0,0:0:0:0:
220,224,71814,1,0,0:0:0:0:
256,192,71921,12,8,73197,0:0:0:0:
440,120,73623,6,0,B|352:120|352:120|288:164,1,160,4|8,0:0|0:0,0:0:0:0:
220,224,74261,2,0,B|190:244|190:244|146:244,1,80,0|0,0:0|0:0,0:0:0:0:
72,184,74687,1,0,0:0:0:0:
152,132,74900,1,8,0:0:0:0:
248,140,75112,6,0,P|300:188|296:272,1,160
236,348,75751,2,0,P|197:336|158:335,1,80,8|0,0:0|0:0,0:0:0:0:
64,344,76176,1,0,0:0:0:0:
20,260,76389,1,0,0:0:0:0:
87,192,76602,2,0,L|95:144,2,40,8|0|0,0:0|0:0|0:0,0:0:0:0:
156,316,77027,5,0,0:0:0:0:
156,316,77240,2,0,P|191:299|233:304,1,80,0|8,0:0|0:0,0:0:0:0:
321,336,77666,1,0,0:0:0:0:
345,320,77772,2,0,P|385:268|393:216,1,120
360,124,78304,1,8,0:0:0:0:
292,191,78517,5,0,0:0:0:0:
292,191,78623,1,0,0:0:0:0:
292,191,78729,2,0,P|256:208|208:212,1,80,4|0,0:0|0:0,0:0:0:0:
124,180,79155,1,8,0:0:0:0:
36,272,79368,1,0,0:0:0:0:
144,336,79580,2,0,P|183:331|219:314,1,80,4|0,0:0|0:0,0:0:0:0:
328,280,80006,2,0,P|376:264|424:276,1,95.9999970703126,8|0,0:0|0:0,0:0:0:0:
487,341,80432,5,4,0:0:0:0:
394,366,80644,2,0,L|340:376,1,40
308,372,80857,2,0,L|220:360,1,80,8|0,0:0|0:0,0:0:0:0:
188,340,81176,2,0,L|100:348,1,80
60,336,81495,1,0,0:0:0:0:
10,253,81708,1,8,0:0:0:0:
77,185,81921,1,0,0:0:0:0:
160,236,82134,5,4,0:0:0:0:
168,140,82346,1,0,0:0:0:0:
184,132,82453,1,0,0:0:0:0:
200,124,82559,2,0,B|232:144|232:144|276:144,1,80,8|0,0:0|0:0,0:0:0:0:
304,144,82878,2,0,B|344:144|344:144|388:168,1,80
404,176,83197,1,0,0:0:0:0:
332,240,83410,2,0,L|332:325,1,80,8|0,0:0|0:0,0:0:0:0:
440,256,83836,5,4,0:0:0:0:
456,108,84261,2,0,B|404:64|404:64|360:76|312:64,2,160,8|0|8,0:0|0:0|0:0,0:0:0:0:
492,196,85325,6,0,P|472:232|432:256,2,80,0|4|0,0:0|0:0|0:0,0:0:0:0:
404,164,85963,1,8,0:0:0:0:
344,244,86176,1,0,0:0:0:0:
288,324,86389,2,0,B|244:372|244:372|148:372,1,160,4|8,0:0|0:0,0:0:0:0:
64,328,87027,5,0,0:0:0:0:
64,300,87134,1,0,0:0:0:0:
64,272,87240,2,0,L|64:168,1,80,4|0,0:0|0:0,0:0:0:0:
132,123,87666,2,0,B|172:123|172:123|216:147,1,80,8|0,0:0|0:0,0:0:0:0:
380,123,88091,2,0,B|340:123|340:123|296:147,1,80
256,224,88517,1,8,0:0:0:0:
180,316,88729,6,0,P|255:343|327:315,1,160
424,316,89368,1,8,0:0:0:0:
404,224,89580,2,0,P|329:197|257:225,1,160
256,128,90219,2,0,L|256:44,1,80,8|0,0:0|0:0,0:0:0:0:
340,96,90644,5,4,0:0:0:0:
316,188,90857,2,0,B|280:207|280:207|240:207,1,80,0|8,0:0|0:0,0:0:0:0:
148,180,91283,1,0,0:0:0:0:
148,180,91389,2,0,P|96:200|72:264,1,120
104,348,91921,1,8,0:0:0:0:
204,364,92134,1,0,0:0:0:0:
172,276,92346,6,0,B|207:257|207:257|247:257,1,80,0|0,0:0|0:0,0:0:0:0:
324,316,92772,1,8,0:0:0:0:
324,316,92985,2,0,B|408:316|408:316|484:268,1,160,0|0,0:0|0:0,0:0:0:0:
472,179,93623,1,8,0:0:0:0:
336,44,94049,6,0,B|300:57|272:89|272:89|192:89,1,160,4|8,0:0|0:0,0:0:0:0:
103,129,94687,2,0,P|95:89|103:49,2,80
176,192,95325,1,8,0:0:0:0:
272,188,95538,6,0,P|347:161|419:189,1,160
380,276,96176,1,8,0:0:0:0:
312,343,96389,1,0,0:0:0:0:
312,343,96495,1,0,0:0:0:0:
312,344,96602,2,0,B|277:363|277:363|237:363,1,80
168,295,97027,2,0,B|133:276|133:276|93:276,1,80,8|0,0:0|0:0,0:0:0:0:
64,276,97346,1,0,0:0:0:0:
35,276,97453,6,0,L|36:184,1,80,4|0,0:0|0:0,0:0:0:0:
103,128,97878,2,0,B|143:128|143:128|178:147,1,80,8|0,0:0|0:0,0:0:0:0:
256,208,98304,2,0,L|256:300,1,80,4|0,0:0|0:0,0:0:0:0:
323,355,98729,2,0,B|363:355|363:355|398:336,1,80,8|0,0:0|0:0,0:0:0:0:
466,267,99155,6,0,L|464:168,1,80,4|0,0:0|0:0,0:0:0:0:
396,119,99580,2,0,B|356:119|356:119|321:138,1,80,8|0,0:0|0:0,0:0:0:0:
256,208,100006,2,0,L|256:298,1,80,4|0,0:0|0:0,0:0:0:0:
187,356,100432,1,8,0:0:0:0:
68,332,100644,5,0,0:0:0:0:
68,332,100751,1,0,0:0:0:0:
68,332,100857,2,0,L|68:164,1,160,4|8,0:0|0:0,0:0:0:0:
135,104,101495,1,0,0:0:0:0:
208,168,101708,1,0,0:0:0:0:
304,168,101921,1,0,0:0:0:0:
377,104,102134,1,8,0:0:0:0:
444,171,102346,6,0,B|444:264|444:264|408:320,1,155.999992858887,0|4,0:0|0:0,0:0:0:0:
256,192,103091,12,4,104261,0:0:0:0:
256,192,104368,12,4,105963,0:0:0:0:
256,192,111070,12,0,112346,0:0:0:0:
56,300,112772,6,0,B|112:256|112:256|200:256,1,160,4|2,0:0|0:0,0:0:0:0:
456,300,113623,2,0,B|400:256|400:256|312:256,1,160,0|2,0:0|0:0,0:0:0:0:
256,176,114261,6,0,L|256:92,1,80
324,28,114687,1,0,0:0:0:0:
404,80,114900,2,0,B|439:99|439:99|479:99,2,80,2|0|0,0:0|0:0|0:0,0:0:0:0:
324,28,115538,1,0,0:0:0:0:
256,96,115751,1,2,0:0:0:0:
188,28,115963,1,0,0:0:0:0:
120,95,116176,6,0,P|111:175|164:230,1,160,0|2,0:0|0:0,0:0:0:0:
256,216,116814,1,0,0:0:0:0:
349,229,117027,2,0,P|400:175|392:95,1,160,0|2,0:0|0:0,0:0:0:0:
295,94,117666,5,0,0:0:0:0:
295,94,117878,2,0,B|223:146|223:146|143:146,1,160,0|2,0:0|0:0,0:0:0:0:
68,192,118517,1,0,0:0:0:0:
151,238,118729,2,0,B|223:238|223:238|295:290,1,160,0|2,0:0|0:0,0:0:0:0:
380,240,119368,1,0,0:0:0:0:
404,148,119580,6,0,P|368:79|297:42,1,160,0|2,0:0|0:0,0:0:0:0:
204,20,120219,1,0,0:0:0:0:
200,116,120431,2,0,P|176:192|200:268,1,160,0|2,0:0|0:0,0:0:0:0:
204,364,121070,1,0,0:0:0:0:
297,341,121282,6,0,P|368:304|404:235,1,160,0|2,0:0|0:0,0:0:0:0:
320,192,121921,1,0,0:0:0:0:
404,148,122134,2,0,P|368:79|297:42,1,160,0|2,0:0|0:0,0:0:0:0:
212,84,122772,5,0,0:0:0:0:
212,84,122878,1,0,0:0:0:0:
212,84,122985,2,0,B|193:119|193:119|193:159,1,80
252,232,123410,2,0,B|271:197|271:197|271:157,1,80,2|0,0:0|0:0,0:0:0:0:
156,240,123836,1,0,0:0:0:0:
352,380,124261,1,2,0:0:0:0:
400,144,124687,1,4,0:0:0:0:
304,156,124900,5,0,0:0:0:0:
180,96,125113,1,0,0:0:0:0:
165,110,125219,1,0,0:0:0:0:
150,124,125326,1,0,0:0:0:0:
195,208,125538,1,0,0:0:0:0:
180,222,125644,1,0,0:0:0:0:
165,236,125751,1,0,0:0:0:0:
150,250,125857,1,0,0:0:0:0:
135,264,125963,2,0,L|134:351,1,80,2|0,0:0|0:0,0:0:0:0:
244,364,126389,6,0,B|284:364|284:364|319:345,1,80,4|0,0:0|0:0,0:0:0:0:
387,276,126814,2,0,B|427:276|427:276|462:295,1,80,2|0,0:0|0:0,0:0:0:0:
296,252,127240,2,0,B|296:212|296:212|315:177,1,80
384,108,127666,1,2,0:0:0:0:
432,192,127878,1,0,0:0:0:0:
388,276,128091,6,0,B|310:307|311:255|228:276,1,160,0|2,0:0|0:0,0:0:0:0:
140,248,128729,2,0,P|104:310|166:349,1,160
232,275,129368,1,2,0:0:0:0:
299,208,129580,1,0,0:0:0:0:
366,140,129793,6,0,P|406:132|446:140,1,80,0|0,0:0|0:0,0:0:0:0:
476,232,130219,2,0,P|400:256|324:232,1,160,2|0,0:0|0:0,0:0:0:0:
257,300,130857,1,0,0:0:0:0:
160,300,131070,2,0,B|120:300|120:300|85:319,1,80,2|0,0:0|0:0,0:0:0:0:
16,251,131495,6,0,L|16:80,1,160,0|2,0:0|0:0,0:0:0:0:
87,22,132134,1,0,0:0:0:0:
256,116,132559,1,0,0:0:0:0:
344,80,132772,1,2,0:0:0:0:
432,116,132985,5,0,0:0:0:0:
432,116,133197,2,0,L|432:204,1,80,0|0,0:0|0:0,0:0:0:0:
364,264,133623,2,0,P|324:272|284:264,1,80,2|0,0:0|0:0,0:0:0:0:
189,264,134049,2,0,P|149:256|109:264,1,80,0|0,0:0|0:0,0:0:0:0:
52,340,134474,1,2,0:0:0:0:
148,340,134687,6,0,L|148:176,1,160
215,112,135325,1,2,0:0:0:0:
282,44,135538,2,0,B|362:44|362:44|430:92,1,160
495,158,136176,2,0,L|496:256,1,80,2|0,0:0|0:0,0:0:0:0:
427,306,136602,5,4,0:0:0:0:
359,238,136814,1,0,0:0:0:0:
359,238,137027,1,0,0:0:0:0:
275,194,137240,1,0,0:0:0:0:
275,194,137346,2,0,P|219:206|179:254,1,120,2|0,0:0|0:0,0:0:0:0:
267,290,137878,1,2,0:0:0:0:
259,122,138091,6,0,P|183:146|123:206,1,160,4|0,0:0|0:0,0:0:0:0:
127,297,138729,1,2,0:0:0:0:
127,297,138942,1,2,0:2:0:0:
194,364,139155,2,0,L|280:364,1,80,4|0,0:0|0:0,0:0:0:0:
341,296,139580,1,0,0:0:0:0:
340,268,139687,1,0,0:0:0:0:
340,240,139793,1,0,0:0:0:0:
340,212,139900,1,0,0:0:0:0:
256,192,140006,12,8,141283,0:0:0:0:
44,332,141708,6,0,B|132:332|132:332|196:288,1,160,4|8,0:0|0:0,0:0:0:0:
264,228,142346,2,0,B|294:208|294:208|338:208,1,80,0|0,0:0|0:0,0:0:0:0:
412,268,142772,1,0,0:0:0:0:
332,320,142985,1,8,0:0:0:0:
236,312,143197,6,0,P|184:264|188:180,1,160
248,104,143836,2,0,P|287:116|326:117,1,80,8|0,0:0|0:0,0:0:0:0:
304,24,144261,1,0,0:0:0:0:
208,24,144474,1,0,0:0:0:0:
140,91,144687,2,0,L|84:92,2,40,8|0|0,0:0|0:0|0:0,0:0:0:0:
49,181,145112,5,0,0:0:0:0:
49,181,145325,2,0,L|49:261,1,80,0|8,0:0|0:0,0:0:0:0:
108,336,145751,1,0,0:0:0:0:
136,336,145857,2,0,B|192:336|192:336|244:292,1,120
256,200,146389,1,8,0:0:0:0:
324,268,146602,5,0,0:0:0:0:
324,268,146708,1,0,0:0:0:0:
324,268,146814,2,0,L|324:348,1,80,4|0,0:0|0:0,0:0:0:0:
392,199,147240,1,8,0:0:0:0:
324,132,147453,1,0,0:0:0:0:
256,200,147666,2,0,L|160:200,1,80,4|0,0:0|0:0,0:0:0:0:
20,272,148091,2,0,L|116:272,1,95.9999970703126,8|0,0:0|0:0,0:0:0:0:
184,340,148517,5,4,0:0:0:0:
184,340,148623,1,0,0:0:0:0:
184,340,148729,2,0,L|238:350,1,40
272,352,148942,2,0,L|360:340,1,80,8|0,0:0|0:0,0:0:0:0:
392,316,149261,2,0,L|480:324,1,80
500,284,149580,1,0,0:0:0:0:
432,216,149793,1,8,0:0:0:0:
499,148,150006,1,0,0:0:0:0:
431,80,150219,5,4,0:0:0:0:
364,148,150432,1,0,0:0:0:0:
348,140,150539,1,0,0:0:0:0:
328,132,150645,2,0,B|285:132|285:132|253:152,1,80,8|0,0:0|0:0,0:0:0:0:
228,164,150963,2,0,B|188:164|188:164|144:140,1,80
128,128,151282,1,0,0:0:0:0:
76,208,151495,2,0,L|76:304,1,80,8|0,0:0|0:0,0:0:0:0:
196,268,151921,5,4,0:0:0:0:
325,142,152346,2,0,B|273:186|273:186|273:278,2,160,8|0|8,0:0|0:0|0:0,0:0:0:0:
392,209,153410,6,0,L|456:144,2,80,0|4|0,0:0|0:0|0:0,0:0:0:0:
392,305,154049,1,8,0:0:0:0:
324,372,154261,1,0,0:0:0:0:
227,372,154474,1,4,0:0:0:0:
91,236,154900,1,8,0:0:0:0:
180,64,155325,6,0,P|255:91|327:63,2,160,4|8|0,0:0|0:0|0:0,0:0:0:0:
112,131,156389,1,0,0:0:0:0:
136,224,156602,1,8,0:0:0:0:
203,291,156814,6,0,B|274:291|274:291|352:333,1,160
448,320,157453,1,8,0:0:0:0:
380,252,157666,2,0,B|301:209|301:209|230:209,1,160
136,224,158304,1,8,0:0:0:0:
68,156,158517,1,0,0:0:0:0:
136,224,158729,5,4,0:0:0:0:
203,156,158942,2,0,L|203:76,1,80,0|8,0:0|0:0,0:0:0:0:
308,76,159368,1,0,0:0:0:0:
308,76,159474,2,0,L|308:204,1,120,0|0,0:0|0:0,0:0:0:0:
400,228,160006,1,8,0:0:0:0:
384,128,160219,6,0,B|328:76|328:76|240:76,1,160,0|0,0:0|0:0,0:0:0:0:
176,143,160857,1,8,0:0:0:0:
176,239,161070,2,0,B|232:291|232:291|320:291,1,160,0|0,0:0|0:0,0:0:0:0:
411,291,161708,1,8,0:0:0:0:
411,98,162134,6,0,B|368:124|351:162|351:162|271:162,1,160,4|8,0:0|0:0,0:0:0:0:
193,202,162772,2,0,P|185:162|193:122,2,80
256,272,163410,1,8,0:0:0:0:
351,259,163623,6,0,P|426:232|498:260,1,160
429,327,164261,1,8,0:0:0:0:
340,360,164474,1,0,0:0:0:0:
340,360,164580,1,0,0:0:0:0:
340,360,164687,2,0,L|248:360,1,80
192,292,165112,2,0,P|184:252|192:212,1,80,8|0,0:0|0:0,0:0:0:0:
284,196,165538,6,0,B|319:215|319:215|359:215,1,80,4|0,0:0|0:0,0:0:0:0:
432,152,165963,2,0,L|432:72,1,80,8|0,0:0|0:0,0:0:0:0:
360,8,166389,2,0,B|320:8|320:8|285:27,1,80,4|0,0:0|0:0,0:0:0:0:
200,72,166814,2,0,L|200:156,1,80,8|0,0:0|0:0,0:0:0:0:
136,272,167240,5,4,0:0:0:0:
284,196,167453,1,0,0:0:0:0:
120,168,167666,1,8,0:0:0:0:
240,288,167878,1,0,0:0:0:0:
399,244,168091,2,0,P|433:222|457:183,1,80,4|0,0:0|0:0,0:0:0:0:
284,196,168517,1,8,0:0:0:0:
192,220,168729,5,0,0:0:0:0:
172,239,168836,1,0,0:0:0:0:
152,258,168942,2,0,P|160:334|224:382,1,160,4|8,0:0|0:0,0:0:0:0:
316,356,169580,1,0,0:0:0:0:
420,268,169793,1,0,0:0:0:0:
284,276,170006,1,0,0:0:0:0:
400,348,170219,1,8,0:0:0:0:
348,220,170432,6,0,P|288:184|208:228,1,155.999992858887,0|4,0:0|0:0,0:0:0:0:
256,192,171176,12,4,174049,0:0:0:0:
56,84,187666,5,2,0:0:0:0:
123,151,187878,1,0,0:0:0:0:
190,83,188091,1,8,0:0:0:0:
456,84,188517,1,0,0:0:0:0:
389,151,188729,1,0,0:0:0:0:
322,83,188942,1,8,0:0:0:0:
189,323,189368,5,0,0:0:0:0:
256,256,189580,1,0,0:0:0:0:
323,324,189793,1,8,0:0:0:0:
256,152,190219,2,0,L|256:72,2,80,0|0|8,0:0|0:0|0:0,0:0:0:0:
256,256,190857,1,0,0:0:0:0:
164,304,191070,6,0,P|128:278|90:272,2,80,2|0|8,0:0|0:0|0:0,0:0:0:0:
348,304,191921,2,0,P|383:278|421:272,2,80,0|0|8,0:0|0:0|0:0,0:0:0:0:
256,336,192559,1,0,0:0:0:0:
256,240,192772,6,0,L|256:144,1,80,2|0,0:0|0:0,0:0:0:0:
256,64,193197,1,8,0:0:0:0:
172,112,193410,1,0,0:0:0:0:
256,160,193623,2,0,P|296:164|336:188,1,80,2|0,0:0|0:0,0:0:0:0:
404,248,194049,2,0,P|442:238|474:214,1,80,8|0,0:0|0:0,0:0:0:0:
496,120,194474,5,2,0:0:0:0:
408,84,194687,1,0,0:0:0:0:
324,128,194899,1,8,0:0:0:0:
312,224,195112,1,0,0:0:0:0:
328,320,195325,2,0,P|360:345|397:356,1,80,0|0,0:0|0:0,0:0:0:0:
232,312,195751,2,0,P|195:330|170:360,1,80,8|0,0:0|0:0,0:0:0:0:
256,308,196176,6,0,B|219:233|124:220,1,160,0|8,0:0|0:0,0:0:0:0:
80,304,196814,1,0,0:0:0:0:
280,312,197027,6,0,B|270:230|183:185,1,160,0|8,0:0|0:0,0:0:0:0:
116,252,197666,1,0,0:0:0:0:
300,312,197878,6,0,B|315:231|247:162,3,160,0|8|0|8,0:0|0:0|0:0|0:0,0:0:0:0:
56,288,199580,6,0,B|133:316|207:265,3,160,2|8|0|8,0:0|0:0|0:0|0:0,0:0:0:0:
212,75,201283,6,0,B|289:75|289:75|353:127,1,160,2|8,0:0|0:0,0:0:0:0:
212,309,202134,2,0,B|289:309|289:309|353:257,1,160,0|8,0:0|0:0,0:0:0:0:
428,192,202772,1,0,0:0:0:0:
360,124,202985,6,0,P|280:117|218:163,1,160,0|8,0:0|0:0,0:0:0:0:
168,244,203623,2,0,P|247:250|309:204,1,160
260,124,204261,1,8,0:0:0:0:
164,108,204474,1,0,0:0:0:0:
88,168,204687,6,0,P|61:243|89:315,1,160,2|8,0:0|0:0,0:0:0:0:
276,360,205538,2,0,P|304:288|277:213,1,160,0|8,0:0|0:0,0:0:0:0:
209,145,206176,1,0,0:0:0:0:
209,241,206389,6,0,P|281:213|318:143,1,160,2|8,0:0|0:0,0:0:0:0:
404,192,207027,2,0,L|404:280,2,80,0|2|0,0:0|0:0|0:0,0:0:0:0:
472,123,207666,1,8,0:0:0:0:
404,55,207878,5,0,0:0:0:0:
404,55,207985,1,0,0:0:0:0:
404,55,208091,2,0,L|320:55,1,80,2|0,0:0|0:0,0:0:0:0:
255,123,208517,2,0,L|171:123,1,80,8|0,0:0|0:0,0:0:0:0:
107,190,208942,2,0,P|99:230|107:268,1,80,0|0,0:0|0:0,0:0:0:0:
192,312,209368,2,0,P|200:272|192:234,1,80,8|0,0:0|0:0,0:0:0:0:
288,236,209793,1,0,0:0:0:0:
355,303,210006,1,0,0:0:0:0:
452,292,210219,1,8,0:0:0:0:
496,208,210431,6,0,B|432:156|432:156|355:156,1,160
257,156,211070,1,8,0:0:0:0:
257,156,211283,1,0,0:0:0:0:
161,156,211495,6,0,B|121:156|121:156|77:180,1,80,0|0,0:0|0:0,0:0:0:0:
68,272,211921,2,0,B|108:272|108:272|152:248,1,80,8|0,0:0|0:0,0:0:0:0:
232,284,212346,2,0,L|252:368,1,80
328,308,212772,2,0,L|416:328,1,80,8|0,0:0|0:0,0:0:0:0:
473,257,213197,5,4,0:0:0:0:
473,257,213410,1,0,0:0:0:0:
496,164,213623,1,8,0:0:0:0:
496,164,213836,1,0,0:0:0:0:
428,96,214049,2,0,L|344:96,1,80
216,176,214474,2,0,L|296:176,1,80,8|0,0:0|0:0,0:0:0:0:
364,244,214900,6,0,B|328:263|328:263|288:263,1,80,4|0,0:0|0:0,0:0:0:0:
192,263,215325,2,0,B|152:263|152:263|116:282,1,80,8|0,0:0|0:0,0:0:0:0:
48,350,215751,1,0,0:0:0:0:
4,264,215963,1,0,0:0:0:0:
71,196,216176,1,8,0:0:0:0:
4,120,216389,1,0,0:0:0:0:
71,52,216601,6,0,P|111:44|149:52,1,80,0|0,0:0|0:0,0:0:0:0:
217,120,217027,2,0,P|257:128|295:120,1,80,8|0,0:0|0:0,0:0:0:0:
363,52,217453,2,0,P|401:44|441:52,2,80,0|0|8,0:0|0:0|0:0,0:0:0:0:
256,48,218091,2,0,L|256:4,2,40,0|0|2,0:0|0:0|0:0,0:0:0:0:
400,140,220006,5,4,0:0:0:0:
328,268,221495,6,0,B|320:264|320:264|320:272|320:272|316:264|316:264|316:272|316:272|312:264|312:264|312:272|312:272|308:264|308:264|308:272|308:272|296:264|296:264|292:272|292:272|280:264|280:264|276:272|276:272|264:264|264:264|256:272|256:272|232:264|204:260|204:260|164:296|112:264,1,287.999991210938,0|4,0:0|0:0,0:0:0:0:
256,64,223410,5,4,0:0:0:0:
256,104,224261,1,4,0:0:0:0:
256,144,225112,1,4,0:0:0:0:
376,280,225751,5,4,0:0:0:0:
136,280,226176,1,4,0:0:0:0:
317,143,226814,6,0,B|440:180|450:79|435:17|334:3|271:17|255:91|239:164|177:179|75:165|61:103|71:2|194:39,2,640,4|4|4,0:0|0:0|0:0,0:0:0:0:
256,360,231070,5,4,0:0:0:0:
256,320,231921,1,4,0:0:0:0:
256,280,232772,6,0,L|256:228,3,40,4|0|0|0,0:0|0:0|0:0|0:0,0:0:0:0:
256,192,233197,2,0,L|256:140,3,40,0|0|0|0,0:0|0:0|0:0|0:0,0:0:0:0:
256,104,233623,2,0,L|220:65,3,40,0|0|0|0,0:0|0:0|0:0|0:0,0:0:0:0:
180,74,234049,2,0,L|132:74,3,40
92,74,234474,2,0,L|64:103,3,40,0|0|0|0,0:0|0:0|0:0|0:0,0:0:0:0:
64,143,234900,6,0,P|60:167|64:191,1,40
128,208,235112,2,0,P|132:184|130:168,1,40
256,192,235325,12,0,236602,0:0:0:0:
460,340,237027,6,0,B|372:340|372:340|308:296,1,160,4|8,0:0|0:0,0:0:0:0:
240,236,237665,2,0,B|210:216|210:216|166:216,1,80,0|0,0:0|0:0,0:0:0:0:
92,276,238091,1,0,0:0:0:0:
172,328,238304,1,8,0:0:0:0:
268,320,238516,6,0,P|320:272|316:188,1,160
256,112,239155,2,0,P|217:124|178:125,1,80,8|0,0:0|0:0,0:0:0:0:
84,116,239580,1,0,0:0:0:0:
40,200,239793,1,0,0:0:0:0:
107,268,240006,2,0,L|115:316,2,40,8|0|0,0:0|0:0|0:0,0:0:0:0:
196,236,240431,5,0,0:0:0:0:
196,236,240644,2,0,B|232:255|232:255|272:255,1,80,0|8,0:0|0:0,0:0:0:0:
339,186,241070,1,0,0:0:0:0:
339,186,241176,2,0,B|379:230|379:230|379:294,1,120
311,358,241708,1,8,0:0:0:0:
214,358,241921,5,0,0:0:0:0:
214,358,242027,1,0,0:0:0:0:
214,358,242134,2,0,B|174:358|174:358|138:339,1,80,4|0,0:0|0:0,0:0:0:0:
281,290,242559,2,0,B|321:290|321:290|357:271,1,80,8|0,0:0|0:0,0:0:0:0:
213,221,242985,2,0,B|173:221|173:221|137:202,1,80,4|0,0:0|0:0,0:0:0:0:
96,96,243410,2,0,B|143:96|143:96|188:120,1,95.9999970703126,8|0,0:0|0:0,0:0:0:0:
254,50,243836,5,4,0:0:0:0:
321,117,244048,2,0,L|331:171,1,40
362,190,244261,2,0,L|350:278,1,80,8|0,0:0|0:0,0:0:0:0:
317,303,244580,2,0,P|277:310|237:302,1,80
196,280,244899,1,0,0:0:0:0:
128,347,245112,1,8,0:0:0:0:
60,279,245325,1,0,0:0:0:0:
127,211,245538,5,4,0:0:0:0:
200,152,245750,1,0,0:0:0:0:
200,152,245857,1,0,0:0:0:0:
200,152,245963,2,0,B|220:120|220:120|220:76,1,80,8|0,0:0|0:0,0:0:0:0:
216,48,246282,2,0,B|256:48|256:48|300:72,1,80
316,84,246601,1,0,0:0:0:0:
276,172,246814,2,0,L|276:268,1,80,8|0,0:0|0:0,0:0:0:0:
364,332,247240,5,4,0:0:0:0:
508,204,247666,2,0,B|448:150|448:150|362:150,2,160,8|0|8,0:0|0:0|0:0,0:0:0:0:
480,296,248729,6,0,L|419:240,2,80,0|4|0,0:0|0:0|0:0,0:0:0:0:
412,364,249368,1,8,0:0:0:0:
332,312,249580,1,0,0:0:0:0:
256,252,249793,2,0,B|175:252|175:252|116:305,1,160,4|8,0:0|0:0,0:0:0:0:
172,380,250431,1,0,0:0:0:0:
256,332,250644,6,0,L|256:164,1,160,4|8,0:0|0:0,0:0:0:0:
256,76,251283,1,0,0:0:0:0:
168,36,251495,2,0,P|160:76|168:116,1,80,0|0,0:0|0:0,0:0:0:0:
344,114,251921,2,0,P|352:76|344:36,2,80,8|0|0,0:0|0:0|0:0,0:0:0:0:
276,181,252559,1,0,0:0:0:0:
180,180,252772,2,0,B|99:180|99:180|40:233,1,160,8|0,0:0|0:0,0:0:0:0:
108,300,253410,1,0,0:0:0:0:
175,367,253623,1,8,0:0:0:0:
108,300,253836,1,0,0:0:0:0:
40,232,254049,6,0,L|40:144,1,80,4|0,0:0|0:0,0:0:0:0:
112,88,254474,1,8,0:0:0:0:
200,128,254687,1,0,0:0:0:0:
200,128,254793,2,0,P|256:144|316:128,1,120,0|0,0:0|0:0,0:0:0:0:
256,60,255325,1,8,0:0:0:0:
256,60,255538,2,0,L|256:224,1,160
296,308,256176,1,8,0:0:0:0:
204,284,256389,2,0,P|123:285|50:317,1,160
20,224,257027,1,8,0:0:0:0:
172,72,257453,6,0,B|276:56|236:92|332:72,1,160,4|8,0:0|0:0,0:0:0:0:
416,112,258091,2,0,P|424:72|412:32,2,80
349,179,258729,1,8,0:0:0:0:
253,179,258942,6,0,P|178:152|106:180,1,160
174,247,259580,1,8,0:0:0:0:
228,326,259793,1,0,0:0:0:0:
228,326,259899,1,0,0:0:0:0:
228,327,260006,2,0,B|263:346|263:346|303:346,1,80
372,278,260431,2,0,B|407:259|407:259|447:259,1,80,8|0,0:0|0:0,0:0:0:0:
476,259,260750,1,0,0:0:0:0:
505,259,260857,6,0,L|504:167,1,80,4|0,0:0|0:0,0:0:0:0:
437,111,261282,2,0,B|397:111|397:111|362:130,1,80,8|0,0:0|0:0,0:0:0:0:
288,192,261708,2,0,L|288:284,1,80,4|0,0:0|0:0,0:0:0:0:
217,338,262133,2,0,B|177:338|177:338|142:319,1,80,8|0,0:0|0:0,0:0:0:0:
74,250,262559,6,0,L|76:151,1,80,4|0,0:0|0:0,0:0:0:0:
144,102,262984,2,0,B|184:102|184:102|219:121,1,80,8|0,0:0|0:0,0:0:0:0:
288,192,263410,2,0,L|288:282,1,80,4|0,0:0|0:0,0:0:0:0:
353,339,263836,1,8,0:0:0:0:
472,315,264048,5,0,0:0:0:0:
472,315,264155,1,0,0:0:0:0:
472,315,264261,2,0,L|472:147,1,160,4|8,0:0|0:0,0:0:0:0:
403,86,264900,1,0,0:0:0:0:
330,150,265113,1,0,0:0:0:0:
234,150,265326,1,0,0:0:0:0:
161,86,265539,1,8,0:0:0:0:
94,153,265751,6,0,B|94:246|94:246|130:302,1,155.999992858887,0|4,0:0|0:0,0:0:0:0:
256,192,266495,12,0,267453,0:0:0:0:
448,272,267666,6,0,B|404:272|376:252|376:252|292:280,1,160,4|8,0:0|0:0,0:0:0:0:
200,278,268304,1,0,0:0:0:0:
132,210,268517,2,0,L|132:126,1,80,0|0,0:0|0:0,0:0:0:0:
228,50,268942,2,0,L|228:130,1,80,8|0,0:0|0:0,0:0:0:0:
296,198,269368,5,0,0:0:0:0:
391,198,269580,1,0,0:0:0:0:
458,130,269793,2,0,L|458:50,1,80,8|0,0:0|0:0,0:0:0:0:
364,28,270219,1,0,0:0:0:0:
276,68,270432,1,0,0:0:0:0:
180,72,270644,2,0,L|80:52,1,80,8|0,0:0|0:0,0:0:0:0:
33,124,271070,6,0,P|107:151|144:219,1,160,0|8,0:0|0:0,0:0:0:0:
76,286,271708,1,0,0:0:0:0:
143,353,271921,2,0,L|212:304,1,80
303,306,272346,2,0,L|369:353,1,80,8|0,0:0|0:0,0:0:0:0:
437,284,272772,5,0,0:0:0:0:
437,187,272985,1,0,0:0:0:0:
356,236,273197,1,8,0:0:0:0:
437,284,273410,1,0,0:0:0:0:
437,187,273623,2,0,L|436:96,1,80
367,38,274049,2,0,B|327:38|327:38|292:57,1,80,8|0,0:0|0:0,0:0:0:0:
223,125,274474,6,0,B|142:125|142:125|83:72,1,160,0|8,0:0|0:0,0:0:0:0:
15,140,275112,1,0,0:0:0:0:
82,207,275325,2,0,L|82:287,1,80
164,336,275751,2,0,L|164:256,1,80,8|0,0:0|0:0,0:0:0:0:
256,228,276176,5,0,0:0:0:0:
323,295,276389,1,0,0:0:0:0:
390,227,276602,2,0,B|430:227|430:227|465:246,1,80,8|0,0:0|0:0,0:0:0:0:
397,314,277027,2,0,B|357:314|357:314|322:295,1,80,0|0,0:0|0:0,0:0:0:0:
256,228,277453,1,8,0:0:0:0:
256,132,277666,1,0,0:0:0:0:
160,132,277878,6,0,P|85:105|13:133,1,160,0|8,0:0|0:0,0:0:0:0:
86,200,278517,1,0,0:0:0:0:
153,267,278729,2,0,L|200:344,1,80
288,308,279155,2,0,L|376:316,1,80,8|0,0:0|0:0,0:0:0:0:
435,247,279580,5,0,0:0:0:0:
435,247,279793,1,0,0:0:0:0:
502,179,280006,2,0,L|488:128,2,40,8|0|0,0:0|0:0|0:0,0:0:0:0:
434,247,280432,2,0,L|400:288,2,40
396,156,280857,1,8,0:0:0:0:
328,88,281070,5,0,0:0:0:0:
328,88,281176,1,0,0:0:0:0:
328,88,281283,2,0,L|244:88,1,80,4|0,0:0|0:0,0:0:0:0:
168,143,281708,2,0,P|160:183|168:223,1,80,8|0,0:0|0:0,0:0:0:0:
252,264,282134,2,0,P|260:224|252:184,2,80,0|0|8,0:0|0:0|0:0,0:0:0:0:
168,312,282772,1,0,0:0:0:0:
88,260,282985,6,0,L|88:172,1,80
28,24,283410,2,0,L|28:104,1,80,8|0,0:0|0:0,0:0:0:0:
116,60,283836,1,0,0:0:0:0:
116,60,284049,1,0,0:0:0:0:
188,124,284261,1,8,0:0:0:0:
256,60,284474,1,0,0:0:0:0:
324,124,284687,6,0,B|324:164|324:164|343:199,1,80,4|0,0:0|0:0,0:0:0:0:
396,60,285112,2,0,B|436:60|436:60|471:41,1,80,8|0,0:0|0:0,0:0:0:0:
420,152,285538,2,0,B|460:152|460:152|495:133,1,80,0|0,0:0|0:0,0:0:0:0:
495,229,285963,1,8,0:0:0:0:
427,296,286176,1,0,0:0:0:0:
359,228,286389,6,0,P|284:201|212:229,1,160,0|8,0:0|0:0,0:0:0:0:
244,320,287027,2,0,P|284:328|324:320,2,80
147,320,287666,1,8,0:0:0:0:
80,252,287878,5,0,0:0:0:0:
80,252,288091,2,0,B|80:168|80:168|132:104,1,160,4|8,0:0|0:0,0:0:0:0:
244,144,288729,1,0,0:0:0:0:
304,248,288942,2,0,B|220:248|220:248|161:200,1,160,0|8,0:0|0:0,0:0:0:0:
192,84,289580,1,0,0:0:0:0:
304,28,289793,6,0,B|304:112|304:112|252:176,1,160,0|8,0:0|0:0,0:0:0:0:
136,148,290432,1,0,0:0:0:0:
84,40,290644,2,0,B|168:40|168:40|232:92,1,160,0|8,0:0|0:0,0:0:0:0:
295,156,291283,1,0,0:0:0:0:
362,223,291495,6,0,L|362:311,1,80,4|0,0:0|0:0,0:0:0:0:
448,260,291921,2,0,L|448:172,1,80,8|0,0:0|0:0,0:0:0:0:
372,124,292346,1,0,0:0:0:0:
372,124,292559,1,0,0:0:0:0:
304,56,292772,2,0,B|264:56|264:56|229:75,1,80,8|0,0:0|0:0,0:0:0:0:
160,143,293197,5,0,0:0:0:0:
160,143,293410,1,0,0:0:0:0:
227,210,293623,2,0,B|267:210|267:210|302:191,1,80,8|0,0:0|0:0,0:0:0:0:
370,259,294049,1,4,0:0:0:0:
314,330,294261,6,0,L|266:330,5,40,8|0|0|0|0|0,0:0|0:0|0:0|0:0|0:0|0:0,0:0:0:0:
228,344,294900,6,0,P|152:304|404:132,1,640
256,192,297240,5,4,0:0:0:0:
256,192,297346,12,0,300006,0:0:0:0:
