osu file format v12

[General]
AudioFilename: tricoro.mp3
AudioLeadIn: 4000
PreviewTime: 69968
Countdown: 0
SampleSet: Normal
StackLeniency: 0.7
Mode: 3
LetterboxInBreaks: 0
SpecialStyle: 0
WidescreenStoryboard: 1

[Editor]
DistanceSpacing: 1.1
BeatDivisor: 4
GridSize: 8
TimelineZoom: 1.6

[Metadata]
Title:Dragon and Girl and Decoherence
TitleUnicode:龍と少女とデコヒーレンス
Artist:Kuroneko dungeon
ArtistUnicode:黒猫ダンジョン
Creator:LeiN-
Version:6K diamdiam
Source:Beatmania IIDX 20 tricoro
Tags:tricoro 量子の海 yocheck [iidx] miruyanc diamdiam
BeatmapID:355132
BeatmapSetID:115746

[Difficulty]
HPDrainRate:8
CircleSize:6
OverallDifficulty:9
ApproachRate:7
SliderMultiplier:0.4
SliderTickRate:1

[Events]
//Background and Video events
Video,-1380,"bg.avi"
0,0,"bg.png",0,0
//Break Periods
//Storyboard Layer 0 (Background)
//Storyboard Layer 1 (Fail)
//Storyboard Layer 2 (Pass)
//Storyboard Layer 3 (Foreground)
//Storyboard Sound Samples
//Background Colour Transformations
3,100,163,162,255

[TimingPoints]
150,363.636363636364,4,1,1,10,1,0
93240,-100,4,1,1,10,0,1
104876,-100,4,1,1,10,0,0
104877,-100,4,1,1,10,0,1
107785,-100,4,1,1,10,0,0
107786,-100,4,1,1,10,0,1
110694,-100,4,1,1,10,0,0
110695,-100,4,1,1,10,0,1
119421,-100,4,1,1,10,0,0
119422,-100,4,1,1,10,0,1
119513,-100,4,1,1,10,0,0

[HitObjects]
42,192,150,5,0,0:0:0:100:02.wav
298,192,150,1,0,0:0:0:100:HX.wav
128,192,240,1,0,0:0:0:100:HY.wav
384,192,331,1,0,0:0:0:100:HZ.wav
213,192,422,1,0,0:0:0:100:I0.wav
42,192,513,1,0,0:0:0:100:02.wav
298,192,513,1,0,0:0:0:100:I1.wav
469,192,513,1,0,0:0:0:100:L6.wav
128,192,604,1,0,0:0:0:100:I2.wav
384,192,695,1,0,0:0:0:100:I3.wav
213,192,786,1,0,0:0:0:100:I4.wav
42,192,877,1,0,0:0:0:100:02.wav
298,192,877,1,0,0:0:0:100:I5.wav
128,192,968,1,0,0:0:0:100:I6.wav
384,192,1059,1,0,0:0:0:100:I7.wav
213,192,1150,1,0,0:0:0:100:I8.wav
42,192,1240,1,0,0:0:0:100:02.wav
298,192,1240,1,0,0:0:0:100:I9.wav
469,192,1240,1,0,0:0:0:100:LA.wav
128,192,1331,1,0,0:0:0:100:IA.wav
384,192,1422,1,0,0:0:0:100:IB.wav
213,192,1513,1,0,0:0:0:100:IC.wav
42,192,1604,1,0,0:0:0:100:02.wav
384,192,1604,1,0,0:0:0:100:ID.wav
213,192,1695,1,0,0:0:0:100:HY.wav
298,192,1786,1,0,0:0:0:100:HZ.wav
128,192,1877,1,0,0:0:0:100:I0.wav
42,192,1968,1,0,0:0:0:100:02.wav
384,192,1968,1,0,0:0:0:100:I1.wav
469,192,1968,1,0,0:0:0:100:L6.wav
213,192,2059,1,0,0:0:0:100:IE.wav
298,192,2150,1,0,0:0:0:100:IF.wav
128,192,2240,1,0,0:0:0:100:IG.wav
42,192,2331,1,0,0:0:0:100:02.wav
384,192,2331,1,0,0:0:0:100:I5.wav
213,192,2422,1,0,0:0:0:100:I6.wav
298,192,2513,1,0,0:0:0:100:I7.wav
128,192,2604,1,0,0:0:0:100:I8.wav
42,192,2695,1,0,0:0:0:100:02.wav
384,192,2695,1,0,0:0:0:100:I9.wav
469,192,2695,1,0,0:0:0:100:LA.wav
213,192,2786,1,0,0:0:0:100:IA.wav
298,192,2877,1,0,0:0:0:100:IB.wav
128,192,2968,1,0,0:0:0:100:IC.wav
42,192,3059,1,0,0:0:0:100:02.wav
298,192,3059,1,0,0:0:0:100:ID.wav
128,192,3150,1,0,0:0:0:100:HY.wav
384,192,3240,1,0,0:0:0:100:HZ.wav
213,192,3331,1,0,0:0:0:100:I0.wav
42,192,3422,1,0,0:0:0:100:02.wav
298,192,3422,1,0,0:0:0:100:I1.wav
469,192,3422,1,0,0:0:0:100:L6.wav
128,192,3513,1,0,0:0:0:100:I2.wav
384,192,3604,1,0,0:0:0:100:I3.wav
213,192,3695,1,0,0:0:0:100:I4.wav
42,192,3786,1,0,0:0:0:100:02.wav
298,192,3786,1,0,0:0:0:100:IH.wav
128,192,3877,1,0,0:0:0:100:II.wav
384,192,3968,1,0,0:0:0:100:IJ.wav
213,192,4059,1,0,0:0:0:100:IK.wav
42,192,4150,1,0,0:0:0:100:02.wav
298,192,4150,1,0,0:0:0:100:IL.wav
469,192,4150,1,0,0:0:0:100:LA.wav
128,192,4240,1,0,0:0:0:100:IM.wav
384,192,4331,1,0,0:0:0:100:IN.wav
213,192,4422,1,0,0:0:0:100:IO.wav
42,192,4513,1,0,0:0:0:100:02.wav
384,192,4513,1,0,0:0:0:100:ID.wav
213,192,4604,1,0,0:0:0:100:HY.wav
298,192,4695,1,0,0:0:0:100:HZ.wav
128,192,4786,1,0,0:0:0:100:I0.wav
42,192,4877,1,0,0:0:0:100:02.wav
384,192,4877,1,0,0:0:0:100:I1.wav
469,192,4877,1,0,0:0:0:100:L6.wav
213,192,4968,1,0,0:0:0:100:I2.wav
298,192,5059,1,0,0:0:0:100:I3.wav
128,192,5150,1,0,0:0:0:100:I4.wav
42,192,5240,1,0,0:0:0:100:02.wav
384,192,5240,1,0,0:0:0:100:I5.wav
213,192,5331,1,0,0:0:0:100:IP.wav
298,192,5513,1,0,0:0:0:100:IQ.wav
42,192,5604,1,0,0:0:0:100:02.wav
128,192,5604,1,0,0:0:0:100:IR.wav
469,192,5604,1,0,0:0:0:100:LA.wav
298,192,5695,1,0,0:0:0:100:IS.wav
213,192,5786,1,0,0:0:0:100:IT.wav
384,192,5877,1,0,0:0:0:100:IU.wav
42,192,5968,1,0,0:0:0:100:02.wav
213,192,5968,1,0,0:0:0:100:AV.wav
384,192,6059,1,0,0:0:0:100:AW.wav
128,192,6150,1,0,0:0:0:100:AX.wav
469,192,6150,1,0,0:0:0:100:0J.wav
298,192,6240,1,0,0:0:0:100:AY.wav
42,192,6331,1,0,0:0:0:100:02.wav
213,192,6331,1,0,0:0:0:100:AZ.wav
384,192,6422,1,0,0:0:0:100:B0.wav
128,192,6513,1,0,0:0:0:100:B1.wav
469,192,6513,1,0,0:0:0:100:0J.wav
298,192,6604,1,0,0:0:0:100:B2.wav
42,192,6695,1,0,0:0:0:100:02.wav
213,192,6695,1,0,0:0:0:100:B3.wav
384,192,6786,1,0,0:0:0:100:B4.wav
469,192,6877,1,0,0:0:0:100:0J.wav
213,192,6968,1,0,0:0:0:100:B5.wav
42,192,7059,1,0,0:0:0:100:02.wav
384,192,7059,1,0,0:0:0:100:B6.wav
128,192,7150,1,0,0:0:0:100:B7.wav
469,192,7240,1,0,0:0:0:100:0J.wav
384,192,7331,1,0,0:0:0:100:B8.wav
42,192,7422,1,0,0:0:0:100:02.wav
213,192,7422,1,0,0:0:0:100:B9.wav
384,192,7513,1,0,0:0:0:100:BA.wav
128,192,7604,1,0,0:0:0:100:AX.wav
469,192,7604,1,0,0:0:0:100:0J.wav
298,192,7695,1,0,0:0:0:100:AY.wav
42,192,7786,1,0,0:0:0:100:02.wav
213,192,7786,1,0,0:0:0:100:AZ.wav
384,192,7877,1,0,0:0:0:100:B0.wav
128,192,7968,1,0,0:0:0:100:B1.wav
469,192,7968,1,0,0:0:0:100:0J.wav
298,192,8059,1,0,0:0:0:100:B2.wav
42,192,8150,1,0,0:0:0:100:02.wav
213,192,8150,1,0,0:0:0:100:B3.wav
384,192,8240,1,0,0:0:0:100:B4.wav
469,192,8331,1,0,0:0:0:100:0J.wav
213,192,8422,1,0,0:0:0:100:B5.wav
42,192,8513,1,0,0:0:0:100:02.wav
384,192,8513,1,0,0:0:0:100:B6.wav
128,192,8604,1,0,0:0:0:100:B7.wav
469,192,8695,1,0,0:0:0:100:0J.wav
213,192,8786,1,0,0:0:0:100:B8.wav
42,192,8877,1,0,0:0:0:100:02.wav
298,192,8877,1,0,0:0:0:100:B9.wav
128,192,8968,1,0,0:0:0:100:BA.wav
384,192,9059,1,0,0:0:0:100:AX.wav
469,192,9059,1,0,0:0:0:100:0J.wav
213,192,9150,1,0,0:0:0:100:AY.wav
42,192,9240,1,0,0:0:0:100:02.wav
298,192,9240,1,0,0:0:0:100:AZ.wav
128,192,9331,1,0,0:0:0:100:B0.wav
384,192,9422,1,0,0:0:0:100:B1.wav
469,192,9422,1,0,0:0:0:100:0J.wav
213,192,9513,1,0,0:0:0:100:B2.wav
42,192,9604,1,0,0:0:0:100:02.wav
298,192,9604,1,0,0:0:0:100:B3.wav
128,192,9695,1,0,0:0:0:100:B4.wav
469,192,9786,1,0,0:0:0:100:0J.wav
213,192,9877,1,0,0:0:0:100:B5.wav
42,192,9968,1,0,0:0:0:100:02.wav
384,192,9968,1,0,0:0:0:100:B6.wav
128,192,10059,1,0,0:0:0:100:B7.wav
469,192,10150,1,0,0:0:0:100:0J.wav
213,192,10240,1,0,0:0:0:100:B8.wav
42,192,10331,1,0,0:0:0:100:02.wav
298,192,10331,1,0,0:0:0:100:B9.wav
128,192,10422,1,0,0:0:0:100:BA.wav
384,192,10513,1,0,0:0:0:100:AX.wav
469,192,10513,1,0,0:0:0:100:0J.wav
213,192,10604,1,0,0:0:0:100:AY.wav
42,192,10695,1,0,0:0:0:100:02.wav
298,192,10695,1,0,0:0:0:100:AZ.wav
128,192,10786,1,0,0:0:0:100:B0.wav
384,192,10877,1,0,0:0:0:100:B1.wav
469,192,10877,1,0,0:0:0:100:0J.wav
213,192,10968,1,0,0:0:0:100:B2.wav
42,192,11059,1,0,0:0:0:100:02.wav
298,192,11059,1,0,0:0:0:100:B3.wav
128,192,11150,1,0,0:0:0:100:B4.wav
469,192,11240,1,0,0:0:0:100:0J.wav
213,192,11331,1,0,0:0:0:100:B5.wav
42,192,11422,1,0,0:0:0:100:02.wav
384,192,11422,1,0,0:0:0:100:B6.wav
128,192,11513,1,0,0:0:0:100:B7.wav
469,192,11604,1,0,0:0:0:100:0J.wav
213,192,11695,1,0,0:0:0:100:B8.wav
42,192,11786,1,0,0:0:0:100:02.wav
469,192,11786,1,0,0:0:0:100:0C.wav
469,192,12150,1,0,0:0:0:100:L6.wav
469,192,12877,1,0,0:0:0:100:LA.wav
469,192,13604,1,0,0:0:0:100:L6.wav
469,192,14331,1,0,0:0:0:100:LA.wav
469,192,15059,1,0,0:0:0:100:L6.wav
469,192,15786,1,0,0:0:0:100:LA.wav
469,192,16513,1,0,0:0:0:100:L6.wav
469,192,17240,1,0,0:0:0:100:LA.wav
42,192,17604,1,0,0:0:0:100:02.wav
213,192,17604,1,0,0:0:0:100:0C.wav
384,192,17604,1,0,0:0:0:100:B9.wav
469,192,17968,1,0,0:0:0:100:L6.wav
469,192,18695,1,0,0:0:0:100:LA.wav
42,192,19059,1,0,0:0:0:100:02.wav
213,192,19059,1,0,0:0:0:100:0C.wav
384,192,19059,1,0,0:0:0:100:B9.wav
469,192,19422,1,0,0:0:0:100:L6.wav
469,192,20150,1,0,0:0:0:100:LA.wav
42,192,20513,1,0,0:0:0:100:02.wav
384,192,20513,1,0,0:0:0:100:0M.wav
469,192,20513,1,0,0:0:0:100:0D.wav
213,192,20604,1,0,0:0:0:100:0M.wav
298,192,20695,1,0,0:0:0:100:0M.wav
128,192,20786,1,0,0:0:0:100:0M.wav
42,192,20877,1,0,0:0:0:100:L6.wav
384,192,20877,1,0,0:0:0:100:0M.wav
213,192,20968,1,0,0:0:0:100:0M.wav
298,192,21059,1,0,0:0:0:100:0M.wav
128,192,21150,1,0,0:0:0:100:0M.wav
42,192,21240,1,0,0:0:0:100:02.wav
384,192,21240,1,0,0:0:0:100:0M.wav
469,192,21240,1,0,0:0:0:100:0D.wav
213,192,21331,1,0,0:0:0:100:0M.wav
298,192,21422,1,0,0:0:0:100:0M.wav
128,192,21513,1,0,0:0:0:100:0M.wav
42,192,21604,1,0,0:0:0:100:LA.wav
384,192,21604,1,0,0:0:0:100:0M.wav
213,192,21695,1,0,0:0:0:100:0M.wav
298,192,21786,1,0,0:0:0:100:0M.wav
128,192,21877,1,0,0:0:0:100:0M.wav
42,192,21968,1,0,0:0:0:100:03.wav
384,192,21968,1,0,0:0:0:100:0M.wav
213,192,22059,1,0,0:0:0:100:0M.wav
298,192,22150,1,0,0:0:0:100:0M.wav
469,192,22150,1,0,0:0:0:100:03.wav
128,192,22240,1,0,0:0:0:100:0M.wav
42,192,22331,1,0,0:0:0:100:04.wav
384,192,22331,1,0,0:0:0:100:0M.wav
213,192,22422,1,0,0:0:0:100:0M.wav
298,192,22513,1,0,0:0:0:100:0M.wav
469,192,22513,1,0,0:0:0:100:04.wav
128,192,22604,1,0,0:0:0:100:0M.wav
298,192,22695,1,0,0:0:0:100:05.wav
384,192,22695,1,0,0:0:0:100:0F.wav
128,192,22786,1,0,0:0:0:100:05.wav
213,192,22786,1,0,0:0:0:100:0F.wav
384,192,22877,1,0,0:0:0:100:0F.wav
469,192,22877,1,0,0:0:0:100:05.wav
42,192,22968,1,0,0:0:0:100:0F.wav
128,192,22968,1,0,0:0:0:100:05.wav
298,192,23059,1,0,0:0:0:100:0G.wav
384,192,23059,1,0,0:0:0:100:03.wav
469,192,23059,1,0,0:0:0:100:LA.wav
42,192,23422,1,0,0:0:0:100:02.wav
213,192,23422,1,0,0:0:0:100:BL.wav
469,192,23422,1,0,0:0:0:100:0C.wav
298,192,23604,1,0,0:0:0:100:BM.wav
128,192,23695,1,0,0:0:0:100:BN.wav
42,192,23786,1,0,0:0:0:100:02.wav
384,192,23786,1,0,0:0:0:100:BO.wav
469,192,23786,1,0,0:0:0:100:LH.wav
213,192,23877,1,0,0:0:0:100:BP.wav
298,192,24059,1,0,0:0:0:100:BQ.wav
42,192,24150,1,0,0:0:0:100:02.wav
128,192,24150,1,0,0:0:0:100:BR.wav
384,192,24240,1,0,0:0:0:100:BS.wav
213,192,24422,1,0,0:0:0:100:BT.wav
42,192,24513,1,0,0:0:0:100:02.wav
469,192,24513,1,0,0:0:0:100:LH.wav
298,192,24604,1,0,0:0:0:100:BU.wav
213,192,24695,1,0,0:0:0:100:BU.wav
298,192,24786,1,0,0:0:0:100:BU.wav
42,192,24877,1,0,0:0:0:100:02.wav
213,192,24877,1,0,0:0:0:100:BL.wav
298,192,25059,1,0,0:0:0:100:BM.wav
128,192,25150,1,0,0:0:0:100:BN.wav
42,192,25240,1,0,0:0:0:100:02.wav
384,192,25240,1,0,0:0:0:100:BO.wav
469,192,25240,1,0,0:0:0:100:LH.wav
213,192,25331,1,0,0:0:0:100:BP.wav
298,192,25513,1,0,0:0:0:100:BQ.wav
42,192,25604,1,0,0:0:0:100:02.wav
128,192,25604,1,0,0:0:0:100:BR.wav
384,192,25695,1,0,0:0:0:100:BS.wav
213,192,25877,1,0,0:0:0:100:BT.wav
42,192,25968,1,0,0:0:0:100:02.wav
469,192,25968,1,0,0:0:0:100:LH.wav
298,192,26059,1,0,0:0:0:100:BU.wav
213,192,26150,1,0,0:0:0:100:BU.wav
298,192,26240,1,0,0:0:0:100:BU.wav
42,192,26331,1,0,0:0:0:100:02.wav
213,192,26331,1,0,0:0:0:100:BL.wav
298,192,26513,1,0,0:0:0:100:BM.wav
128,192,26604,1,0,0:0:0:100:BN.wav
42,192,26695,1,0,0:0:0:100:02.wav
384,192,26695,1,0,0:0:0:100:BO.wav
469,192,26695,1,0,0:0:0:100:LH.wav
213,192,26786,1,0,0:0:0:100:BP.wav
298,192,26968,1,0,0:0:0:100:BQ.wav
42,192,27059,1,0,0:0:0:100:02.wav
128,192,27059,1,0,0:0:0:100:BR.wav
384,192,27150,1,0,0:0:0:100:BS.wav
213,192,27331,1,0,0:0:0:100:BT.wav
42,192,27422,1,0,0:0:0:100:02.wav
469,192,27422,1,0,0:0:0:100:LH.wav
298,192,27513,1,0,0:0:0:100:BU.wav
213,192,27604,1,0,0:0:0:100:BU.wav
298,192,27695,1,0,0:0:0:100:BU.wav
42,192,27786,1,0,0:0:0:100:02.wav
213,192,27786,1,0,0:0:0:100:BL.wav
298,192,27968,1,0,0:0:0:100:BM.wav
128,192,28059,1,0,0:0:0:100:BN.wav
42,192,28150,1,0,0:0:0:100:02.wav
384,192,28150,1,0,0:0:0:100:BO.wav
469,192,28150,1,0,0:0:0:100:LH.wav
213,192,28240,1,0,0:0:0:100:BP.wav
298,192,28422,1,0,0:0:0:100:BQ.wav
42,192,28513,1,0,0:0:0:100:02.wav
128,192,28513,1,0,0:0:0:100:BR.wav
384,192,28604,1,0,0:0:0:100:BS.wav
213,192,28786,1,0,0:0:0:100:BT.wav
42,192,28877,1,0,0:0:0:100:02.wav
469,192,28877,1,0,0:0:0:100:LH.wav
298,192,28968,1,0,0:0:0:100:BU.wav
213,192,29059,1,0,0:0:0:100:BU.wav
298,192,29150,1,0,0:0:0:100:BU.wav
42,192,29240,1,0,0:0:0:100:02.wav
469,192,29240,1,0,0:0:0:100:EC.wav
128,192,29422,1,0,0:0:0:100:0L.wav
213,192,29422,1,0,0:0:0:100:E2.wav
298,192,29513,1,0,0:0:0:100:E3.wav
42,192,29604,1,0,0:0:0:100:07.wav
213,192,29604,1,0,0:0:0:100:E4.wav
469,192,29604,1,0,0:0:0:100:LH.wav
384,192,29695,1,0,0:0:0:100:E5.wav
128,192,29786,1,0,0:0:0:100:0L.wav
298,192,29877,1,0,0:0:0:100:E6.wav
42,192,29968,1,0,0:0:0:100:02.wav
213,192,29968,1,0,0:0:0:100:E7.wav
384,192,30059,1,0,0:0:0:100:E8.wav
128,192,30150,1,0,0:0:0:100:0L.wav
384,192,30240,1,0,0:0:0:100:E9.wav
42,192,30331,1,0,0:0:0:100:07.wav
469,192,30331,1,0,0:0:0:100:LH.wav
298,192,30422,1,0,0:0:0:100:EA.wav
128,192,30513,1,0,0:0:0:100:0L.wav
213,192,30513,1,0,0:0:0:100:BD.wav
384,192,30604,1,0,0:0:0:100:EB.wav
42,192,30695,1,0,0:0:0:100:02.wav
469,192,30695,1,0,0:0:0:100:EC.wav
128,192,30877,1,0,0:0:0:100:0L.wav
213,192,30877,1,0,0:0:0:100:E2.wav
298,192,30968,1,0,0:0:0:100:E3.wav
42,192,31059,1,0,0:0:0:100:07.wav
213,192,31059,1,0,0:0:0:100:E4.wav
469,192,31059,1,0,0:0:0:100:LH.wav
384,192,31150,1,0,0:0:0:100:E5.wav
128,192,31240,1,0,0:0:0:100:0L.wav
298,192,31331,1,0,0:0:0:100:E6.wav
42,192,31422,1,0,0:0:0:100:02.wav
213,192,31422,1,0,0:0:0:100:E7.wav
384,192,31513,1,0,0:0:0:100:E8.wav
128,192,31604,1,0,0:0:0:100:0L.wav
384,192,31695,1,0,0:0:0:100:E9.wav
42,192,31786,1,0,0:0:0:100:07.wav
469,192,31786,1,0,0:0:0:100:LH.wav
298,192,31877,1,0,0:0:0:100:EA.wav
128,192,31968,1,0,0:0:0:100:0L.wav
213,192,31968,1,0,0:0:0:100:BI.wav
384,192,32059,1,0,0:0:0:100:EB.wav
42,192,32150,1,0,0:0:0:100:02.wav
469,192,32150,1,0,0:0:0:100:EC.wav
128,192,32331,1,0,0:0:0:100:0L.wav
213,192,32331,1,0,0:0:0:100:E2.wav
298,192,32422,1,0,0:0:0:100:E3.wav
42,192,32513,1,0,0:0:0:100:07.wav
213,192,32513,1,0,0:0:0:100:E4.wav
469,192,32513,1,0,0:0:0:100:LH.wav
384,192,32604,1,0,0:0:0:100:E5.wav
128,192,32695,1,0,0:0:0:100:0L.wav
298,192,32786,1,0,0:0:0:100:E6.wav
42,192,32877,1,0,0:0:0:100:02.wav
213,192,32877,1,0,0:0:0:100:E7.wav
384,192,32968,1,0,0:0:0:100:E8.wav
128,192,33059,1,0,0:0:0:100:0L.wav
384,192,33150,1,0,0:0:0:100:E9.wav
42,192,33240,1,0,0:0:0:100:07.wav
469,192,33240,1,0,0:0:0:100:LH.wav
298,192,33331,1,0,0:0:0:100:EA.wav
128,192,33422,1,0,0:0:0:100:0L.wav
213,192,33422,1,0,0:0:0:100:BD.wav
384,192,33513,1,0,0:0:0:100:EB.wav
42,192,33604,1,0,0:0:0:100:02.wav
469,192,33604,1,0,0:0:0:100:EC.wav
128,192,33786,1,0,0:0:0:100:0L.wav
213,192,33786,1,0,0:0:0:100:E2.wav
298,192,33877,1,0,0:0:0:100:E3.wav
42,192,33968,1,0,0:0:0:100:07.wav
213,192,33968,1,0,0:0:0:100:E4.wav
469,192,33968,1,0,0:0:0:100:LH.wav
384,192,34059,1,0,0:0:0:100:E5.wav
213,192,34240,1,0,0:0:0:100:E6.wav
42,192,34331,1,0,0:0:0:100:05.wav
469,192,34331,1,0,0:0:0:100:E7.wav
42,192,34422,1,0,0:0:0:100:04.wav
469,192,34422,1,0,0:0:0:100:E8.wav
42,192,34604,1,0,0:0:0:100:05.wav
469,192,34604,1,0,0:0:0:100:E9.wav
42,192,34695,1,0,0:0:0:100:04.wav
469,192,34695,1,0,0:0:0:100:LH.wav
298,192,34786,1,0,0:0:0:100:EA.wav
42,192,34877,1,0,0:0:0:100:04.wav
469,192,34877,1,0,0:0:0:100:0J.wav
42,192,35059,1,0,0:0:0:100:0C.wav
213,192,35059,1,0,0:0:0:100:E0.wav
469,192,35059,1,0,0:0:0:100:BL.wav
384,192,35150,1,0,0:0:0:100:BW.wav
42,192,35240,1,0,0:0:0:100:BM.wav
128,192,35240,1,0,0:0:0:100:BX.wav
298,192,35331,1,0,0:0:0:100:BY.wav
469,192,35331,1,0,0:0:0:100:BN.wav
42,192,35422,1,0,0:0:0:100:BO.wav
213,192,35422,1,0,0:0:0:100:BZ.wav
384,192,35513,1,0,0:0:0:100:C0.wav
469,192,35513,1,0,0:0:0:100:BP.wav
128,192,35604,1,0,0:0:0:100:C1.wav
298,192,35695,1,0,0:0:0:100:C2.wav
469,192,35695,1,0,0:0:0:100:BQ.wav
42,192,35786,1,0,0:0:0:100:BR.wav
213,192,35786,1,0,0:0:0:100:C3.wav
384,192,35877,1,0,0:0:0:100:C4.wav
469,192,35877,1,0,0:0:0:100:BS.wav
128,192,35968,1,0,0:0:0:100:C5.wav
298,192,36059,1,0,0:0:0:100:C6.wav
469,192,36059,1,0,0:0:0:100:BT.wav
213,192,36150,1,0,0:0:0:100:C7.wav
384,192,36240,1,0,0:0:0:100:C8.wav
469,192,36240,1,0,0:0:0:100:BU.wav
42,192,36331,1,0,0:0:0:100:BU.wav
128,192,36331,1,0,0:0:0:100:C9.wav
298,192,36422,1,0,0:0:0:100:CA.wav
469,192,36422,1,0,0:0:0:100:BU.wav
128,192,36513,1,0,0:0:0:100:BL.wav
213,192,36513,1,0,0:0:0:100:E0.wav
469,192,36604,1,0,0:0:0:100:CC.wav
42,192,36695,1,0,0:0:0:100:CD.wav
128,192,36695,1,0,0:0:0:100:BM.wav
298,192,36786,1,0,0:0:0:100:CE.wav
384,192,36786,1,0,0:0:0:100:BN.wav
128,192,36877,1,0,0:0:0:100:BO.wav
213,192,36877,1,0,0:0:0:100:BZ.wav
384,192,36968,1,0,0:0:0:100:BP.wav
469,192,36968,1,0,0:0:0:100:C0.wav
42,192,37059,1,0,0:0:0:100:C1.wav
298,192,37150,1,0,0:0:0:100:C2.wav
384,192,37150,1,0,0:0:0:100:BQ.wav
128,192,37240,1,0,0:0:0:100:BR.wav
213,192,37240,1,0,0:0:0:100:C3.wav
384,192,37331,1,0,0:0:0:100:BS.wav
469,192,37331,1,0,0:0:0:100:C4.wav
42,192,37422,1,0,0:0:0:100:C5.wav
298,192,37513,1,0,0:0:0:100:C6.wav
384,192,37513,1,0,0:0:0:100:BT.wav
213,192,37604,1,0,0:0:0:100:C7.wav
384,192,37695,1,0,0:0:0:100:BU.wav
469,192,37695,1,0,0:0:0:100:C8.wav
42,192,37786,1,0,0:0:0:100:C9.wav
128,192,37786,1,0,0:0:0:100:BU.wav
298,192,37877,1,0,0:0:0:100:CA.wav
384,192,37877,1,0,0:0:0:100:BU.wav
42,192,37968,1,0,0:0:0:100:E0.wav
213,192,37968,1,0,0:0:0:100:BL.wav
384,192,38059,1,0,0:0:0:100:CC.wav
128,192,38150,1,0,0:0:0:100:CD.wav
213,192,38150,1,0,0:0:0:100:BM.wav
298,192,38240,1,0,0:0:0:100:BN.wav
469,192,38240,1,0,0:0:0:100:CE.wav
42,192,38331,1,0,0:0:0:100:BZ.wav
213,192,38331,1,0,0:0:0:100:BO.wav
298,192,38422,1,0,0:0:0:100:BP.wav
384,192,38422,1,0,0:0:0:100:C0.wav
128,192,38513,1,0,0:0:0:100:C1.wav
298,192,38604,1,0,0:0:0:100:BQ.wav
469,192,38604,1,0,0:0:0:100:C2.wav
42,192,38695,1,0,0:0:0:100:C3.wav
213,192,38695,1,0,0:0:0:100:BR.wav
298,192,38786,1,0,0:0:0:100:BS.wav
384,192,38786,1,0,0:0:0:100:C4.wav
128,192,38877,1,0,0:0:0:100:C5.wav
298,192,38968,1,0,0:0:0:100:BT.wav
469,192,38968,1,0,0:0:0:100:C6.wav
42,192,39059,1,0,0:0:0:100:C7.wav
298,192,39150,1,0,0:0:0:100:BU.wav
384,192,39150,1,0,0:0:0:100:C8.wav
128,192,39240,1,0,0:0:0:100:C9.wav
213,192,39240,1,0,0:0:0:100:BU.wav
298,192,39331,1,0,0:0:0:100:BU.wav
469,192,39331,1,0,0:0:0:100:CA.wav
42,192,39422,1,0,0:0:0:100:BL.wav
213,192,39422,1,0,0:0:0:100:E0.wav
384,192,39513,1,0,0:0:0:100:CC.wav
42,192,39604,1,0,0:0:0:100:BM.wav
128,192,39604,1,0,0:0:0:100:CD.wav
298,192,39695,1,0,0:0:0:100:CE.wav
469,192,39695,1,0,0:0:0:100:BN.wav
42,192,39786,1,0,0:0:0:100:BO.wav
213,192,39786,1,0,0:0:0:100:BZ.wav
384,192,39877,1,0,0:0:0:100:C0.wav
469,192,39877,1,0,0:0:0:100:BP.wav
128,192,39968,1,0,0:0:0:100:C1.wav
298,192,40059,1,0,0:0:0:100:C2.wav
469,192,40059,1,0,0:0:0:100:BQ.wav
42,192,40150,1,0,0:0:0:100:BR.wav
213,192,40150,1,0,0:0:0:100:C3.wav
384,192,40240,1,0,0:0:0:100:C4.wav
469,192,40240,1,0,0:0:0:100:BS.wav
128,192,40331,1,0,0:0:0:100:C5.wav
298,192,40422,1,0,0:0:0:100:C6.wav
469,192,40422,1,0,0:0:0:100:BT.wav
213,192,40513,1,0,0:0:0:100:C7.wav
384,192,40604,1,0,0:0:0:100:C8.wav
469,192,40604,1,0,0:0:0:100:BU.wav
42,192,40695,1,0,0:0:0:100:BU.wav
128,192,40695,1,0,0:0:0:100:C9.wav
298,192,40786,1,0,0:0:0:100:CA.wav
469,192,40786,1,0,0:0:0:100:BU.wav
128,192,40877,1,0,0:0:0:100:BL.wav
213,192,40877,1,0,0:0:0:100:E0.wav
469,192,40968,1,0,0:0:0:100:CC.wav
42,192,41059,1,0,0:0:0:100:BM.wav
128,192,41059,1,0,0:0:0:100:CD.wav
298,192,41150,1,0,0:0:0:100:CE.wav
384,192,41150,1,0,0:0:0:100:BN.wav
128,192,41240,1,0,0:0:0:100:BZ.wav
213,192,41240,1,0,0:0:0:100:BO.wav
384,192,41331,1,0,0:0:0:100:BP.wav
469,192,41331,1,0,0:0:0:100:C0.wav
42,192,41422,1,0,0:0:0:100:C1.wav
298,192,41513,1,0,0:0:0:100:C2.wav
384,192,41513,1,0,0:0:0:100:BQ.wav
128,192,41604,1,0,0:0:0:100:BR.wav
213,192,41604,1,0,0:0:0:100:C3.wav
384,192,41695,1,0,0:0:0:100:BS.wav
469,192,41695,1,0,0:0:0:100:C4.wav
42,192,41786,1,0,0:0:0:100:C5.wav
298,192,41877,1,0,0:0:0:100:C6.wav
384,192,41877,1,0,0:0:0:100:BT.wav
213,192,41968,1,0,0:0:0:100:C7.wav
384,192,42059,1,0,0:0:0:100:BU.wav
469,192,42059,1,0,0:0:0:100:C8.wav
42,192,42150,1,0,0:0:0:100:C9.wav
128,192,42150,1,0,0:0:0:100:BU.wav
298,192,42240,1,0,0:0:0:100:CA.wav
384,192,42240,1,0,0:0:0:100:BU.wav
42,192,42331,1,0,0:0:0:100:E0.wav
213,192,42331,1,0,0:0:0:100:BL.wav
384,192,42422,1,0,0:0:0:100:CC.wav
128,192,42513,1,0,0:0:0:100:CD.wav
213,192,42513,1,0,0:0:0:100:BM.wav
298,192,42604,1,0,0:0:0:100:BN.wav
469,192,42604,1,0,0:0:0:100:CE.wav
42,192,42695,1,0,0:0:0:100:BZ.wav
213,192,42695,1,0,0:0:0:100:BO.wav
298,192,42786,1,0,0:0:0:100:BP.wav
384,192,42786,1,0,0:0:0:100:C0.wav
128,192,42877,1,0,0:0:0:100:C1.wav
298,192,42968,1,0,0:0:0:100:BQ.wav
469,192,42968,1,0,0:0:0:100:C2.wav
42,192,43059,1,0,0:0:0:100:C3.wav
213,192,43059,1,0,0:0:0:100:BR.wav
298,192,43150,1,0,0:0:0:100:BS.wav
384,192,43150,1,0,0:0:0:100:C4.wav
128,192,43240,1,0,0:0:0:100:C5.wav
298,192,43331,1,0,0:0:0:100:BT.wav
469,192,43331,1,0,0:0:0:100:C6.wav
42,192,43422,1,0,0:0:0:100:C7.wav
298,192,43513,1,0,0:0:0:100:BU.wav
384,192,43513,1,0,0:0:0:100:C8.wav
128,192,43604,1,0,0:0:0:100:C9.wav
213,192,43604,1,0,0:0:0:100:BU.wav
298,192,43695,1,0,0:0:0:100:BU.wav
469,192,43695,1,0,0:0:0:100:CA.wav
128,192,43786,1,0,0:0:0:100:0M.wav
213,192,43786,1,0,0:0:0:100:E0.wav
384,192,43877,1,0,0:0:0:100:CC.wav
469,192,43877,1,0,0:0:0:100:0M.wav
42,192,43968,1,0,0:0:0:100:0M.wav
128,192,43968,1,0,0:0:0:100:CD.wav
298,192,44059,1,0,0:0:0:100:CE.wav
384,192,44059,1,0,0:0:0:100:0M.wav
128,192,44150,1,0,0:0:0:100:0M.wav
213,192,44150,1,0,0:0:0:100:BZ.wav
384,192,44240,1,0,0:0:0:100:C0.wav
469,192,44240,1,0,0:0:0:100:0M.wav
42,192,44331,1,0,0:0:0:100:0M.wav
128,192,44331,1,0,0:0:0:100:C1.wav
298,192,44422,1,0,0:0:0:100:C2.wav
384,192,44422,1,0,0:0:0:100:0M.wav
128,192,44513,1,0,0:0:0:100:0M.wav
213,192,44513,1,0,0:0:0:100:C3.wav
384,192,44604,1,0,0:0:0:100:C4.wav
469,192,44604,1,0,0:0:0:100:0M.wav
42,192,44695,1,0,0:0:0:100:0M.wav
128,192,44695,1,0,0:0:0:100:C5.wav
298,192,44786,1,0,0:0:0:100:C6.wav
384,192,44786,1,0,0:0:0:100:0M.wav
128,192,44877,1,0,0:0:0:100:0M.wav
213,192,44877,1,0,0:0:0:100:C7.wav
384,192,44968,1,0,0:0:0:100:C8.wav
469,192,44968,1,0,0:0:0:100:0M.wav
42,192,45059,1,0,0:0:0:100:0M.wav
128,192,45059,1,0,0:0:0:100:C9.wav
298,192,45150,1,0,0:0:0:100:CA.wav
384,192,45150,1,0,0:0:0:100:0M.wav
128,192,45240,1,0,0:0:0:100:0M.wav
213,192,45240,1,0,0:0:0:100:E0.wav
384,192,45331,1,0,0:0:0:100:CC.wav
469,192,45331,1,0,0:0:0:100:0M.wav
42,192,45422,1,0,0:0:0:100:0M.wav
128,192,45422,1,0,0:0:0:100:CD.wav
298,192,45513,1,0,0:0:0:100:CE.wav
384,192,45513,1,0,0:0:0:100:0M.wav
128,192,45604,1,0,0:0:0:100:0M.wav
213,192,45604,1,0,0:0:0:100:BZ.wav
384,192,45695,1,0,0:0:0:100:C0.wav
469,192,45695,1,0,0:0:0:100:0M.wav
42,192,45786,1,0,0:0:0:100:0M.wav
128,192,45786,1,0,0:0:0:100:C1.wav
298,192,45877,1,0,0:0:0:100:C2.wav
384,192,45877,1,0,0:0:0:100:0M.wav
42,192,45968,1,0,0:0:0:100:04.wav
128,192,45968,1,0,0:0:0:100:0M.wav
213,192,45968,1,0,0:0:0:100:C3.wav
384,192,46059,1,0,0:0:0:100:C4.wav
469,192,46059,1,0,0:0:0:100:0M.wav
42,192,46150,1,0,0:0:0:100:0M.wav
128,192,46150,1,0,0:0:0:100:C5.wav
213,192,46150,1,0,0:0:0:100:04.wav
298,192,46240,1,0,0:0:0:100:C6.wav
384,192,46240,1,0,0:0:0:100:0M.wav
128,192,46331,1,0,0:0:0:100:0M.wav
213,192,46331,1,0,0:0:0:100:C7.wav
384,192,46422,1,0,0:0:0:100:C8.wav
469,192,46422,1,0,0:0:0:100:0M.wav
42,192,46513,1,0,0:0:0:100:0M.wav
128,192,46513,1,0,0:0:0:100:C9.wav
298,192,46604,1,0,0:0:0:100:CA.wav
384,192,46604,1,0,0:0:0:100:0M.wav
42,192,46695,128,0,49604:0:0:0:100:KX.wav
469,192,46695,128,0,49604:0:0:0:100:KB.wav
213,192,49604,128,0,52513:0:0:0:100:KC.wav
298,192,49604,128,0,52513:0:0:0:100:KY.wav
128,192,52513,128,0,55422:0:0:0:100:KD.wav
384,192,52513,128,0,55422:0:0:0:100:KZ.wav
42,192,55422,128,0,58331:0:0:0:100:L0.wav
298,192,55422,128,0,58331:0:0:0:100:KE.wav
128,192,58331,1,0,0:0:0:100:ED.wav
469,192,58331,128,0,61240:0:0:0:100:L1.wav
213,192,58422,1,0,0:0:0:100:EE.wav
298,192,58513,1,0,0:0:0:100:EF.wav
128,192,58604,1,0,0:0:0:100:EG.wav
213,192,58695,1,0,0:0:0:100:EH.wav
384,192,58786,1,0,0:0:0:100:EI.wav
42,192,58877,1,0,0:0:0:100:EJ.wav
128,192,58968,1,0,0:0:0:100:EK.wav
298,192,59059,1,0,0:0:0:100:EL.wav
128,192,59150,1,0,0:0:0:100:EM.wav
213,192,59240,1,0,0:0:0:100:EN.wav
384,192,59331,1,0,0:0:0:100:EO.wav
42,192,59422,1,0,0:0:0:100:EP.wav
128,192,59513,1,0,0:0:0:100:EQ.wav
298,192,59604,1,0,0:0:0:100:ER.wav
128,192,59695,1,0,0:0:0:100:ES.wav
213,192,59786,1,0,0:0:0:100:ET.wav
384,192,59877,1,0,0:0:0:100:EU.wav
42,192,59968,1,0,0:0:0:100:EV.wav
128,192,60059,1,0,0:0:0:100:EW.wav
298,192,60150,1,0,0:0:0:100:EX.wav
128,192,60240,1,0,0:0:0:100:EY.wav
213,192,60331,1,0,0:0:0:100:EZ.wav
384,192,60422,1,0,0:0:0:100:F0.wav
42,192,60513,1,0,0:0:0:100:F1.wav
128,192,60604,1,0,0:0:0:100:F2.wav
298,192,60695,1,0,0:0:0:100:F3.wav
128,192,60786,1,0,0:0:0:100:F4.wav
213,192,60877,1,0,0:0:0:100:F5.wav
384,192,60968,1,0,0:0:0:100:F6.wav
128,192,61059,1,0,0:0:0:100:F7.wav
298,192,61150,1,0,0:0:0:100:F8.wav
42,192,61240,128,0,64150:0:0:0:100:KY.wav
128,192,61240,1,0,0:0:0:100:F9.wav
298,192,61331,1,0,0:0:0:100:FA.wav
469,192,61422,1,0,0:0:0:100:FB.wav
128,192,61513,1,0,0:0:0:100:FC.wav
213,192,61604,1,0,0:0:0:100:FD.wav
384,192,61695,1,0,0:0:0:100:FE.wav
213,192,61786,1,0,0:0:0:100:FF.wav
298,192,61877,1,0,0:0:0:100:FG.wav
469,192,61968,1,0,0:0:0:100:FH.wav
128,192,62059,1,0,0:0:0:100:FI.wav
213,192,62150,1,0,0:0:0:100:FJ.wav
384,192,62240,1,0,0:0:0:100:FK.wav
213,192,62331,1,0,0:0:0:100:FL.wav
298,192,62422,1,0,0:0:0:100:FM.wav
469,192,62513,1,0,0:0:0:100:FN.wav
128,192,62604,1,0,0:0:0:100:FO.wav
213,192,62695,1,0,0:0:0:100:FP.wav
384,192,62786,1,0,0:0:0:100:FQ.wav
213,192,62877,1,0,0:0:0:100:FR.wav
298,192,62968,1,0,0:0:0:100:FS.wav
469,192,63059,1,0,0:0:0:100:FT.wav
128,192,63150,1,0,0:0:0:100:FU.wav
213,192,63240,1,0,0:0:0:100:FV.wav
384,192,63331,1,0,0:0:0:100:FW.wav
213,192,63422,1,0,0:0:0:100:FX.wav
298,192,63513,1,0,0:0:0:100:FY.wav
469,192,63604,1,0,0:0:0:100:FZ.wav
128,192,63695,1,0,0:0:0:100:G0.wav
213,192,63786,1,0,0:0:0:100:G1.wav
384,192,63877,1,0,0:0:0:100:G2.wav
213,192,63968,1,0,0:0:0:100:G3.wav
384,192,64059,1,0,0:0:0:100:G4.wav
213,192,64150,1,0,0:0:0:100:G5.wav
469,192,64150,128,0,67059:0:0:0:100:KZ.wav
128,192,64240,1,0,0:0:0:100:G6.wav
42,192,64331,1,0,0:0:0:100:G7.wav
384,192,64331,1,0,0:0:0:100:0J.wav
298,192,64422,1,0,0:0:0:100:G8.wav
213,192,64513,1,0,0:0:0:100:G9.wav
128,192,64604,1,0,0:0:0:100:GA.wav
213,192,64695,1,0,0:0:0:100:GB.wav
384,192,64695,1,0,0:0:0:100:0J.wav
128,192,64786,1,0,0:0:0:100:GC.wav
42,192,64877,1,0,0:0:0:100:GD.wav
298,192,64968,1,0,0:0:0:100:GE.wav
213,192,65059,1,0,0:0:0:100:GF.wav
384,192,65059,1,0,0:0:0:100:0J.wav
128,192,65150,1,0,0:0:0:100:GG.wav
213,192,65240,1,0,0:0:0:100:GH.wav
128,192,65331,1,0,0:0:0:100:GI.wav
42,192,65422,1,0,0:0:0:100:GJ.wav
384,192,65422,1,0,0:0:0:100:0J.wav
298,192,65513,1,0,0:0:0:100:GK.wav
213,192,65604,1,0,0:0:0:100:GL.wav
128,192,65695,1,0,0:0:0:100:GM.wav
42,192,65786,1,0,0:0:0:100:0J.wav
384,192,65786,1,0,0:0:0:100:GN.wav
298,192,65877,1,0,0:0:0:100:GO.wav
213,192,65968,1,0,0:0:0:100:GP.wav
298,192,66059,1,0,0:0:0:100:GQ.wav
42,192,66150,1,0,0:0:0:100:0J.wav
213,192,66150,1,0,0:0:0:100:GR.wav
128,192,66240,1,0,0:0:0:100:GS.wav
384,192,66331,1,0,0:0:0:100:GT.wav
298,192,66422,1,0,0:0:0:100:GU.wav
42,192,66513,1,0,0:0:0:100:0J.wav
213,192,66513,1,0,0:0:0:100:GV.wav
298,192,66604,1,0,0:0:0:100:GW.wav
213,192,66695,1,0,0:0:0:100:GX.wav
128,192,66786,1,0,0:0:0:100:GY.wav
42,192,66877,1,0,0:0:0:100:0J.wav
384,192,66877,1,0,0:0:0:100:GZ.wav
298,192,66968,1,0,0:0:0:100:H0.wav
42,192,67059,128,0,69968:0:0:0:100:L2.wav
213,192,67059,1,0,0:0:0:100:H1.wav
298,192,67150,1,0,0:0:0:100:H2.wav
128,192,67240,1,0,0:0:0:100:0J.wav
384,192,67240,1,0,0:0:0:100:H3.wav
213,192,67331,1,0,0:0:0:100:H4.wav
298,192,67422,1,0,0:0:0:100:H5.wav
469,192,67422,1,0,0:0:0:100:0K.wav
384,192,67513,1,0,0:0:0:100:H6.wav
128,192,67604,1,0,0:0:0:100:0J.wav
213,192,67604,1,0,0:0:0:100:H7.wav
298,192,67695,1,0,0:0:0:100:H8.wav
384,192,67786,1,0,0:0:0:100:H9.wav
469,192,67786,1,0,0:0:0:100:0H.wav
213,192,67877,1,0,0:0:0:100:HA.wav
128,192,67968,1,0,0:0:0:100:0J.wav
298,192,67968,1,0,0:0:0:100:HB.wav
384,192,68059,1,0,0:0:0:100:HC.wav
213,192,68150,1,0,0:0:0:100:HD.wav
469,192,68150,1,0,0:0:0:100:0K.wav
298,192,68240,1,0,0:0:0:100:HE.wav
128,192,68331,1,0,0:0:0:100:0J.wav
384,192,68331,1,0,0:0:0:100:HF.wav
213,192,68422,1,0,0:0:0:100:HG.wav
298,192,68513,1,0,0:0:0:100:HH.wav
469,192,68513,1,0,0:0:0:100:0H.wav
384,192,68604,1,0,0:0:0:100:HI.wav
128,192,68695,1,0,0:0:0:100:0J.wav
213,192,68695,1,0,0:0:0:100:HJ.wav
298,192,68786,1,0,0:0:0:100:HK.wav
384,192,68877,1,0,0:0:0:100:HL.wav
469,192,68877,1,0,0:0:0:100:0K.wav
213,192,68968,1,0,0:0:0:100:HM.wav
128,192,69059,1,0,0:0:0:100:0J.wav
298,192,69059,1,0,0:0:0:100:HN.wav
384,192,69150,1,0,0:0:0:100:HO.wav
213,192,69240,1,0,0:0:0:100:HP.wav
469,192,69240,1,0,0:0:0:100:0H.wav
298,192,69331,1,0,0:0:0:100:HQ.wav
128,192,69422,1,0,0:0:0:100:0J.wav
384,192,69422,1,0,0:0:0:100:HR.wav
213,192,69513,1,0,0:0:0:100:HS.wav
298,192,69604,1,0,0:0:0:100:HT.wav
469,192,69604,1,0,0:0:0:100:0K.wav
384,192,69695,1,0,0:0:0:100:HU.wav
128,192,69786,1,0,0:0:0:100:0J.wav
213,192,69786,1,0,0:0:0:100:HV.wav
298,192,69877,1,0,0:0:0:100:HW.wav
213,192,69968,1,0,0:0:0:100:0P.wav
384,192,69968,1,0,0:0:0:100:LF.wav
469,192,69968,1,0,0:0:0:100:LC.wav
298,192,70089,1,0,0:0:0:100:0Q.wav
128,192,70210,1,0,0:0:0:100:0R.wav
384,192,70331,1,0,0:0:0:100:0S.wav
42,192,70453,1,0,0:0:0:100:0T.wav
298,192,70574,1,0,0:0:0:100:0U.wav
213,192,70695,1,0,0:0:0:100:0V.wav
298,192,70816,1,0,0:0:0:100:0W.wav
128,192,70937,1,0,0:0:0:100:0X.wav
384,192,71059,1,0,0:0:0:100:0Y.wav
213,192,71180,1,0,0:0:0:100:0Z.wav
298,192,71301,1,0,0:0:0:100:10.wav
213,192,71422,1,0,0:0:0:100:11.wav
384,192,71543,1,0,0:0:0:100:12.wav
128,192,71665,1,0,0:0:0:100:13.wav
298,192,71786,1,0,0:0:0:100:14.wav
213,192,71907,1,0,0:0:0:100:15.wav
384,192,72028,1,0,0:0:0:100:16.wav
128,192,72150,1,0,0:0:0:100:17.wav
298,192,72271,1,0,0:0:0:100:18.wav
213,192,72392,1,0,0:0:0:100:19.wav
384,192,72513,1,0,0:0:0:100:1A.wav
128,192,72634,1,0,0:0:0:100:1B.wav
469,192,72756,1,0,0:0:0:100:1C.wav
213,192,72877,1,0,0:0:0:100:1D.wav
384,192,72998,1,0,0:0:0:100:1E.wav
128,192,73119,1,0,0:0:0:100:1F.wav
469,192,73240,1,0,0:0:0:100:1G.wav
42,192,73362,1,0,0:0:0:100:0T.wav
384,192,73483,1,0,0:0:0:100:0U.wav
128,192,73604,1,0,0:0:0:100:0V.wav
298,192,73725,1,0,0:0:0:100:0W.wav
213,192,73846,1,0,0:0:0:100:0X.wav
298,192,73968,1,0,0:0:0:100:0Y.wav
128,192,74089,1,0,0:0:0:100:0Z.wav
384,192,74210,1,0,0:0:0:100:10.wav
213,192,74331,1,0,0:0:0:100:11.wav
298,192,74453,1,0,0:0:0:100:12.wav
213,192,74574,1,0,0:0:0:100:13.wav
384,192,74695,1,0,0:0:0:100:14.wav
128,192,74816,1,0,0:0:0:100:15.wav
298,192,74937,1,0,0:0:0:100:16.wav
213,192,75059,1,0,0:0:0:100:17.wav
384,192,75180,1,0,0:0:0:100:18.wav
128,192,75301,1,0,0:0:0:100:19.wav
298,192,75422,1,0,0:0:0:100:1A.wav
213,192,75543,1,0,0:0:0:100:1B.wav
384,192,75665,1,0,0:0:0:100:1C.wav
128,192,75786,1,0,0:0:0:100:1D.wav
298,192,75907,1,0,0:0:0:100:1E.wav
213,192,76028,1,0,0:0:0:100:1F.wav
384,192,76150,1,0,0:0:0:100:1G.wav
42,192,76271,1,0,0:0:0:100:0T.wav
298,192,76392,1,0,0:0:0:100:0U.wav
128,192,76513,1,0,0:0:0:100:0V.wav
469,192,76634,1,0,0:0:0:100:0W.wav
213,192,76756,1,0,0:0:0:100:0X.wav
384,192,76877,1,0,0:0:0:100:0Y.wav
128,192,76998,1,0,0:0:0:100:0Z.wav
298,192,77119,1,0,0:0:0:100:10.wav
213,192,77240,1,0,0:0:0:100:11.wav
298,192,77362,1,0,0:0:0:100:12.wav
128,192,77483,1,0,0:0:0:100:13.wav
384,192,77604,1,0,0:0:0:100:14.wav
213,192,77725,1,0,0:0:0:100:15.wav
469,192,77846,1,0,0:0:0:100:16.wav
128,192,77968,1,0,0:0:0:100:17.wav
384,192,78089,1,0,0:0:0:100:18.wav
213,192,78210,1,0,0:0:0:100:19.wav
469,192,78331,1,0,0:0:0:100:1A.wav
128,192,78453,1,0,0:0:0:100:1B.wav
384,192,78574,1,0,0:0:0:100:1C.wav
42,192,78695,1,0,0:0:0:100:1H.wav
298,192,78816,1,0,0:0:0:100:1I.wav
213,192,78937,1,0,0:0:0:100:1J.wav
298,192,79059,1,0,0:0:0:100:1K.wav
128,192,79180,1,0,0:0:0:100:1L.wav
384,192,79301,1,0,0:0:0:100:1M.wav
213,192,79422,1,0,0:0:0:100:1N.wav
469,192,79543,1,0,0:0:0:100:1O.wav
128,192,79665,1,0,0:0:0:100:1P.wav
384,192,79786,1,0,0:0:0:100:1Q.wav
213,192,79907,1,0,0:0:0:100:1R.wav
298,192,80028,1,0,0:0:0:100:1S.wav
128,192,80150,1,0,0:0:0:100:1T.wav
384,192,80271,1,0,0:0:0:100:1U.wav
213,192,80392,1,0,0:0:0:100:1V.wav
469,192,80513,1,0,0:0:0:100:1W.wav
128,192,80634,1,0,0:0:0:100:1X.wav
384,192,80756,1,0,0:0:0:100:1Y.wav
42,192,80877,1,0,0:0:0:100:1Z.wav
298,192,80998,1,0,0:0:0:100:20.wav
128,192,81119,1,0,0:0:0:100:21.wav
384,192,81240,1,0,0:0:0:100:22.wav
213,192,81362,1,0,0:0:0:100:23.wav
298,192,81483,1,0,0:0:0:100:24.wav
42,192,81604,1,0,0:0:0:100:96.wav
384,192,81604,1,0,0:0:0:100:02.wav
469,192,81604,1,0,0:0:0:100:0C.wav
213,192,81695,1,0,0:0:0:100:26.wav
469,192,81786,1,0,0:0:0:100:27.wav
128,192,81877,1,0,0:0:0:100:28.wav
384,192,81968,1,0,0:0:0:100:29.wav
42,192,82059,1,0,0:0:0:100:2A.wav
298,192,82150,1,0,0:0:0:100:2B.wav
128,192,82240,1,0,0:0:0:100:2C.wav
469,192,82331,1,0,0:0:0:100:2D.wav
213,192,82422,1,0,0:0:0:100:2E.wav
384,192,82513,1,0,0:0:0:100:2F.wav
128,192,82604,1,0,0:0:0:100:2G.wav
469,192,82695,1,0,0:0:0:100:2H.wav
213,192,82786,1,0,0:0:0:100:2I.wav
384,192,82877,1,0,0:0:0:100:2J.wav
128,192,82968,1,0,0:0:0:100:2K.wav
298,192,83059,1,0,0:0:0:100:2L.wav
42,192,83150,1,0,0:0:0:100:2M.wav
384,192,83240,1,0,0:0:0:100:2N.wav
128,192,83331,1,0,0:0:0:100:2O.wav
298,192,83422,1,0,0:0:0:100:2P.wav
213,192,83513,1,0,0:0:0:100:2Q.wav
384,192,83604,1,0,0:0:0:100:2R.wav
128,192,83695,1,0,0:0:0:100:2S.wav
298,192,83786,1,0,0:0:0:100:2T.wav
42,192,83877,1,0,0:0:0:100:2U.wav
384,192,83968,1,0,0:0:0:100:2V.wav
128,192,84059,1,0,0:0:0:100:2W.wav
469,192,84150,1,0,0:0:0:100:2X.wav
213,192,84240,1,0,0:0:0:100:2Y.wav
298,192,84331,1,0,0:0:0:100:2Z.wav
128,192,84422,1,0,0:0:0:100:30.wav
42,192,84513,1,0,0:0:0:100:97.wav
384,192,84513,1,0,0:0:0:100:02.wav
469,192,84513,1,0,0:0:0:100:0C.wav
298,192,84604,1,0,0:0:0:100:32.wav
128,192,84695,1,0,0:0:0:100:33.wav
384,192,84786,1,0,0:0:0:100:34.wav
213,192,84877,1,0,0:0:0:100:35.wav
469,192,84968,1,0,0:0:0:100:2A.wav
42,192,85059,1,0,0:0:0:100:2B.wav
384,192,85150,1,0,0:0:0:100:2C.wav
128,192,85240,1,0,0:0:0:100:2D.wav
298,192,85331,1,0,0:0:0:100:2E.wav
213,192,85422,1,0,0:0:0:100:2F.wav
298,192,85513,1,0,0:0:0:100:2G.wav
42,192,85604,1,0,0:0:0:100:2H.wav
384,192,85695,1,0,0:0:0:100:2I.wav
128,192,85786,1,0,0:0:0:100:2J.wav
298,192,85877,1,0,0:0:0:100:2K.wav
213,192,85968,1,0,0:0:0:100:2L.wav
298,192,86059,1,0,0:0:0:100:2M.wav
128,192,86150,1,0,0:0:0:100:2N.wav
384,192,86240,1,0,0:0:0:100:2O.wav
42,192,86331,1,0,0:0:0:100:2P.wav
298,192,86422,1,0,0:0:0:100:2Q.wav
213,192,86513,1,0,0:0:0:100:2R.wav
298,192,86604,1,0,0:0:0:100:2S.wav
128,192,86695,1,0,0:0:0:100:2T.wav
384,192,86786,1,0,0:0:0:100:2U.wav
213,192,86877,1,0,0:0:0:100:2V.wav
469,192,86968,1,0,0:0:0:100:2W.wav
213,192,87059,1,0,0:0:0:100:2X.wav
384,192,87150,1,0,0:0:0:100:2Y.wav
128,192,87240,1,0,0:0:0:100:2Z.wav
298,192,87331,1,0,0:0:0:100:30.wav
42,192,87422,1,0,0:0:0:100:98.wav
384,192,87422,1,0,0:0:0:100:0C.wav
469,192,87422,1,0,0:0:0:100:02.wav
298,192,87513,1,0,0:0:0:100:32.wav
128,192,87604,1,0,0:0:0:100:33.wav
384,192,87695,1,0,0:0:0:100:34.wav
213,192,87786,1,0,0:0:0:100:35.wav
469,192,87877,1,0,0:0:0:100:2A.wav
42,192,87968,1,0,0:0:0:100:2B.wav
384,192,88059,1,0,0:0:0:100:2C.wav
128,192,88150,1,0,0:0:0:100:2D.wav
384,192,88240,1,0,0:0:0:100:2E.wav
213,192,88331,1,0,0:0:0:100:2F.wav
298,192,88422,1,0,0:0:0:100:2G.wav
213,192,88513,1,0,0:0:0:100:2H.wav
384,192,88604,1,0,0:0:0:100:2I.wav
128,192,88695,1,0,0:0:0:100:2J.wav
298,192,88786,1,0,0:0:0:100:2K.wav
213,192,88877,1,0,0:0:0:100:2L.wav
384,192,88968,1,0,0:0:0:100:2M.wav
128,192,89059,1,0,0:0:0:100:2N.wav
298,192,89150,1,0,0:0:0:100:2O.wav
42,192,89240,1,0,0:0:0:100:2P.wav
384,192,89331,1,0,0:0:0:100:2Q.wav
128,192,89422,1,0,0:0:0:100:2R.wav
469,192,89513,1,0,0:0:0:100:2S.wav
213,192,89604,1,0,0:0:0:100:2T.wav
384,192,89695,1,0,0:0:0:100:2U.wav
128,192,89786,1,0,0:0:0:100:2V.wav
298,192,89877,1,0,0:0:0:100:2W.wav
42,192,89968,1,0,0:0:0:100:2X.wav
384,192,90059,1,0,0:0:0:100:2Y.wav
128,192,90150,1,0,0:0:0:100:2Z.wav
298,192,90240,1,0,0:0:0:100:30.wav
42,192,90331,1,0,0:0:0:100:36.wav
213,192,90331,1,0,0:0:0:100:0M.wav
384,192,90331,1,0,0:0:0:100:02.wav
469,192,90331,1,0,0:0:0:100:0C.wav
298,192,90422,1,0,0:0:0:100:0M.wav
213,192,90513,1,0,0:0:0:100:0M.wav
298,192,90604,1,0,0:0:0:100:0M.wav
213,192,90695,1,0,0:0:0:100:0M.wav
298,192,90786,1,0,0:0:0:100:0M.wav
213,192,90877,1,0,0:0:0:100:0M.wav
298,192,90968,1,0,0:0:0:100:0M.wav
128,192,91059,1,0,0:0:0:100:3E.wav
213,192,91059,1,0,0:0:0:100:0M.wav
298,192,91150,1,0,0:0:0:100:0M.wav
384,192,91150,1,0,0:0:0:100:3F.wav
128,192,91240,1,0,0:0:0:100:3G.wav
213,192,91240,1,0,0:0:0:100:0M.wav
298,192,91331,1,0,0:0:0:100:0M.wav
384,192,91331,1,0,0:0:0:100:3H.wav
42,192,91422,1,0,0:0:0:100:3I.wav
213,192,91422,1,0,0:0:0:100:0M.wav
298,192,91513,1,0,0:0:0:100:0M.wav
469,192,91513,1,0,0:0:0:100:3J.wav
42,192,91604,1,0,0:0:0:100:3K.wav
213,192,91604,1,0,0:0:0:100:0M.wav
298,192,91695,1,0,0:0:0:100:0M.wav
469,192,91695,1,0,0:0:0:100:3L.wav
128,192,91786,1,0,0:0:0:100:3M.wav
213,192,91786,1,0,0:0:0:100:0M.wav
128,192,91877,1,0,0:0:0:100:3N.wav
213,192,91877,1,0,0:0:0:100:0M.wav
298,192,91968,1,0,0:0:0:100:0M.wav
384,192,91968,1,0,0:0:0:100:3O.wav
298,192,92059,1,0,0:0:0:100:0M.wav
384,192,92059,1,0,0:0:0:100:3P.wav
42,192,92150,1,0,0:0:0:100:0M.wav
128,192,92150,1,0,0:0:0:100:3Q.wav
42,192,92240,1,0,0:0:0:100:0M.wav
128,192,92240,1,0,0:0:0:100:3R.wav
384,192,92331,1,0,0:0:0:100:3S.wav
469,192,92331,1,0,0:0:0:100:0M.wav
384,192,92422,1,0,0:0:0:100:3T.wav
469,192,92422,1,0,0:0:0:100:0M.wav
42,192,92513,1,0,0:0:0:100:3U.wav
298,192,92513,1,0,0:0:0:100:0M.wav
128,192,92604,1,0,0:0:0:100:3V.wav
384,192,92604,1,0,0:0:0:100:0M.wav
213,192,92695,1,0,0:0:0:100:0M.wav
469,192,92695,1,0,0:0:0:100:3W.wav
128,192,92786,1,0,0:0:0:100:0M.wav
384,192,92786,1,0,0:0:0:100:3X.wav
42,192,92877,1,0,0:0:0:100:3Y.wav
298,192,92877,1,0,0:0:0:100:0M.wav
128,192,92968,1,0,0:0:0:100:3Z.wav
384,192,92968,1,0,0:0:0:100:0M.wav
213,192,93059,1,0,0:0:0:100:40.wav
469,192,93059,1,0,0:0:0:100:0M.wav
128,192,93150,1,0,0:0:0:100:41.wav
384,192,93150,1,0,0:0:0:100:0M.wav
42,192,93240,1,0,0:0:0:100:02.wav
298,192,93240,1,0,0:0:0:100:42.wav
469,192,93240,1,0,0:0:0:100:0C.wav
128,192,93422,1,0,0:0:0:100:0L.wav
213,192,93422,1,0,0:0:0:100:43.wav
298,192,93513,1,0,0:0:0:100:44.wav
42,192,93604,1,0,0:0:0:100:02.wav
384,192,93604,1,0,0:0:0:100:45.wav
298,192,93695,1,0,0:0:0:100:46.wav
128,192,93786,1,0,0:0:0:100:0L.wav
384,192,93786,1,0,0:0:0:100:47.wav
469,192,93877,1,0,0:0:0:100:48.wav
42,192,93968,1,0,0:0:0:100:02.wav
213,192,93968,1,0,0:0:0:100:49.wav
298,192,94059,1,0,0:0:0:100:4A.wav
128,192,94150,1,0,0:0:0:100:0L.wav
384,192,94150,1,0,0:0:0:100:4B.wav
469,192,94240,1,0,0:0:0:100:4C.wav
42,192,94331,1,0,0:0:0:100:02.wav
213,192,94331,1,0,0:0:0:100:4D.wav
298,192,94422,1,0,0:0:0:100:4E.wav
128,192,94513,1,0,0:0:0:100:0L.wav
384,192,94513,1,0,0:0:0:100:4F.wav
469,192,94604,1,0,0:0:0:100:4G.wav
42,192,94695,1,0,0:0:0:100:02.wav
128,192,94695,1,0,0:0:0:100:0H.wav
384,192,94695,1,0,0:0:0:100:4H.wav
213,192,94786,1,0,0:0:0:100:0I.wav
298,192,94877,1,0,0:0:0:100:0J.wav
469,192,94877,1,0,0:0:0:100:0L.wav
42,192,95059,1,0,0:0:0:100:02.wav
213,192,95059,1,0,0:0:0:100:07.wav
384,192,95059,1,0,0:0:0:100:0K.wav
298,192,95240,1,0,0:0:0:100:0J.wav
469,192,95240,1,0,0:0:0:100:0L.wav
42,192,95422,1,0,0:0:0:100:02.wav
128,192,95422,1,0,0:0:0:100:0H.wav
213,192,95513,1,0,0:0:0:100:0I.wav
298,192,95604,1,0,0:0:0:100:0J.wav
469,192,95604,1,0,0:0:0:100:0L.wav
42,192,95786,1,0,0:0:0:100:02.wav
213,192,95786,1,0,0:0:0:100:07.wav
384,192,95786,1,0,0:0:0:100:4I.wav
298,192,95968,1,0,0:0:0:100:0J.wav
469,192,95968,1,0,0:0:0:100:0L.wav
42,192,96150,1,0,0:0:0:100:02.wav
384,192,96150,1,0,0:0:0:100:4J.wav
128,192,96331,1,0,0:0:0:100:4K.wav
469,192,96331,1,0,0:0:0:100:0L.wav
213,192,96422,1,0,0:0:0:100:4L.wav
42,192,96513,1,0,0:0:0:100:02.wav
298,192,96513,1,0,0:0:0:100:4M.wav
384,192,96604,1,0,0:0:0:100:4N.wav
213,192,96695,1,0,0:0:0:100:4O.wav
469,192,96695,1,0,0:0:0:100:0L.wav
298,192,96786,1,0,0:0:0:100:4P.wav
42,192,96877,1,0,0:0:0:100:02.wav
384,192,96877,1,0,0:0:0:100:4Q.wav
128,192,96968,1,0,0:0:0:100:4R.wav
213,192,97059,1,0,0:0:0:100:4S.wav
469,192,97059,1,0,0:0:0:100:0L.wav
298,192,97150,1,0,0:0:0:100:4T.wav
42,192,97240,1,0,0:0:0:100:02.wav
384,192,97240,1,0,0:0:0:100:4U.wav
128,192,97331,1,0,0:0:0:100:4V.wav
213,192,97422,1,0,0:0:0:100:4W.wav
469,192,97422,1,0,0:0:0:100:0L.wav
298,192,97513,1,0,0:0:0:100:4X.wav
42,192,97604,1,0,0:0:0:100:02.wav
213,192,97604,1,0,0:0:0:100:4Y.wav
469,192,97604,1,0,0:0:0:100:0H.wav
384,192,97695,1,0,0:0:0:100:0I.wav
128,192,97786,1,0,0:0:0:100:0L.wav
298,192,97786,1,0,0:0:0:100:0J.wav
42,192,97968,1,0,0:0:0:100:02.wav
213,192,97968,1,0,0:0:0:100:07.wav
384,192,97968,1,0,0:0:0:100:0K.wav
128,192,98150,1,0,0:0:0:100:0L.wav
298,192,98150,1,0,0:0:0:100:0J.wav
42,192,98331,1,0,0:0:0:100:02.wav
469,192,98331,1,0,0:0:0:100:0H.wav
384,192,98422,1,0,0:0:0:100:0I.wav
128,192,98513,1,0,0:0:0:100:0L.wav
298,192,98513,1,0,0:0:0:100:0J.wav
42,192,98695,1,0,0:0:0:100:02.wav
213,192,98695,1,0,0:0:0:100:0A.wav
384,192,98695,1,0,0:0:0:100:4Z.wav
128,192,98877,1,0,0:0:0:100:0L.wav
298,192,98877,1,0,0:0:0:100:0J.wav
213,192,99059,1,0,0:0:0:100:50.wav
469,192,99059,1,0,0:0:0:100:02.wav
42,192,99240,1,0,0:0:0:100:51.wav
384,192,99240,1,0,0:0:0:100:0L.wav
128,192,99331,1,0,0:0:0:100:52.wav
213,192,99422,1,0,0:0:0:100:53.wav
469,192,99422,1,0,0:0:0:100:02.wav
42,192,99513,1,0,0:0:0:100:54.wav
128,192,99604,1,0,0:0:0:100:55.wav
384,192,99604,1,0,0:0:0:100:0L.wav
213,192,99695,1,0,0:0:0:100:56.wav
298,192,99786,1,0,0:0:0:100:57.wav
469,192,99786,1,0,0:0:0:100:02.wav
42,192,99877,1,0,0:0:0:100:58.wav
128,192,99968,1,0,0:0:0:100:59.wav
384,192,99968,1,0,0:0:0:100:0L.wav
213,192,100059,1,0,0:0:0:100:5A.wav
298,192,100150,1,0,0:0:0:100:5B.wav
469,192,100150,1,0,0:0:0:100:02.wav
128,192,100240,1,0,0:0:0:100:5C.wav
213,192,100331,1,0,0:0:0:100:5D.wav
384,192,100331,1,0,0:0:0:100:0L.wav
298,192,100422,1,0,0:0:0:100:5E.wav
42,192,100513,1,0,0:0:0:100:0H.wav
213,192,100513,1,0,0:0:0:100:5F.wav
469,192,100513,1,0,0:0:0:100:02.wav
128,192,100604,1,0,0:0:0:100:0I.wav
213,192,100695,1,0,0:0:0:100:0J.wav
384,192,100695,1,0,0:0:0:100:0L.wav
128,192,100877,1,0,0:0:0:100:0K.wav
298,192,100877,1,0,0:0:0:100:07.wav
469,192,100877,1,0,0:0:0:100:02.wav
213,192,101059,1,0,0:0:0:100:0J.wav
384,192,101059,1,0,0:0:0:100:0L.wav
42,192,101240,1,0,0:0:0:100:0H.wav
469,192,101240,1,0,0:0:0:100:02.wav
128,192,101331,1,0,0:0:0:100:0I.wav
213,192,101422,1,0,0:0:0:100:0J.wav
384,192,101422,1,0,0:0:0:100:0L.wav
128,192,101604,1,0,0:0:0:100:5G.wav
298,192,101604,1,0,0:0:0:100:07.wav
469,192,101604,1,0,0:0:0:100:02.wav
213,192,101786,1,0,0:0:0:100:0J.wav
384,192,101786,1,0,0:0:0:100:0L.wav
128,192,101968,1,0,0:0:0:100:5H.wav
469,192,101968,1,0,0:0:0:100:02.wav
42,192,102150,1,0,0:0:0:100:0L.wav
298,192,102150,1,0,0:0:0:100:5I.wav
213,192,102240,1,0,0:0:0:100:5J.wav
128,192,102331,1,0,0:0:0:100:5K.wav
469,192,102331,1,0,0:0:0:100:02.wav
213,192,102422,1,0,0:0:0:100:5L.wav
42,192,102513,1,0,0:0:0:100:0L.wav
298,192,102513,1,0,0:0:0:100:5M.wav
384,192,102604,1,0,0:0:0:100:5N.wav
128,192,102695,1,0,0:0:0:100:5O.wav
469,192,102695,1,0,0:0:0:100:02.wav
213,192,102786,1,0,0:0:0:100:5P.wav
42,192,102877,1,0,0:0:0:100:0L.wav
298,192,102877,1,0,0:0:0:100:5Q.wav
384,192,102968,1,0,0:0:0:100:5R.wav
128,192,103059,1,0,0:0:0:100:5S.wav
469,192,103059,1,0,0:0:0:100:02.wav
213,192,103150,1,0,0:0:0:100:5T.wav
42,192,103240,1,0,0:0:0:100:0L.wav
298,192,103240,1,0,0:0:0:100:5U.wav
384,192,103331,1,0,0:0:0:100:5V.wav
213,192,103422,1,0,0:0:0:100:5W.wav
469,192,103422,1,0,0:0:0:100:02.wav
384,192,103513,1,0,0:0:0:100:5X.wav
42,192,103604,1,0,0:0:0:100:0L.wav
298,192,103604,1,0,0:0:0:100:5Y.wav
213,192,103695,1,0,0:0:0:100:5Z.wav
128,192,103786,1,0,0:0:0:100:60.wav
469,192,103786,1,0,0:0:0:100:02.wav
384,192,103877,1,0,0:0:0:100:61.wav
42,192,103968,1,0,0:0:0:100:0L.wav
298,192,103968,1,0,0:0:0:100:62.wav
213,192,104059,1,0,0:0:0:100:63.wav
128,192,104150,1,0,0:0:0:100:64.wav
469,192,104150,1,0,0:0:0:100:02.wav
384,192,104240,1,0,0:0:0:100:65.wav
42,192,104331,1,0,0:0:0:100:0L.wav
298,192,104331,1,0,0:0:0:100:66.wav
213,192,104422,1,0,0:0:0:100:67.wav
128,192,104513,1,0,0:0:0:100:68.wav
469,192,104513,1,0,0:0:0:100:02.wav
213,192,104604,1,0,0:0:0:100:69.wav
42,192,104695,1,0,0:0:0:100:0L.wav
298,192,104695,1,0,0:0:0:100:6A.wav
384,192,104786,1,0,0:0:0:100:6B.wav
42,192,104877,1,0,0:0:0:100:02.wav
213,192,104877,1,0,0:0:0:100:0C.wav
469,192,104877,1,0,0:0:0:100:6C.wav
128,192,105059,1,0,0:0:0:100:0J.wav
213,192,105059,1,0,0:0:0:100:43.wav
298,192,105150,1,0,0:0:0:100:44.wav
42,192,105240,1,0,0:0:0:100:02.wav
213,192,105240,1,0,0:0:0:100:07.wav
384,192,105240,1,0,0:0:0:100:45.wav
469,192,105331,1,0,0:0:0:100:46.wav
128,192,105422,1,0,0:0:0:100:0J.wav
213,192,105422,1,0,0:0:0:100:47.wav
298,192,105513,1,0,0:0:0:100:48.wav
42,192,105604,1,0,0:0:0:100:02.wav
384,192,105604,1,0,0:0:0:100:49.wav
469,192,105695,1,0,0:0:0:100:4A.wav
128,192,105786,1,0,0:0:0:100:0J.wav
213,192,105786,1,0,0:0:0:100:4B.wav
298,192,105877,1,0,0:0:0:100:4C.wav
42,192,105968,1,0,0:0:0:100:02.wav
213,192,105968,1,0,0:0:0:100:07.wav
384,192,105968,1,0,0:0:0:100:4D.wav
469,192,106059,1,0,0:0:0:100:4E.wav
128,192,106150,1,0,0:0:0:100:0J.wav
384,192,106150,1,0,0:0:0:100:4F.wav
298,192,106240,1,0,0:0:0:100:4G.wav
42,192,106331,1,0,0:0:0:100:02.wav
213,192,106331,1,0,0:0:0:100:6D.wav
298,192,106422,1,0,0:0:0:100:6E.wav
128,192,106513,1,0,0:0:0:100:0J.wav
384,192,106513,1,0,0:0:0:100:6F.wav
469,192,106604,1,0,0:0:0:100:6G.wav
42,192,106695,1,0,0:0:0:100:02.wav
213,192,106695,1,0,0:0:0:100:07.wav
384,192,106695,1,0,0:0:0:100:6H.wav
128,192,106877,1,0,0:0:0:100:0J.wav
298,192,106877,1,0,0:0:0:100:6I.wav
469,192,106968,1,0,0:0:0:100:6J.wav
42,192,107059,1,0,0:0:0:100:02.wav
298,192,107059,1,0,0:0:0:100:6K.wav
469,192,107150,1,0,0:0:0:100:6L.wav
128,192,107240,1,0,0:0:0:100:0J.wav
384,192,107240,1,0,0:0:0:100:6M.wav
298,192,107331,1,0,0:0:0:100:6N.wav
42,192,107422,1,0,0:0:0:100:02.wav
213,192,107422,1,0,0:0:0:100:07.wav
469,192,107422,1,0,0:0:0:100:6O.wav
384,192,107513,1,0,0:0:0:100:6P.wav
128,192,107604,1,0,0:0:0:100:0J.wav
298,192,107604,1,0,0:0:0:100:6Q.wav
213,192,107695,1,0,0:0:0:100:6R.wav
42,192,107786,1,0,0:0:0:100:02.wav
469,192,107786,1,0,0:0:0:100:6S.wav
128,192,107968,1,0,0:0:0:100:4K.wav
469,192,107968,1,0,0:0:0:100:0J.wav
213,192,108059,1,0,0:0:0:100:4L.wav
42,192,108150,1,0,0:0:0:100:02.wav
128,192,108150,1,0,0:0:0:100:07.wav
298,192,108150,1,0,0:0:0:100:4M.wav
384,192,108240,1,0,0:0:0:100:4N.wav
128,192,108331,1,0,0:0:0:100:4O.wav
469,192,108331,1,0,0:0:0:100:0J.wav
213,192,108422,1,0,0:0:0:100:4P.wav
42,192,108513,1,0,0:0:0:100:02.wav
298,192,108513,1,0,0:0:0:100:4Q.wav
213,192,108604,1,0,0:0:0:100:4R.wav
298,192,108695,1,0,0:0:0:100:4S.wav
469,192,108695,1,0,0:0:0:100:0J.wav
384,192,108786,1,0,0:0:0:100:4T.wav
42,192,108877,1,0,0:0:0:100:02.wav
128,192,108877,1,0,0:0:0:100:4U.wav
298,192,108877,1,0,0:0:0:100:07.wav
213,192,108968,1,0,0:0:0:100:4V.wav
298,192,109059,1,0,0:0:0:100:4W.wav
469,192,109059,1,0,0:0:0:100:0J.wav
384,192,109150,1,0,0:0:0:100:4X.wav
42,192,109240,1,0,0:0:0:100:02.wav
298,192,109240,1,0,0:0:0:100:6T.wav
128,192,109331,1,0,0:0:0:100:6U.wav
213,192,109422,1,0,0:0:0:100:6V.wav
469,192,109422,1,0,0:0:0:100:0J.wav
298,192,109513,1,0,0:0:0:100:6W.wav
42,192,109604,1,0,0:0:0:100:02.wav
128,192,109604,1,0,0:0:0:100:6X.wav
384,192,109604,1,0,0:0:0:100:07.wav
128,192,109786,1,0,0:0:0:100:6Y.wav
469,192,109786,1,0,0:0:0:100:0J.wav
298,192,109877,1,0,0:0:0:100:6Z.wav
42,192,109968,1,0,0:0:0:100:02.wav
128,192,109968,1,0,0:0:0:100:70.wav
298,192,110059,1,0,0:0:0:100:71.wav
213,192,110150,1,0,0:0:0:100:72.wav
469,192,110150,1,0,0:0:0:100:0J.wav
128,192,110240,1,0,0:0:0:100:73.wav
42,192,110331,1,0,0:0:0:100:02.wav
298,192,110331,1,0,0:0:0:100:74.wav
384,192,110331,1,0,0:0:0:100:0A.wav
213,192,110422,1,0,0:0:0:100:75.wav
128,192,110513,1,0,0:0:0:100:76.wav
469,192,110513,1,0,0:0:0:100:0J.wav
213,192,110604,1,0,0:0:0:100:77.wav
42,192,110695,1,0,0:0:0:100:02.wav
384,192,110695,1,0,0:0:0:100:78.wav
128,192,110877,1,0,0:0:0:100:0J.wav
213,192,110877,1,0,0:0:0:100:51.wav
298,192,110968,1,0,0:0:0:100:52.wav
42,192,111059,1,0,0:0:0:100:02.wav
213,192,111059,1,0,0:0:0:100:07.wav
384,192,111059,1,0,0:0:0:100:53.wav
298,192,111150,1,0,0:0:0:100:54.wav
128,192,111240,1,0,0:0:0:100:0J.wav
384,192,111240,1,0,0:0:0:100:55.wav
469,192,111331,1,0,0:0:0:100:56.wav
42,192,111422,1,0,0:0:0:100:02.wav
213,192,111422,1,0,0:0:0:100:57.wav
298,192,111513,1,0,0:0:0:100:58.wav
128,192,111604,1,0,0:0:0:100:0J.wav
384,192,111604,1,0,0:0:0:100:59.wav
298,192,111695,1,0,0:0:0:100:5A.wav
42,192,111786,1,0,0:0:0:100:02.wav
213,192,111786,1,0,0:0:0:100:07.wav
384,192,111786,1,0,0:0:0:100:5B.wav
469,192,111877,1,0,0:0:0:100:5C.wav
128,192,111968,1,0,0:0:0:100:0J.wav
384,192,111968,1,0,0:0:0:100:5D.wav
298,192,112059,1,0,0:0:0:100:5E.wav
42,192,112150,1,0,0:0:0:100:02.wav
384,192,112150,1,0,0:0:0:100:79.wav
298,192,112240,1,0,0:0:0:100:7A.wav
128,192,112331,1,0,0:0:0:100:0J.wav
384,192,112331,1,0,0:0:0:100:7B.wav
469,192,112422,1,0,0:0:0:100:7C.wav
42,192,112513,1,0,0:0:0:100:02.wav
213,192,112513,1,0,0:0:0:100:07.wav
298,192,112513,1,0,0:0:0:100:7D.wav
128,192,112695,1,0,0:0:0:100:0J.wav
298,192,112695,1,0,0:0:0:100:7E.wav
469,192,112786,1,0,0:0:0:100:7F.wav
42,192,112877,1,0,0:0:0:100:02.wav
298,192,112877,1,0,0:0:0:100:7G.wav
469,192,112968,1,0,0:0:0:100:7H.wav
128,192,113059,1,0,0:0:0:100:0J.wav
298,192,113059,1,0,0:0:0:100:7I.wav
384,192,113150,1,0,0:0:0:100:7J.wav
42,192,113240,1,0,0:0:0:100:02.wav
213,192,113240,1,0,0:0:0:100:07.wav
469,192,113240,1,0,0:0:0:100:7K.wav
384,192,113331,1,0,0:0:0:100:7L.wav
298,192,113422,1,0,0:0:0:100:7M.wav
213,192,113513,1,0,0:0:0:100:7N.wav
128,192,113604,1,0,0:0:0:100:7O.wav
469,192,113604,1,0,0:0:0:100:0M.wav
42,192,113695,1,0,0:0:0:100:0M.wav
213,192,113786,1,0,0:0:0:100:5I.wav
469,192,113786,1,0,0:0:0:100:0M.wav
42,192,113877,1,0,0:0:0:100:0M.wav
298,192,113877,1,0,0:0:0:100:5J.wav
384,192,113968,1,0,0:0:0:100:5K.wav
469,192,113968,1,0,0:0:0:100:0M.wav
42,192,114059,1,0,0:0:0:100:0M.wav
128,192,114059,1,0,0:0:0:100:5L.wav
213,192,114150,1,0,0:0:0:100:5M.wav
469,192,114150,1,0,0:0:0:100:0M.wav
42,192,114240,1,0,0:0:0:100:0M.wav
298,192,114240,1,0,0:0:0:100:5N.wav
384,192,114331,1,0,0:0:0:100:5O.wav
469,192,114331,1,0,0:0:0:100:0M.wav
42,192,114422,1,0,0:0:0:100:0M.wav
128,192,114422,1,0,0:0:0:100:5P.wav
213,192,114513,1,0,0:0:0:100:5Q.wav
469,192,114513,1,0,0:0:0:100:0M.wav
42,192,114604,1,0,0:0:0:100:0M.wav
298,192,114604,1,0,0:0:0:100:5R.wav
384,192,114695,1,0,0:0:0:100:5S.wav
469,192,114695,1,0,0:0:0:100:0M.wav
42,192,114786,1,0,0:0:0:100:0M.wav
128,192,114786,1,0,0:0:0:100:5T.wav
213,192,114877,1,0,0:0:0:100:5U.wav
469,192,114877,1,0,0:0:0:100:0M.wav
42,192,114968,1,0,0:0:0:100:0M.wav
298,192,114968,1,0,0:0:0:100:5V.wav
213,192,115059,1,0,0:0:0:100:5W.wav
469,192,115059,1,0,0:0:0:100:0M.wav
42,192,115150,1,0,0:0:0:100:0M.wav
298,192,115150,1,0,0:0:0:100:5X.wav
213,192,115240,1,0,0:0:0:100:5Y.wav
469,192,115240,1,0,0:0:0:100:0M.wav
42,192,115331,1,0,0:0:0:100:0M.wav
128,192,115331,1,0,0:0:0:100:5Z.wav
384,192,115422,1,0,0:0:0:100:60.wav
469,192,115422,1,0,0:0:0:100:0M.wav
42,192,115513,1,0,0:0:0:100:0M.wav
298,192,115513,1,0,0:0:0:100:61.wav
213,192,115604,1,0,0:0:0:100:62.wav
469,192,115604,1,0,0:0:0:100:0M.wav
42,192,115695,1,0,0:0:0:100:0M.wav
298,192,115695,1,0,0:0:0:100:63.wav
213,192,115786,1,0,0:0:0:100:64.wav
469,192,115786,1,0,0:0:0:100:0M.wav
42,192,115877,1,0,0:0:0:100:0M.wav
128,192,115877,1,0,0:0:0:100:65.wav
384,192,115968,1,0,0:0:0:100:66.wav
469,192,115968,1,0,0:0:0:100:0M.wav
42,192,116059,1,0,0:0:0:100:0M.wav
298,192,116059,1,0,0:0:0:100:67.wav
213,192,116150,1,0,0:0:0:100:7P.wav
469,192,116150,1,0,0:0:0:100:0M.wav
42,192,116240,1,0,0:0:0:100:0M.wav
128,192,116240,1,0,0:0:0:100:7Q.wav
213,192,116331,1,0,0:0:0:100:7R.wav
469,192,116331,1,0,0:0:0:100:0M.wav
42,192,116422,1,0,0:0:0:100:0M.wav
298,192,116422,1,0,0:0:0:100:7S.wav
128,192,116513,1,0,0:0:0:100:L3.wav
213,192,116513,1,0,0:0:0:100:LC.wav
384,192,116513,1,0,0:0:0:100:7T.wav
469,192,116513,1,0,0:0:0:100:LF.wav
42,192,119422,1,0,0:0:0:100:LD.wav
