osu file format v12

[General]
AudioFilename: tricoro.mp3
AudioLeadIn: 4000
PreviewTime: 69968
Countdown: 0
SampleSet: Normal
StackLeniency: 0.7
Mode: 3
LetterboxInBreaks: 0
SpecialStyle: 0
WidescreenStoryboard: 1

[Editor]
DistanceSpacing: 0.9
BeatDivisor: 4
GridSize: 32
TimelineZoom: 1

[Metadata]
Title:Dragon and Girl and Decoherence
TitleUnicode:龍と少女とデコヒーレンス
Artist:Kuroneko dungeon
ArtistUnicode:黒猫ダンジョン
Creator:LeiN-
Version:5K Aery-
Source:Beatmania IIDX 20 tricoro
Tags:tricoro 量子の海 yocheck [iidx] miruyanc diamdiam
BeatmapID:300172
BeatmapSetID:115746

[Difficulty]
HPDrainRate:8
CircleSize:5
OverallDifficulty:9
ApproachRate:5
SliderMultiplier:1.4
SliderTickRate:1

[Events]
//Background and Video events
Video,-1380,"bg.avi"
0,0,"bg.png",0,0
//Break Periods
//Storyboard Layer 0 (Background)
//Storyboard Layer 1 (Fail)
//Storyboard Layer 2 (Pass)
//Storyboard Layer 3 (Foreground)
//Storyboard Sound Samples
//Background Colour Transformations
3,100,163,162,255

[TimingPoints]
150,363.636363636364,4,1,1,10,1,0
93240,-100,4,1,1,10,0,1
104876,-100,4,1,1,10,0,0
104877,-100,4,1,1,10,0,1
107785,-100,4,1,1,10,0,0
107786,-100,4,1,1,10,0,1
110694,-100,4,1,1,10,0,0
110695,-100,4,1,1,10,0,1
119421,-100,4,1,1,10,0,0
119422,-100,4,1,1,10,0,1
119513,-100,4,1,1,10,0,0

[HitObjects]
51,192,150,5,0,0:0:0:0:
153,192,150,1,0,0:0:0:0:
256,192,240,1,0,0:0:0:0:
153,192,331,1,0,0:0:0:0:
256,192,422,1,0,0:0:0:0:
51,192,513,1,0,0:0:0:0:
358,192,513,1,0,0:0:0:0:
460,192,513,1,0,0:0:0:0:
153,192,604,1,0,0:0:0:0:
358,192,695,1,0,0:0:0:0:
256,192,786,1,0,0:0:0:0:
51,192,877,1,0,0:0:0:0:
153,192,877,1,0,0:0:0:0:
358,192,968,1,0,0:0:0:0:
153,192,1059,1,0,0:0:0:0:
256,192,1150,1,0,0:0:0:0:
51,192,1240,1,0,0:0:0:0:
460,192,1240,1,0,0:0:0:0:
358,192,1240,1,0,0:0:0:0:
153,192,1331,1,0,0:0:0:0:
256,192,1422,1,0,0:0:0:0:
153,192,1513,1,0,0:0:0:0:
51,192,1604,1,0,0:0:0:0:
358,192,1604,1,0,0:0:0:0:
256,192,1695,1,0,0:0:0:0:
358,192,1786,1,0,0:0:0:0:
256,192,1877,1,0,0:0:0:0:
51,192,1968,1,0,0:0:0:0:
153,192,1968,1,0,0:0:0:0:
460,192,1968,1,0,0:0:0:0:
358,192,2059,1,0,0:0:0:0:
153,192,2150,1,0,0:0:0:0:
256,192,2240,1,0,0:0:0:0:
51,192,2331,1,0,0:0:0:0:
358,192,2331,1,0,0:0:0:0:
153,192,2422,1,0,0:0:0:0:
358,192,2513,1,0,0:0:0:0:
256,192,2604,1,0,0:0:0:0:
51,192,2695,1,0,0:0:0:0:
153,192,2695,1,0,0:0:0:0:
460,192,2695,1,0,0:0:0:0:
358,192,2786,1,0,0:0:0:0:
256,192,2877,1,0,0:0:0:0:
358,192,2968,1,0,0:0:0:0:
51,192,3059,1,0,0:0:0:0:
153,192,3059,1,0,0:0:0:0:
256,192,3150,1,0,0:0:0:0:
153,192,3240,1,0,0:0:0:0:
256,192,3331,1,0,0:0:0:0:
51,192,3422,1,0,0:0:0:0:
460,192,3422,1,0,0:0:0:0:
358,192,3422,1,0,0:0:0:0:
153,192,3513,1,0,0:0:0:0:
256,192,3604,1,0,0:0:0:0:
358,192,3695,1,0,0:0:0:0:
51,192,3786,1,0,0:0:0:0:
256,192,3786,1,0,0:0:0:0:
153,192,3877,1,0,0:0:0:0:
256,192,3968,1,0,0:0:0:0:
153,192,4059,1,0,0:0:0:0:
51,192,4150,1,0,0:0:0:0:
358,192,4150,1,0,0:0:0:0:
460,192,4150,1,0,0:0:0:0:
256,192,4240,1,0,0:0:0:0:
358,192,4331,1,0,0:0:0:0:
153,192,4422,1,0,0:0:0:0:
51,192,4513,1,0,0:0:0:0:
256,192,4513,1,0,0:0:0:0:
358,192,4604,1,0,0:0:0:0:
256,192,4695,1,0,0:0:0:0:
358,192,4786,1,0,0:0:0:0:
51,192,4877,1,0,0:0:0:0:
153,192,4877,1,0,0:0:0:0:
460,192,4877,1,0,0:0:0:0:
256,192,4968,1,0,0:0:0:0:
358,192,5059,1,0,0:0:0:0:
153,192,5150,1,0,0:0:0:0:
51,192,5240,1,0,0:0:0:0:
256,192,5240,1,0,0:0:0:0:
153,192,5331,1,0,0:0:0:0:
358,192,5422,1,0,0:0:0:0:
256,192,5513,1,0,0:0:0:0:
51,192,5604,1,0,0:0:0:0:
460,192,5604,1,0,0:0:0:0:
153,192,5604,1,0,0:0:0:0:
256,192,5695,1,0,0:0:0:0:
358,192,5786,1,0,0:0:0:0:
153,192,5877,1,0,0:0:0:0:
51,192,5968,1,0,0:0:0:0:
256,192,5968,1,0,0:0:0:0:
153,192,6059,1,0,0:0:0:0:
358,192,6059,1,0,0:0:0:0:
256,192,6150,1,0,0:0:0:0:
460,192,6150,1,0,0:0:0:0:
153,192,6331,1,0,0:0:0:0:
358,192,6331,1,0,0:0:0:0:
256,192,6513,1,0,0:0:0:0:
460,192,6513,1,0,0:0:0:0:
51,192,6695,1,0,0:0:0:0:
358,192,6695,1,0,0:0:0:0:
153,192,6786,1,0,0:0:0:0:
460,192,6786,1,0,0:0:0:0:
256,192,6877,1,0,0:0:0:0:
358,192,6877,1,0,0:0:0:0:
153,192,7059,1,0,0:0:0:0:
460,192,7059,1,0,0:0:0:0:
358,192,7240,1,0,0:0:0:0:
256,192,7240,1,0,0:0:0:0:
51,192,7422,1,0,0:0:0:0:
153,192,7422,1,0,0:0:0:0:
358,192,7513,1,0,0:0:0:0:
460,192,7513,1,0,0:0:0:0:
256,192,7604,1,0,0:0:0:0:
153,192,7604,1,0,0:0:0:0:
358,192,7786,1,0,0:0:0:0:
460,192,7786,1,0,0:0:0:0:
256,192,7968,1,0,0:0:0:0:
153,192,7968,1,0,0:0:0:0:
358,192,8150,1,0,0:0:0:0:
460,192,8150,1,0,0:0:0:0:
153,192,8240,1,0,0:0:0:0:
51,192,8240,1,0,0:0:0:0:
256,192,8331,1,0,0:0:0:0:
358,192,8331,1,0,0:0:0:0:
153,192,8513,1,0,0:0:0:0:
51,192,8513,1,0,0:0:0:0:
256,192,8695,1,0,0:0:0:0:
358,192,8695,1,0,0:0:0:0:
51,192,8877,1,0,0:0:0:0:
460,192,8877,1,0,0:0:0:0:
153,192,8968,1,0,0:0:0:0:
358,192,8968,1,0,0:0:0:0:
256,192,9059,1,0,0:0:0:0:
51,192,9059,1,0,0:0:0:0:
153,192,9240,1,0,0:0:0:0:
358,192,9240,1,0,0:0:0:0:
256,192,9422,1,0,0:0:0:0:
51,192,9422,1,0,0:0:0:0:
460,192,9604,1,0,0:0:0:0:
153,192,9604,1,0,0:0:0:0:
51,192,9695,1,0,0:0:0:0:
256,192,9695,1,0,0:0:0:0:
153,192,9786,1,0,0:0:0:0:
358,192,9786,1,0,0:0:0:0:
51,192,9968,1,0,0:0:0:0:
256,192,9968,1,0,0:0:0:0:
153,192,10150,1,0,0:0:0:0:
358,192,10150,1,0,0:0:0:0:
51,192,10331,1,0,0:0:0:0:
256,192,10331,1,0,0:0:0:0:
153,192,10422,1,0,0:0:0:0:
460,192,10422,1,0,0:0:0:0:
358,192,10513,1,0,0:0:0:0:
256,192,10513,1,0,0:0:0:0:
153,192,10695,1,0,0:0:0:0:
460,192,10695,1,0,0:0:0:0:
358,192,10877,1,0,0:0:0:0:
256,192,10877,1,0,0:0:0:0:
51,192,11059,1,0,0:0:0:0:
460,192,11059,1,0,0:0:0:0:
153,192,11150,1,0,0:0:0:0:
256,192,11150,1,0,0:0:0:0:
358,192,11240,1,0,0:0:0:0:
460,192,11240,1,0,0:0:0:0:
153,192,11422,1,0,0:0:0:0:
256,192,11422,1,0,0:0:0:0:
358,192,11604,1,0,0:0:0:0:
460,192,11604,1,0,0:0:0:0:
51,192,11786,1,0,0:0:0:0:
256,192,11786,1,0,0:0:0:0:
153,192,11968,1,0,0:0:0:0:
460,192,12150,1,0,0:0:0:0:
51,192,12150,1,0,0:0:0:0:
358,192,12331,1,0,0:0:0:0:
256,192,12513,1,0,0:0:0:0:
153,192,12695,1,0,0:0:0:0:
460,192,12877,1,0,0:0:0:0:
51,192,12877,1,0,0:0:0:0:
256,192,13059,1,0,0:0:0:0:
153,192,13240,1,0,0:0:0:0:
256,192,13422,1,0,0:0:0:0:
460,192,13604,1,0,0:0:0:0:
51,192,13604,1,0,0:0:0:0:
358,192,13786,1,0,0:0:0:0:
153,192,13968,1,0,0:0:0:0:
256,192,14150,1,0,0:0:0:0:
460,192,14331,1,0,0:0:0:0:
51,192,14331,1,0,0:0:0:0:
358,192,14513,1,0,0:0:0:0:
256,192,14695,1,0,0:0:0:0:
153,192,14877,1,0,0:0:0:0:
460,192,15059,1,0,0:0:0:0:
51,192,15059,1,0,0:0:0:0:
358,192,15240,1,0,0:0:0:0:
256,192,15422,1,0,0:0:0:0:
153,192,15604,1,0,0:0:0:0:
460,192,15786,1,0,0:0:0:0:
51,192,15786,1,0,0:0:0:0:
358,192,15968,1,0,0:0:0:0:
153,192,16150,1,0,0:0:0:0:
256,192,16331,1,0,0:0:0:0:
460,192,16513,1,0,0:0:0:0:
51,192,16513,1,0,0:0:0:0:
153,192,16695,1,0,0:0:0:0:
256,192,16877,1,0,0:0:0:0:
358,192,17059,1,0,0:0:0:0:
460,192,17240,1,0,0:0:0:0:
51,192,17240,1,0,0:0:0:0:
358,192,17422,1,0,0:0:0:0:
51,192,17604,1,0,0:0:0:0:
153,192,17604,1,0,0:0:0:0:
256,192,17604,1,0,0:0:0:0:
51,192,19059,1,0,0:0:0:0:
358,192,19059,1,0,0:0:0:0:
153,192,19059,1,0,0:0:0:0:
51,192,20513,1,0,0:0:0:0:
153,192,20513,1,0,0:0:0:0:
460,192,20513,1,0,0:0:0:0:
51,192,21240,1,0,0:0:0:0:
153,192,21240,1,0,0:0:0:0:
358,192,21240,1,0,0:0:0:0:
51,192,21968,1,0,0:0:0:0:
256,192,21968,1,0,0:0:0:0:
460,192,21968,1,0,0:0:0:0:
358,192,22150,1,0,0:0:0:0:
153,192,22150,1,0,0:0:0:0:
51,192,22331,1,0,0:0:0:0:
256,192,22331,1,0,0:0:0:0:
460,192,22331,1,0,0:0:0:0:
153,192,22513,1,0,0:0:0:0:
358,192,22513,1,0,0:0:0:0:
358,192,22695,1,0,0:0:0:0:
460,192,22695,1,0,0:0:0:0:
153,192,22786,1,0,0:0:0:0:
51,192,22786,1,0,0:0:0:0:
256,192,22877,1,0,0:0:0:0:
358,192,22877,1,0,0:0:0:0:
153,192,22968,1,0,0:0:0:0:
51,192,22968,1,0,0:0:0:0:
358,192,23059,1,0,0:0:0:0:
460,192,23059,1,0,0:0:0:0:
51,192,23422,1,0,0:0:0:0:
256,192,23422,1,0,0:0:0:0:
153,192,23513,1,0,0:0:0:0:
358,192,23604,1,0,0:0:0:0:
256,192,23695,1,0,0:0:0:0:
51,192,23786,1,0,0:0:0:0:
460,192,23786,1,0,0:0:0:0:
153,192,23786,1,0,0:0:0:0:
358,192,23877,1,0,0:0:0:0:
256,192,23968,1,0,0:0:0:0:
153,192,24059,1,0,0:0:0:0:
51,192,24150,1,0,0:0:0:0:
358,192,24150,1,0,0:0:0:0:
460,192,24240,1,0,0:0:0:0:
153,192,24331,1,0,0:0:0:0:
256,192,24422,1,0,0:0:0:0:
358,192,24513,1,0,0:0:0:0:
51,192,24513,1,0,0:0:0:0:
460,192,24513,1,0,0:0:0:0:
153,192,24604,1,0,0:0:0:0:
256,192,24695,1,0,0:0:0:0:
51,192,24786,1,0,0:0:0:0:
153,192,24877,1,0,0:0:0:0:
358,192,24877,1,0,0:0:0:0:
256,192,24968,1,0,0:0:0:0:
460,192,25059,1,0,0:0:0:0:
358,192,25150,1,0,0:0:0:0:
51,192,25240,1,0,0:0:0:0:
153,192,25240,1,0,0:0:0:0:
256,192,25240,1,0,0:0:0:0:
460,192,25331,1,0,0:0:0:0:
358,192,25422,1,0,0:0:0:0:
51,192,25513,1,0,0:0:0:0:
153,192,25604,1,0,0:0:0:0:
256,192,25604,1,0,0:0:0:0:
358,192,25695,1,0,0:0:0:0:
51,192,25786,1,0,0:0:0:0:
153,192,25877,1,0,0:0:0:0:
256,192,25968,1,0,0:0:0:0:
358,192,25968,1,0,0:0:0:0:
460,192,25968,1,0,0:0:0:0:
51,192,26059,1,0,0:0:0:0:
153,192,26150,1,0,0:0:0:0:
460,192,26240,1,0,0:0:0:0:
358,192,26331,1,0,0:0:0:0:
256,192,26331,1,0,0:0:0:0:
51,192,26422,1,0,0:0:0:0:
460,192,26513,1,0,0:0:0:0:
51,192,26604,1,0,0:0:0:0:
153,192,26695,1,0,0:0:0:0:
256,192,26695,1,0,0:0:0:0:
358,192,26695,1,0,0:0:0:0:
460,192,26786,1,0,0:0:0:0:
51,192,26877,1,0,0:0:0:0:
460,192,26968,1,0,0:0:0:0:
153,192,27059,1,0,0:0:0:0:
256,192,27059,1,0,0:0:0:0:
358,192,27150,1,0,0:0:0:0:
51,192,27240,1,0,0:0:0:0:
256,192,27331,1,0,0:0:0:0:
153,192,27422,1,0,0:0:0:0:
358,192,27422,1,0,0:0:0:0:
460,192,27422,1,0,0:0:0:0:
51,192,27513,1,0,0:0:0:0:
256,192,27604,1,0,0:0:0:0:
153,192,27695,1,0,0:0:0:0:
51,192,27786,1,0,0:0:0:0:
460,192,27786,1,0,0:0:0:0:
358,192,27877,1,0,0:0:0:0:
256,192,27968,1,0,0:0:0:0:
153,192,28059,1,0,0:0:0:0:
51,192,28150,1,0,0:0:0:0:
358,192,28150,1,0,0:0:0:0:
460,192,28150,1,0,0:0:0:0:
256,192,28240,1,0,0:0:0:0:
153,192,28331,1,0,0:0:0:0:
460,192,28422,1,0,0:0:0:0:
358,192,28513,1,0,0:0:0:0:
51,192,28513,1,0,0:0:0:0:
256,192,28604,1,0,0:0:0:0:
153,192,28695,1,0,0:0:0:0:
51,192,28786,1,0,0:0:0:0:
256,192,28877,1,0,0:0:0:0:
358,192,28877,1,0,0:0:0:0:
460,192,28877,1,0,0:0:0:0:
153,192,28968,1,0,0:0:0:0:
51,192,29059,1,0,0:0:0:0:
256,192,29150,1,0,0:0:0:0:
153,192,29240,1,0,0:0:0:0:
460,192,29240,1,0,0:0:0:0:
358,192,29331,1,0,0:0:0:0:
256,192,29422,1,0,0:0:0:0:
460,192,29513,1,0,0:0:0:0:
358,192,29604,1,0,0:0:0:0:
153,192,29604,1,0,0:0:0:0:
51,192,29604,1,0,0:0:0:0:
256,192,29695,1,0,0:0:0:0:
460,192,29786,1,0,0:0:0:0:
358,192,29877,1,0,0:0:0:0:
51,192,29968,1,0,0:0:0:0:
153,192,29968,1,0,0:0:0:0:
460,192,30059,1,0,0:0:0:0:
256,192,30150,1,0,0:0:0:0:
358,192,30240,1,0,0:0:0:0:
51,192,30331,1,0,0:0:0:0:
153,192,30331,1,0,0:0:0:0:
460,192,30331,1,0,0:0:0:0:
256,192,30422,1,0,0:0:0:0:
358,192,30513,1,0,0:0:0:0:
153,192,30604,1,0,0:0:0:0:
51,192,30695,1,0,0:0:0:0:
256,192,30695,1,0,0:0:0:0:
358,192,30786,1,0,0:0:0:0:
460,192,30877,1,0,0:0:0:0:
153,192,30968,1,0,0:0:0:0:
256,192,31059,1,0,0:0:0:0:
358,192,31059,1,0,0:0:0:0:
51,192,31059,1,0,0:0:0:0:
460,192,31150,1,0,0:0:0:0:
153,192,31240,1,0,0:0:0:0:
358,192,31331,1,0,0:0:0:0:
51,192,31422,1,0,0:0:0:0:
460,192,31422,1,0,0:0:0:0:
256,192,31513,1,0,0:0:0:0:
153,192,31604,1,0,0:0:0:0:
51,192,31695,1,0,0:0:0:0:
256,192,31786,1,0,0:0:0:0:
358,192,31786,1,0,0:0:0:0:
460,192,31786,1,0,0:0:0:0:
153,192,31877,1,0,0:0:0:0:
51,192,31968,1,0,0:0:0:0:
358,192,32059,1,0,0:0:0:0:
256,192,32150,1,0,0:0:0:0:
460,192,32150,1,0,0:0:0:0:
153,192,32240,1,0,0:0:0:0:
51,192,32331,1,0,0:0:0:0:
460,192,32422,1,0,0:0:0:0:
358,192,32513,1,0,0:0:0:0:
256,192,32513,1,0,0:0:0:0:
153,192,32513,1,0,0:0:0:0:
51,192,32604,1,0,0:0:0:0:
460,192,32695,1,0,0:0:0:0:
358,192,32786,1,0,0:0:0:0:
256,192,32877,1,0,0:0:0:0:
153,192,32877,1,0,0:0:0:0:
51,192,32968,1,0,0:0:0:0:
460,192,33059,1,0,0:0:0:0:
153,192,33150,1,0,0:0:0:0:
358,192,33240,1,0,0:0:0:0:
256,192,33240,1,0,0:0:0:0:
51,192,33240,1,0,0:0:0:0:
460,192,33331,1,0,0:0:0:0:
153,192,33422,1,0,0:0:0:0:
256,192,33513,1,0,0:0:0:0:
358,192,33604,1,0,0:0:0:0:
51,192,33604,1,0,0:0:0:0:
153,192,33695,1,0,0:0:0:0:
256,192,33786,1,0,0:0:0:0:
358,192,33877,1,0,0:0:0:0:
460,192,33968,1,0,0:0:0:0:
51,192,33968,1,0,0:0:0:0:
256,192,33968,1,0,0:0:0:0:
153,192,34059,1,0,0:0:0:0:
256,192,34150,1,0,0:0:0:0:
51,192,34240,1,0,0:0:0:0:
358,192,34331,1,0,0:0:0:0:
460,192,34331,1,0,0:0:0:0:
358,192,34422,1,0,0:0:0:0:
460,192,34422,1,0,0:0:0:0:
51,192,34513,1,0,0:0:0:0:
358,192,34604,1,0,0:0:0:0:
460,192,34604,1,0,0:0:0:0:
153,192,34695,1,0,0:0:0:0:
256,192,34786,1,0,0:0:0:0:
460,192,34877,1,0,0:0:0:0:
358,192,34877,1,0,0:0:0:0:
153,192,34968,1,0,0:0:0:0:
358,192,35059,1,0,0:0:0:0:
460,192,35059,1,0,0:0:0:0:
256,192,35150,1,0,0:0:0:0:
51,192,35240,1,0,0:0:0:0:
358,192,35331,1,0,0:0:0:0:
153,192,35422,1,0,0:0:0:0:
460,192,35422,1,0,0:0:0:0:
256,192,35422,1,0,0:0:0:0:
51,192,35513,1,0,0:0:0:0:
358,192,35604,1,0,0:0:0:0:
256,192,35695,1,0,0:0:0:0:
153,192,35786,1,0,0:0:0:0:
51,192,35786,1,0,0:0:0:0:
256,192,35877,1,0,0:0:0:0:
358,192,35968,1,0,0:0:0:0:
460,192,36059,1,0,0:0:0:0:
256,192,36150,1,0,0:0:0:0:
51,192,36150,1,0,0:0:0:0:
153,192,36150,1,0,0:0:0:0:
358,192,36240,1,0,0:0:0:0:
460,192,36331,1,0,0:0:0:0:
256,192,36422,1,0,0:0:0:0:
358,192,36513,1,0,0:0:0:0:
460,192,36513,1,0,0:0:0:0:
153,192,36604,1,0,0:0:0:0:
256,192,36695,1,0,0:0:0:0:
51,192,36786,1,0,0:0:0:0:
153,192,36877,1,0,0:0:0:0:
358,192,36877,1,0,0:0:0:0:
460,192,36877,1,0,0:0:0:0:
256,192,36968,1,0,0:0:0:0:
51,192,37059,1,0,0:0:0:0:
153,192,37150,1,0,0:0:0:0:
460,192,37240,1,0,0:0:0:0:
358,192,37240,1,0,0:0:0:0:
256,192,37331,1,0,0:0:0:0:
153,192,37422,1,0,0:0:0:0:
460,192,37513,1,0,0:0:0:0:
358,192,37604,1,0,0:0:0:0:
256,192,37604,1,0,0:0:0:0:
51,192,37604,1,0,0:0:0:0:
153,192,37695,1,0,0:0:0:0:
460,192,37786,1,0,0:0:0:0:
51,192,37877,1,0,0:0:0:0:
153,192,37968,1,0,0:0:0:0:
256,192,37968,1,0,0:0:0:0:
358,192,38059,1,0,0:0:0:0:
460,192,38150,1,0,0:0:0:0:
153,192,38240,1,0,0:0:0:0:
51,192,38331,1,0,0:0:0:0:
256,192,38331,1,0,0:0:0:0:
358,192,38331,1,0,0:0:0:0:
460,192,38422,1,0,0:0:0:0:
153,192,38513,1,0,0:0:0:0:
51,192,38604,1,0,0:0:0:0:
460,192,38695,1,0,0:0:0:0:
358,192,38695,1,0,0:0:0:0:
256,192,38786,1,0,0:0:0:0:
153,192,38877,1,0,0:0:0:0:
51,192,38968,1,0,0:0:0:0:
256,192,39059,1,0,0:0:0:0:
358,192,39059,1,0,0:0:0:0:
460,192,39059,1,0,0:0:0:0:
153,192,39150,1,0,0:0:0:0:
51,192,39240,1,0,0:0:0:0:
358,192,39331,1,0,0:0:0:0:
153,192,39422,1,0,0:0:0:0:
256,192,39422,1,0,0:0:0:0:
51,192,39513,1,0,0:0:0:0:
460,192,39604,1,0,0:0:0:0:
256,192,39695,1,0,0:0:0:0:
153,192,39786,1,0,0:0:0:0:
51,192,39786,1,0,0:0:0:0:
358,192,39786,1,0,0:0:0:0:
460,192,39877,1,0,0:0:0:0:
256,192,39968,1,0,0:0:0:0:
51,192,40059,1,0,0:0:0:0:
153,192,40150,1,0,0:0:0:0:
358,192,40150,1,0,0:0:0:0:
460,192,40240,1,0,0:0:0:0:
358,192,40331,1,0,0:0:0:0:
153,192,40422,1,0,0:0:0:0:
51,192,40513,1,0,0:0:0:0:
256,192,40513,1,0,0:0:0:0:
460,192,40513,1,0,0:0:0:0:
358,192,40604,1,0,0:0:0:0:
153,192,40695,1,0,0:0:0:0:
460,192,40786,1,0,0:0:0:0:
51,192,40786,1,0,0:0:0:0:
358,192,40877,1,0,0:0:0:0:
256,192,40877,1,0,0:0:0:0:
153,192,40968,1,0,0:0:0:0:
460,192,41059,1,0,0:0:0:0:
51,192,41150,1,0,0:0:0:0:
153,192,41240,1,0,0:0:0:0:
256,192,41240,1,0,0:0:0:0:
358,192,41240,1,0,0:0:0:0:
460,192,41331,1,0,0:0:0:0:
51,192,41422,1,0,0:0:0:0:
153,192,41513,1,0,0:0:0:0:
256,192,41604,1,0,0:0:0:0:
460,192,41604,1,0,0:0:0:0:
358,192,41695,1,0,0:0:0:0:
153,192,41786,1,0,0:0:0:0:
460,192,41877,1,0,0:0:0:0:
358,192,41968,1,0,0:0:0:0:
256,192,41968,1,0,0:0:0:0:
51,192,41968,1,0,0:0:0:0:
153,192,42059,1,0,0:0:0:0:
460,192,42150,1,0,0:0:0:0:
51,192,42240,1,0,0:0:0:0:
358,192,42331,1,0,0:0:0:0:
153,192,42331,1,0,0:0:0:0:
256,192,42422,1,0,0:0:0:0:
460,192,42513,1,0,0:0:0:0:
51,192,42604,1,0,0:0:0:0:
153,192,42695,1,0,0:0:0:0:
256,192,42695,1,0,0:0:0:0:
358,192,42695,1,0,0:0:0:0:
460,192,42786,1,0,0:0:0:0:
51,192,42877,1,0,0:0:0:0:
256,192,42968,1,0,0:0:0:0:
153,192,43059,1,0,0:0:0:0:
358,192,43059,1,0,0:0:0:0:
256,192,43150,1,0,0:0:0:0:
358,192,43240,1,0,0:0:0:0:
51,192,43331,1,0,0:0:0:0:
153,192,43422,1,0,0:0:0:0:
256,192,43422,1,0,0:0:0:0:
460,192,43422,1,0,0:0:0:0:
358,192,43513,1,0,0:0:0:0:
51,192,43604,1,0,0:0:0:0:
256,192,43695,1,0,0:0:0:0:
460,192,43786,1,0,0:0:0:0:
51,192,43786,1,0,0:0:0:0:
358,192,43877,1,0,0:0:0:0:
153,192,43877,1,0,0:0:0:0:
256,192,43968,1,0,0:0:0:0:
460,192,43968,1,0,0:0:0:0:
51,192,44059,1,0,0:0:0:0:
153,192,44150,1,0,0:0:0:0:
460,192,44150,1,0,0:0:0:0:
51,192,44240,1,0,0:0:0:0:
153,192,44331,1,0,0:0:0:0:
256,192,44331,1,0,0:0:0:0:
358,192,44422,1,0,0:0:0:0:
460,192,44422,1,0,0:0:0:0:
256,192,44513,1,0,0:0:0:0:
51,192,44513,1,0,0:0:0:0:
153,192,44604,1,0,0:0:0:0:
358,192,44604,1,0,0:0:0:0:
51,192,44695,1,0,0:0:0:0:
256,192,44695,1,0,0:0:0:0:
460,192,44786,1,0,0:0:0:0:
358,192,44877,1,0,0:0:0:0:
51,192,44877,1,0,0:0:0:0:
153,192,44968,1,0,0:0:0:0:
460,192,44968,1,0,0:0:0:0:
358,192,45059,1,0,0:0:0:0:
256,192,45059,1,0,0:0:0:0:
153,192,45150,1,0,0:0:0:0:
51,192,45150,1,0,0:0:0:0:
256,192,45240,1,0,0:0:0:0:
460,192,45240,1,0,0:0:0:0:
153,192,45331,1,0,0:0:0:0:
358,192,45331,1,0,0:0:0:0:
256,192,45422,1,0,0:0:0:0:
51,192,45422,1,0,0:0:0:0:
153,192,45513,1,0,0:0:0:0:
358,192,45604,1,0,0:0:0:0:
256,192,45604,1,0,0:0:0:0:
51,192,45695,1,0,0:0:0:0:
460,192,45695,1,0,0:0:0:0:
153,192,45786,1,0,0:0:0:0:
256,192,45786,1,0,0:0:0:0:
358,192,45877,1,0,0:0:0:0:
460,192,45877,1,0,0:0:0:0:
51,192,45968,1,0,0:0:0:0:
256,192,45968,1,0,0:0:0:0:
153,192,46059,1,0,0:0:0:0:
358,192,46059,1,0,0:0:0:0:
460,192,46150,1,0,0:0:0:0:
256,192,46150,1,0,0:0:0:0:
358,192,46240,1,0,0:0:0:0:
153,192,46331,1,0,0:0:0:0:
256,192,46331,1,0,0:0:0:0:
51,192,46422,1,0,0:0:0:0:
460,192,46513,1,0,0:0:0:0:
256,192,46513,1,0,0:0:0:0:
358,192,46604,1,0,0:0:0:0:
153,192,46604,1,0,0:0:0:0:
460,192,46695,1,0,0:0:0:0:
51,192,46695,1,0,0:0:0:0:
358,192,49604,1,0,0:0:0:0:
256,192,52513,1,0,0:0:0:0:
153,192,55422,1,0,0:0:0:0:
256,192,58331,1,0,0:0:0:0:
153,192,58422,1,0,0:0:0:0:
358,192,58513,1,0,0:0:0:0:
460,192,58513,1,0,0:0:0:0:
51,192,58604,1,0,0:0:0:0:
256,192,58695,1,0,0:0:0:0:
358,192,58786,1,0,0:0:0:0:
460,192,58786,1,0,0:0:0:0:
153,192,58877,1,0,0:0:0:0:
256,192,58968,1,0,0:0:0:0:
460,192,59059,1,0,0:0:0:0:
358,192,59059,1,0,0:0:0:0:
51,192,59150,1,0,0:0:0:0:
153,192,59240,1,0,0:0:0:0:
358,192,59331,1,0,0:0:0:0:
460,192,59331,1,0,0:0:0:0:
256,192,59422,1,0,0:0:0:0:
51,192,59513,1,0,0:0:0:0:
460,192,59604,1,0,0:0:0:0:
358,192,59604,1,0,0:0:0:0:
256,192,59695,1,0,0:0:0:0:
153,192,59786,1,0,0:0:0:0:
460,192,59877,1,0,0:0:0:0:
358,192,59877,1,0,0:0:0:0:
51,192,59968,1,0,0:0:0:0:
256,192,60059,1,0,0:0:0:0:
358,192,60150,1,0,0:0:0:0:
460,192,60150,1,0,0:0:0:0:
153,192,60240,1,0,0:0:0:0:
256,192,60331,1,0,0:0:0:0:
460,192,60422,1,0,0:0:0:0:
358,192,60422,1,0,0:0:0:0:
51,192,60513,1,0,0:0:0:0:
256,192,60604,1,0,0:0:0:0:
358,192,60695,1,0,0:0:0:0:
460,192,60695,1,0,0:0:0:0:
153,192,60786,1,0,0:0:0:0:
51,192,60877,1,0,0:0:0:0:
460,192,60968,1,0,0:0:0:0:
358,192,60968,1,0,0:0:0:0:
256,192,61059,1,0,0:0:0:0:
153,192,61150,1,0,0:0:0:0:
51,192,61240,1,0,0:0:0:0:
153,192,61331,1,0,0:0:0:0:
256,192,61422,1,0,0:0:0:0:
358,192,61422,1,0,0:0:0:0:
460,192,61513,1,0,0:0:0:0:
51,192,61604,1,0,0:0:0:0:
358,192,61695,1,0,0:0:0:0:
256,192,61695,1,0,0:0:0:0:
153,192,61786,1,0,0:0:0:0:
460,192,61877,1,0,0:0:0:0:
256,192,61968,1,0,0:0:0:0:
358,192,61968,1,0,0:0:0:0:
51,192,62059,1,0,0:0:0:0:
153,192,62150,1,0,0:0:0:0:
358,192,62240,1,0,0:0:0:0:
256,192,62240,1,0,0:0:0:0:
460,192,62331,1,0,0:0:0:0:
153,192,62422,1,0,0:0:0:0:
256,192,62513,1,0,0:0:0:0:
358,192,62513,1,0,0:0:0:0:
51,192,62604,1,0,0:0:0:0:
460,192,62695,1,0,0:0:0:0:
358,192,62786,1,0,0:0:0:0:
256,192,62786,1,0,0:0:0:0:
153,192,62877,1,0,0:0:0:0:
51,192,62968,1,0,0:0:0:0:
256,192,63059,1,0,0:0:0:0:
358,192,63059,1,0,0:0:0:0:
460,192,63150,1,0,0:0:0:0:
51,192,63240,1,0,0:0:0:0:
358,192,63331,1,0,0:0:0:0:
256,192,63331,1,0,0:0:0:0:
153,192,63422,1,0,0:0:0:0:
460,192,63513,1,0,0:0:0:0:
256,192,63604,1,0,0:0:0:0:
358,192,63604,1,0,0:0:0:0:
51,192,63695,1,0,0:0:0:0:
460,192,63786,1,0,0:0:0:0:
358,192,63877,1,0,0:0:0:0:
256,192,63877,1,0,0:0:0:0:
51,192,63968,1,0,0:0:0:0:
153,192,64059,1,0,0:0:0:0:
460,192,64150,1,0,0:0:0:0:
358,192,64240,1,0,0:0:0:0:
153,192,64331,1,0,0:0:0:0:
256,192,64331,1,0,0:0:0:0:
51,192,64422,1,0,0:0:0:0:
358,192,64513,1,0,0:0:0:0:
153,192,64604,1,0,0:0:0:0:
256,192,64604,1,0,0:0:0:0:
51,192,64695,1,0,0:0:0:0:
460,192,64786,1,0,0:0:0:0:
256,192,64877,1,0,0:0:0:0:
153,192,64877,1,0,0:0:0:0:
358,192,64968,1,0,0:0:0:0:
460,192,65059,1,0,0:0:0:0:
153,192,65150,1,0,0:0:0:0:
256,192,65150,1,0,0:0:0:0:
358,192,65240,1,0,0:0:0:0:
51,192,65331,1,0,0:0:0:0:
256,192,65422,1,0,0:0:0:0:
153,192,65422,1,0,0:0:0:0:
460,192,65513,1,0,0:0:0:0:
358,192,65604,1,0,0:0:0:0:
153,192,65695,1,0,0:0:0:0:
256,192,65695,1,0,0:0:0:0:
460,192,65786,1,0,0:0:0:0:
51,192,65877,1,0,0:0:0:0:
256,192,65968,1,0,0:0:0:0:
153,192,65968,1,0,0:0:0:0:
358,192,66059,1,0,0:0:0:0:
460,192,66150,1,0,0:0:0:0:
153,192,66240,1,0,0:0:0:0:
256,192,66240,1,0,0:0:0:0:
51,192,66331,1,0,0:0:0:0:
358,192,66422,1,0,0:0:0:0:
256,192,66513,1,0,0:0:0:0:
153,192,66513,1,0,0:0:0:0:
460,192,66604,1,0,0:0:0:0:
358,192,66695,1,0,0:0:0:0:
153,192,66786,1,0,0:0:0:0:
256,192,66786,1,0,0:0:0:0:
51,192,66877,1,0,0:0:0:0:
460,192,66968,1,0,0:0:0:0:
358,192,67059,1,0,0:0:0:0:
256,192,67150,1,0,0:0:0:0:
51,192,67240,1,0,0:0:0:0:
153,192,67240,1,0,0:0:0:0:
358,192,67331,1,0,0:0:0:0:
460,192,67422,1,0,0:0:0:0:
153,192,67513,1,0,0:0:0:0:
51,192,67513,1,0,0:0:0:0:
256,192,67604,1,0,0:0:0:0:
358,192,67695,1,0,0:0:0:0:
51,192,67786,1,0,0:0:0:0:
153,192,67786,1,0,0:0:0:0:
460,192,67877,1,0,0:0:0:0:
256,192,67968,1,0,0:0:0:0:
153,192,68059,1,0,0:0:0:0:
51,192,68059,1,0,0:0:0:0:
460,192,68150,1,0,0:0:0:0:
358,192,68240,1,0,0:0:0:0:
51,192,68331,1,0,0:0:0:0:
153,192,68331,1,0,0:0:0:0:
460,192,68422,1,0,0:0:0:0:
256,192,68513,1,0,0:0:0:0:
153,192,68604,1,0,0:0:0:0:
51,192,68604,1,0,0:0:0:0:
358,192,68695,1,0,0:0:0:0:
256,192,68786,1,0,0:0:0:0:
51,192,68877,1,0,0:0:0:0:
153,192,68877,1,0,0:0:0:0:
358,192,68968,1,0,0:0:0:0:
460,192,69059,1,0,0:0:0:0:
153,192,69150,1,0,0:0:0:0:
51,192,69150,1,0,0:0:0:0:
256,192,69240,1,0,0:0:0:0:
460,192,69331,1,0,0:0:0:0:
51,192,69422,1,0,0:0:0:0:
153,192,69422,1,0,0:0:0:0:
256,192,69513,1,0,0:0:0:0:
358,192,69604,1,0,0:0:0:0:
153,192,69695,1,0,0:0:0:0:
51,192,69695,1,0,0:0:0:0:
460,192,69786,1,0,0:0:0:0:
358,192,69877,1,0,0:0:0:0:
51,192,69968,1,0,0:0:0:0:
153,192,70089,1,0,0:0:0:0:
256,192,70210,1,0,0:0:0:0:
153,192,70331,1,0,0:0:0:0:
358,192,70331,1,0,0:0:0:0:
460,192,70453,1,0,0:0:0:0:
358,192,70574,1,0,0:0:0:0:
51,192,70695,1,0,0:0:0:0:
256,192,70695,1,0,0:0:0:0:
153,192,70816,1,0,0:0:0:0:
51,192,70937,1,0,0:0:0:0:
153,192,71059,1,0,0:0:0:0:
358,192,71059,1,0,0:0:0:0:
256,192,71180,1,0,0:0:0:0:
153,192,71301,1,0,0:0:0:0:
51,192,71422,1,0,0:0:0:0:
358,192,71422,1,0,0:0:0:0:
256,192,71543,1,0,0:0:0:0:
153,192,71665,1,0,0:0:0:0:
51,192,71786,1,0,0:0:0:0:
358,192,71786,1,0,0:0:0:0:
256,192,71907,1,0,0:0:0:0:
358,192,72028,1,0,0:0:0:0:
460,192,72150,1,0,0:0:0:0:
153,192,72150,1,0,0:0:0:0:
256,192,72271,1,0,0:0:0:0:
358,192,72392,1,0,0:0:0:0:
256,192,72513,1,0,0:0:0:0:
460,192,72513,1,0,0:0:0:0:
358,192,72634,1,0,0:0:0:0:
460,192,72756,1,0,0:0:0:0:
153,192,72877,1,0,0:0:0:0:
358,192,72877,1,0,0:0:0:0:
256,192,72998,1,0,0:0:0:0:
358,192,73119,1,0,0:0:0:0:
460,192,73240,1,0,0:0:0:0:
256,192,73240,1,0,0:0:0:0:
153,192,73362,1,0,0:0:0:0:
51,192,73483,1,0,0:0:0:0:
153,192,73604,1,0,0:0:0:0:
358,192,73604,1,0,0:0:0:0:
256,192,73725,1,0,0:0:0:0:
153,192,73846,1,0,0:0:0:0:
51,192,73968,1,0,0:0:0:0:
460,192,73968,1,0,0:0:0:0:
358,192,74089,1,0,0:0:0:0:
256,192,74210,5,0,0:0:0:0:
153,192,74331,1,0,0:0:0:0:
358,192,74331,1,0,0:0:0:0:
51,192,74453,1,0,0:0:0:0:
153,192,74574,1,0,0:0:0:0:
256,192,74695,1,0,0:0:0:0:
460,192,74695,1,0,0:0:0:0:
358,192,74816,1,0,0:0:0:0:
460,192,74937,1,0,0:0:0:0:
153,192,75059,1,0,0:0:0:0:
358,192,75059,1,0,0:0:0:0:
256,192,75180,1,0,0:0:0:0:
358,192,75301,1,0,0:0:0:0:
460,192,75422,1,0,0:0:0:0:
51,192,75422,1,0,0:0:0:0:
153,192,75543,1,0,0:0:0:0:
256,192,75665,1,0,0:0:0:0:
358,192,75786,1,0,0:0:0:0:
51,192,75786,1,0,0:0:0:0:
153,192,75907,1,0,0:0:0:0:
256,192,76028,1,0,0:0:0:0:
358,192,76150,1,0,0:0:0:0:
153,192,76150,1,0,0:0:0:0:
460,192,76271,1,0,0:0:0:0:
358,192,76392,1,0,0:0:0:0:
256,192,76513,1,0,0:0:0:0:
460,192,76513,1,0,0:0:0:0:
153,192,76634,1,0,0:0:0:0:
358,192,76756,1,0,0:0:0:0:
256,192,76877,1,0,0:0:0:0:
51,192,76877,1,0,0:0:0:0:
153,192,76998,1,0,0:0:0:0:
51,192,77119,1,0,0:0:0:0:
358,192,77240,1,0,0:0:0:0:
153,192,77240,1,0,0:0:0:0:
256,192,77362,1,0,0:0:0:0:
153,192,77483,1,0,0:0:0:0:
51,192,77604,1,0,0:0:0:0:
256,192,77604,1,0,0:0:0:0:
153,192,77725,1,0,0:0:0:0:
256,192,77846,1,0,0:0:0:0:
51,192,77968,1,0,0:0:0:0:
358,192,77968,1,0,0:0:0:0:
153,192,78089,1,0,0:0:0:0:
256,192,78210,1,0,0:0:0:0:
51,192,78331,1,0,0:0:0:0:
358,192,78331,1,0,0:0:0:0:
256,192,78453,1,0,0:0:0:0:
153,192,78574,1,0,0:0:0:0:
460,192,78695,1,0,0:0:0:0:
256,192,78695,1,0,0:0:0:0:
358,192,78816,1,0,0:0:0:0:
256,192,78937,1,0,0:0:0:0:
153,192,79059,1,0,0:0:0:0:
358,192,79059,1,0,0:0:0:0:
256,192,79180,1,0,0:0:0:0:
153,192,79301,1,0,0:0:0:0:
51,192,79422,1,0,0:0:0:0:
256,192,79422,1,0,0:0:0:0:
153,192,79543,1,0,0:0:0:0:
256,192,79665,1,0,0:0:0:0:
153,192,79786,1,0,0:0:0:0:
358,192,79786,1,0,0:0:0:0:
51,192,79907,1,0,0:0:0:0:
153,192,80028,1,0,0:0:0:0:
256,192,80150,1,0,0:0:0:0:
460,192,80150,1,0,0:0:0:0:
358,192,80271,1,0,0:0:0:0:
51,192,80392,1,0,0:0:0:0:
153,192,80513,5,0,0:0:0:0:
358,192,80513,1,0,0:0:0:0:
256,192,80634,1,0,0:0:0:0:
358,192,80756,1,0,0:0:0:0:
153,192,80877,1,0,0:0:0:0:
460,192,80877,1,0,0:0:0:0:
256,192,80998,1,0,0:0:0:0:
153,192,81119,1,0,0:0:0:0:
51,192,81240,1,0,0:0:0:0:
460,192,81240,1,0,0:0:0:0:
358,192,81362,1,0,0:0:0:0:
256,192,81483,1,0,0:0:0:0:
51,192,81604,1,0,0:0:0:0:
460,192,81604,1,0,0:0:0:0:
153,192,81695,1,0,0:0:0:0:
256,192,81786,1,0,0:0:0:0:
51,192,81786,1,0,0:0:0:0:
358,192,81877,1,0,0:0:0:0:
153,192,81877,1,0,0:0:0:0:
460,192,81968,1,0,0:0:0:0:
256,192,81968,1,0,0:0:0:0:
358,192,82059,1,0,0:0:0:0:
256,192,82150,1,0,0:0:0:0:
153,192,82240,1,0,0:0:0:0:
358,192,82331,1,0,0:0:0:0:
256,192,82422,1,0,0:0:0:0:
153,192,82513,1,0,0:0:0:0:
51,192,82604,1,0,0:0:0:0:
358,192,82695,1,0,0:0:0:0:
256,192,82786,1,0,0:0:0:0:
153,192,82877,1,0,0:0:0:0:
460,192,82968,1,0,0:0:0:0:
358,192,83059,1,0,0:0:0:0:
256,192,83150,1,0,0:0:0:0:
153,192,83240,1,0,0:0:0:0:
51,192,83331,1,0,0:0:0:0:
256,192,83422,1,0,0:0:0:0:
153,192,83513,1,0,0:0:0:0:
358,192,83604,1,0,0:0:0:0:
256,192,83695,1,0,0:0:0:0:
460,192,83786,1,0,0:0:0:0:
358,192,83877,1,0,0:0:0:0:
153,192,83968,1,0,0:0:0:0:
51,192,84059,1,0,0:0:0:0:
256,192,84150,1,0,0:0:0:0:
153,192,84240,1,0,0:0:0:0:
358,192,84331,1,0,0:0:0:0:
256,192,84422,1,0,0:0:0:0:
460,192,84513,1,0,0:0:0:0:
51,192,84513,1,0,0:0:0:0:
358,192,84604,1,0,0:0:0:0:
153,192,84604,1,0,0:0:0:0:
256,192,84695,1,0,0:0:0:0:
153,192,84786,1,0,0:0:0:0:
358,192,84786,1,0,0:0:0:0:
460,192,84877,1,0,0:0:0:0:
51,192,84877,1,0,0:0:0:0:
358,192,84968,1,0,0:0:0:0:
256,192,85059,1,0,0:0:0:0:
153,192,85150,1,0,0:0:0:0:
51,192,85240,1,0,0:0:0:0:
256,192,85331,1,0,0:0:0:0:
153,192,85422,1,0,0:0:0:0:
256,192,85513,1,0,0:0:0:0:
358,192,85604,1,0,0:0:0:0:
256,192,85695,1,0,0:0:0:0:
153,192,85786,1,0,0:0:0:0:
256,192,85877,1,0,0:0:0:0:
51,192,85968,1,0,0:0:0:0:
460,192,85968,1,0,0:0:0:0:
256,192,86059,1,0,0:0:0:0:
358,192,86150,1,0,0:0:0:0:
256,192,86240,1,0,0:0:0:0:
153,192,86331,1,0,0:0:0:0:
256,192,86422,1,0,0:0:0:0:
358,192,86513,1,0,0:0:0:0:
256,192,86604,1,0,0:0:0:0:
51,192,86695,1,0,0:0:0:0:
153,192,86786,1,0,0:0:0:0:
256,192,86877,1,0,0:0:0:0:
358,192,86968,1,0,0:0:0:0:
460,192,87059,1,0,0:0:0:0:
51,192,87059,1,0,0:0:0:0:
153,192,87150,1,0,0:0:0:0:
256,192,87240,1,0,0:0:0:0:
358,192,87331,1,0,0:0:0:0:
460,192,87422,1,0,0:0:0:0:
153,192,87422,1,0,0:0:0:0:
51,192,87513,1,0,0:0:0:0:
256,192,87513,1,0,0:0:0:0:
153,192,87604,1,0,0:0:0:0:
358,192,87604,1,0,0:0:0:0:
256,192,87695,1,0,0:0:0:0:
460,192,87695,1,0,0:0:0:0:
358,192,87786,1,0,0:0:0:0:
153,192,87786,1,0,0:0:0:0:
460,192,87877,1,0,0:0:0:0:
358,192,87968,1,0,0:0:0:0:
256,192,88059,1,0,0:0:0:0:
153,192,88150,1,0,0:0:0:0:
358,192,88240,1,0,0:0:0:0:
256,192,88331,1,0,0:0:0:0:
153,192,88422,1,0,0:0:0:0:
51,192,88513,1,0,0:0:0:0:
256,192,88604,1,0,0:0:0:0:
153,192,88695,1,0,0:0:0:0:
51,192,88786,1,0,0:0:0:0:
460,192,88877,1,0,0:0:0:0:
358,192,88968,1,0,0:0:0:0:
256,192,89059,1,0,0:0:0:0:
153,192,89150,1,0,0:0:0:0:
51,192,89240,1,0,0:0:0:0:
153,192,89331,1,0,0:0:0:0:
256,192,89422,1,0,0:0:0:0:
358,192,89513,1,0,0:0:0:0:
460,192,89604,1,0,0:0:0:0:
51,192,89695,1,0,0:0:0:0:
256,192,89786,1,0,0:0:0:0:
153,192,89877,1,0,0:0:0:0:
358,192,89968,1,0,0:0:0:0:
256,192,90059,1,0,0:0:0:0:
460,192,90150,1,0,0:0:0:0:
358,192,90240,1,0,0:0:0:0:
51,192,90331,1,0,0:0:0:0:
460,192,90331,1,0,0:0:0:0:
256,192,90422,1,0,0:0:0:0:
51,192,90513,1,0,0:0:0:0:
460,192,90513,1,0,0:0:0:0:
256,192,90604,1,0,0:0:0:0:
153,192,90695,1,0,0:0:0:0:
460,192,90695,1,0,0:0:0:0:
358,192,90786,1,0,0:0:0:0:
153,192,90877,1,0,0:0:0:0:
460,192,90877,1,0,0:0:0:0:
358,192,90968,1,0,0:0:0:0:
256,192,91059,1,0,0:0:0:0:
51,192,91059,1,0,0:0:0:0:
460,192,91150,1,0,0:0:0:0:
256,192,91240,1,0,0:0:0:0:
51,192,91240,1,0,0:0:0:0:
460,192,91331,1,0,0:0:0:0:
153,192,91422,1,0,0:0:0:0:
256,192,91422,1,0,0:0:0:0:
358,192,91513,1,0,0:0:0:0:
153,192,91604,1,0,0:0:0:0:
256,192,91604,1,0,0:0:0:0:
358,192,91695,1,0,0:0:0:0:
51,192,91786,1,0,0:0:0:0:
153,192,91786,1,0,0:0:0:0:
460,192,91877,1,0,0:0:0:0:
358,192,91877,1,0,0:0:0:0:
153,192,91968,1,0,0:0:0:0:
256,192,91968,1,0,0:0:0:0:
358,192,92059,1,0,0:0:0:0:
460,192,92059,1,0,0:0:0:0:
51,192,92150,1,0,0:0:0:0:
153,192,92150,1,0,0:0:0:0:
460,192,92240,1,0,0:0:0:0:
358,192,92240,1,0,0:0:0:0:
153,192,92331,1,0,0:0:0:0:
256,192,92331,1,0,0:0:0:0:
358,192,92422,1,0,0:0:0:0:
460,192,92422,1,0,0:0:0:0:
51,192,92513,1,0,0:0:0:0:
153,192,92513,1,0,0:0:0:0:
256,192,92604,1,0,0:0:0:0:
358,192,92695,1,0,0:0:0:0:
153,192,92695,1,0,0:0:0:0:
460,192,92786,1,0,0:0:0:0:
256,192,92877,1,0,0:0:0:0:
51,192,92877,1,0,0:0:0:0:
358,192,92968,1,0,0:0:0:0:
460,192,93059,1,0,0:0:0:0:
153,192,93059,1,0,0:0:0:0:
256,192,93150,1,0,0:0:0:0:
51,192,93240,1,0,0:0:0:0:
358,192,93240,1,0,0:0:0:0:
460,192,93240,1,0,0:0:0:0:
358,192,93422,1,0,0:0:0:0:
256,192,93513,1,0,0:0:0:0:
51,192,93604,1,0,0:0:0:0:
153,192,93604,1,0,0:0:0:0:
256,192,93695,1,0,0:0:0:0:
358,192,93786,1,0,0:0:0:0:
460,192,93786,1,0,0:0:0:0:
256,192,93877,1,0,0:0:0:0:
51,192,93968,1,0,0:0:0:0:
460,192,93968,1,0,0:0:0:0:
358,192,94059,1,0,0:0:0:0:
256,192,94150,1,0,0:0:0:0:
153,192,94150,1,0,0:0:0:0:
358,192,94240,1,0,0:0:0:0:
51,192,94331,1,0,0:0:0:0:
460,192,94331,1,0,0:0:0:0:
153,192,94422,1,0,0:0:0:0:
358,192,94513,1,0,0:0:0:0:
460,192,94513,1,0,0:0:0:0:
256,192,94604,1,0,0:0:0:0:
51,192,94695,1,0,0:0:0:0:
460,192,94877,1,0,0:0:0:0:
51,192,95059,1,0,0:0:0:0:
358,192,95059,1,0,0:0:0:0:
460,192,95240,1,0,0:0:0:0:
51,192,95422,1,0,0:0:0:0:
460,192,95604,1,0,0:0:0:0:
51,192,95786,1,0,0:0:0:0:
358,192,95786,1,0,0:0:0:0:
460,192,95968,1,0,0:0:0:0:
51,192,96150,1,0,0:0:0:0:
153,192,96150,1,0,0:0:0:0:
153,192,96331,1,0,0:0:0:0:
256,192,96422,1,0,0:0:0:0:
51,192,96513,1,0,0:0:0:0:
358,192,96513,1,0,0:0:0:0:
256,192,96604,1,0,0:0:0:0:
153,192,96695,1,0,0:0:0:0:
460,192,96695,1,0,0:0:0:0:
358,192,96786,1,0,0:0:0:0:
51,192,96877,1,0,0:0:0:0:
256,192,96877,1,0,0:0:0:0:
460,192,96968,1,0,0:0:0:0:
358,192,96968,1,0,0:0:0:0:
153,192,97059,1,0,0:0:0:0:
256,192,97059,1,0,0:0:0:0:
358,192,97150,1,0,0:0:0:0:
51,192,97240,1,0,0:0:0:0:
460,192,97240,1,0,0:0:0:0:
153,192,97331,1,0,0:0:0:0:
256,192,97422,1,0,0:0:0:0:
358,192,97422,1,0,0:0:0:0:
460,192,97513,1,0,0:0:0:0:
51,192,97604,1,0,0:0:0:0:
153,192,97604,1,0,0:0:0:0:
460,192,97786,1,0,0:0:0:0:
51,192,97968,1,0,0:0:0:0:
358,192,97968,1,0,0:0:0:0:
460,192,98150,1,0,0:0:0:0:
51,192,98331,1,0,0:0:0:0:
460,192,98513,1,0,0:0:0:0:
51,192,98695,1,0,0:0:0:0:
256,192,98695,1,0,0:0:0:0:
460,192,98877,1,0,0:0:0:0:
51,192,99059,1,0,0:0:0:0:
153,192,99059,1,0,0:0:0:0:
460,192,99240,1,0,0:0:0:0:
358,192,99331,1,0,0:0:0:0:
51,192,99422,1,0,0:0:0:0:
256,192,99422,1,0,0:0:0:0:
460,192,99513,1,0,0:0:0:0:
358,192,99604,1,0,0:0:0:0:
153,192,99604,1,0,0:0:0:0:
256,192,99695,1,0,0:0:0:0:
460,192,99786,1,0,0:0:0:0:
51,192,99786,1,0,0:0:0:0:
153,192,99877,1,0,0:0:0:0:
358,192,99877,1,0,0:0:0:0:
256,192,99968,1,0,0:0:0:0:
460,192,99968,1,0,0:0:0:0:
358,192,100059,1,0,0:0:0:0:
153,192,100150,1,0,0:0:0:0:
51,192,100150,1,0,0:0:0:0:
256,192,100240,1,0,0:0:0:0:
460,192,100331,1,0,0:0:0:0:
358,192,100331,1,0,0:0:0:0:
153,192,100422,1,0,0:0:0:0:
51,192,100513,1,0,0:0:0:0:
256,192,100513,1,0,0:0:0:0:
460,192,100695,1,0,0:0:0:0:
358,192,100877,1,0,0:0:0:0:
51,192,100877,1,0,0:0:0:0:
460,192,101059,1,0,0:0:0:0:
51,192,101240,1,0,0:0:0:0:
460,192,101422,1,0,0:0:0:0:
358,192,101604,1,0,0:0:0:0:
51,192,101604,1,0,0:0:0:0:
460,192,101786,1,0,0:0:0:0:
153,192,101968,1,0,0:0:0:0:
51,192,101968,1,0,0:0:0:0:
460,192,102150,1,0,0:0:0:0:
358,192,102240,1,0,0:0:0:0:
51,192,102331,1,0,0:0:0:0:
256,192,102331,1,0,0:0:0:0:
460,192,102422,1,0,0:0:0:0:
153,192,102513,1,0,0:0:0:0:
358,192,102513,1,0,0:0:0:0:
256,192,102604,1,0,0:0:0:0:
51,192,102695,1,0,0:0:0:0:
460,192,102695,1,0,0:0:0:0:
358,192,102786,1,0,0:0:0:0:
256,192,102786,1,0,0:0:0:0:
153,192,102877,1,0,0:0:0:0:
460,192,102877,1,0,0:0:0:0:
256,192,102968,1,0,0:0:0:0:
51,192,103059,1,0,0:0:0:0:
153,192,103059,1,0,0:0:0:0:
256,192,103150,1,0,0:0:0:0:
358,192,103240,1,0,0:0:0:0:
460,192,103240,1,0,0:0:0:0:
153,192,103331,1,0,0:0:0:0:
51,192,103422,1,0,0:0:0:0:
256,192,103422,1,0,0:0:0:0:
460,192,103513,1,0,0:0:0:0:
358,192,103604,1,0,0:0:0:0:
153,192,103604,1,0,0:0:0:0:
256,192,103695,1,0,0:0:0:0:
51,192,103786,1,0,0:0:0:0:
153,192,103786,1,0,0:0:0:0:
460,192,103877,1,0,0:0:0:0:
256,192,103968,1,0,0:0:0:0:
358,192,103968,1,0,0:0:0:0:
153,192,104059,1,0,0:0:0:0:
51,192,104150,1,0,0:0:0:0:
460,192,104150,1,0,0:0:0:0:
256,192,104240,1,0,0:0:0:0:
153,192,104240,1,0,0:0:0:0:
358,192,104331,1,0,0:0:0:0:
460,192,104331,1,0,0:0:0:0:
153,192,104422,1,0,0:0:0:0:
51,192,104513,1,0,0:0:0:0:
256,192,104513,1,0,0:0:0:0:
153,192,104604,1,0,0:0:0:0:
256,192,104695,1,0,0:0:0:0:
460,192,104695,1,0,0:0:0:0:
358,192,104786,1,0,0:0:0:0:
51,192,104877,1,0,0:0:0:0:
153,192,104877,1,0,0:0:0:0:
256,192,104877,1,0,0:0:0:0:
460,192,105059,1,0,0:0:0:0:
358,192,105150,1,0,0:0:0:0:
51,192,105240,1,0,0:0:0:0:
256,192,105240,1,0,0:0:0:0:
153,192,105331,1,0,0:0:0:0:
358,192,105422,1,0,0:0:0:0:
460,192,105422,1,0,0:0:0:0:
51,192,105513,1,0,0:0:0:0:
153,192,105604,1,0,0:0:0:0:
256,192,105604,1,0,0:0:0:0:
460,192,105695,1,0,0:0:0:0:
358,192,105695,1,0,0:0:0:0:
51,192,105786,1,0,0:0:0:0:
256,192,105786,1,0,0:0:0:0:
153,192,105877,1,0,0:0:0:0:
460,192,105968,1,0,0:0:0:0:
256,192,105968,1,0,0:0:0:0:
358,192,106059,1,0,0:0:0:0:
51,192,106150,1,0,0:0:0:0:
153,192,106150,1,0,0:0:0:0:
460,192,106240,1,0,0:0:0:0:
256,192,106331,1,0,0:0:0:0:
358,192,106331,1,0,0:0:0:0:
153,192,106422,1,0,0:0:0:0:
460,192,106422,1,0,0:0:0:0:
51,192,106513,1,0,0:0:0:0:
358,192,106513,1,0,0:0:0:0:
256,192,106604,1,0,0:0:0:0:
153,192,106695,1,0,0:0:0:0:
358,192,106695,1,0,0:0:0:0:
460,192,106786,1,0,0:0:0:0:
256,192,106877,1,0,0:0:0:0:
51,192,106877,1,0,0:0:0:0:
358,192,106968,1,0,0:0:0:0:
153,192,107059,1,0,0:0:0:0:
460,192,107059,1,0,0:0:0:0:
51,192,107150,1,0,0:0:0:0:
358,192,107150,1,0,0:0:0:0:
256,192,107240,1,0,0:0:0:0:
460,192,107240,1,0,0:0:0:0:
153,192,107331,1,0,0:0:0:0:
460,192,107422,1,0,0:0:0:0:
51,192,107422,1,0,0:0:0:0:
358,192,107513,1,0,0:0:0:0:
153,192,107604,1,0,0:0:0:0:
256,192,107604,1,0,0:0:0:0:
51,192,107695,1,0,0:0:0:0:
460,192,107786,1,0,0:0:0:0:
358,192,107786,1,0,0:0:0:0:
358,192,107968,1,0,0:0:0:0:
256,192,108059,1,0,0:0:0:0:
51,192,108150,1,0,0:0:0:0:
153,192,108150,1,0,0:0:0:0:
358,192,108240,1,0,0:0:0:0:
256,192,108331,1,0,0:0:0:0:
460,192,108331,1,0,0:0:0:0:
153,192,108422,1,0,0:0:0:0:
51,192,108513,1,0,0:0:0:0:
358,192,108513,1,0,0:0:0:0:
460,192,108604,1,0,0:0:0:0:
256,192,108604,1,0,0:0:0:0:
153,192,108695,1,0,0:0:0:0:
358,192,108695,1,0,0:0:0:0:
256,192,108786,1,0,0:0:0:0:
51,192,108877,1,0,0:0:0:0:
460,192,108877,1,0,0:0:0:0:
153,192,108968,1,0,0:0:0:0:
256,192,109059,1,0,0:0:0:0:
358,192,109059,1,0,0:0:0:0:
51,192,109150,1,0,0:0:0:0:
460,192,109240,1,0,0:0:0:0:
153,192,109240,1,0,0:0:0:0:
256,192,109331,1,0,0:0:0:0:
358,192,109422,1,0,0:0:0:0:
51,192,109422,1,0,0:0:0:0:
153,192,109513,1,0,0:0:0:0:
256,192,109604,1,0,0:0:0:0:
460,192,109604,1,0,0:0:0:0:
358,192,109695,1,0,0:0:0:0:
51,192,109786,1,0,0:0:0:0:
153,192,109786,1,0,0:0:0:0:
256,192,109877,1,0,0:0:0:0:
358,192,109968,1,0,0:0:0:0:
460,192,109968,1,0,0:0:0:0:
51,192,110059,1,0,0:0:0:0:
153,192,110059,1,0,0:0:0:0:
256,192,110150,1,0,0:0:0:0:
460,192,110150,1,0,0:0:0:0:
358,192,110240,1,0,0:0:0:0:
460,192,110331,1,0,0:0:0:0:
51,192,110331,1,0,0:0:0:0:
153,192,110422,1,0,0:0:0:0:
358,192,110513,1,0,0:0:0:0:
256,192,110513,1,0,0:0:0:0:
460,192,110604,1,0,0:0:0:0:
51,192,110695,1,0,0:0:0:0:
153,192,110695,1,0,0:0:0:0:
460,192,110877,1,0,0:0:0:0:
358,192,110968,1,0,0:0:0:0:
256,192,111059,1,0,0:0:0:0:
51,192,111059,1,0,0:0:0:0:
153,192,111150,1,0,0:0:0:0:
256,192,111240,1,0,0:0:0:0:
460,192,111240,1,0,0:0:0:0:
358,192,111331,1,0,0:0:0:0:
51,192,111422,1,0,0:0:0:0:
256,192,111422,1,0,0:0:0:0:
153,192,111513,1,0,0:0:0:0:
460,192,111513,1,0,0:0:0:0:
256,192,111604,1,0,0:0:0:0:
51,192,111604,1,0,0:0:0:0:
358,192,111695,1,0,0:0:0:0:
256,192,111786,1,0,0:0:0:0:
153,192,111786,1,0,0:0:0:0:
460,192,111877,1,0,0:0:0:0:
358,192,111968,1,0,0:0:0:0:
256,192,111968,1,0,0:0:0:0:
51,192,112059,1,0,0:0:0:0:
153,192,112150,1,0,0:0:0:0:
256,192,112150,1,0,0:0:0:0:
460,192,112240,1,0,0:0:0:0:
51,192,112240,1,0,0:0:0:0:
358,192,112331,1,0,0:0:0:0:
256,192,112331,1,0,0:0:0:0:
51,192,112422,1,0,0:0:0:0:
256,192,112513,1,0,0:0:0:0:
460,192,112513,1,0,0:0:0:0:
358,192,112604,1,0,0:0:0:0:
256,192,112695,1,0,0:0:0:0:
51,192,112695,1,0,0:0:0:0:
153,192,112786,1,0,0:0:0:0:
256,192,112877,1,0,0:0:0:0:
460,192,112877,1,0,0:0:0:0:
358,192,112968,1,0,0:0:0:0:
51,192,112968,1,0,0:0:0:0:
256,192,113059,1,0,0:0:0:0:
460,192,113059,1,0,0:0:0:0:
153,192,113150,1,0,0:0:0:0:
256,192,113240,1,0,0:0:0:0:
358,192,113240,1,0,0:0:0:0:
460,192,113331,1,0,0:0:0:0:
256,192,113422,1,0,0:0:0:0:
153,192,113422,1,0,0:0:0:0:
51,192,113513,1,0,0:0:0:0:
358,192,113604,1,0,0:0:0:0:
256,192,113604,1,0,0:0:0:0:
153,192,113695,1,0,0:0:0:0:
51,192,113695,1,0,0:0:0:0:
460,192,113786,1,0,0:0:0:0:
358,192,113786,1,0,0:0:0:0:
153,192,113877,1,0,0:0:0:0:
256,192,113877,1,0,0:0:0:0:
460,192,113968,1,0,0:0:0:0:
358,192,113968,1,0,0:0:0:0:
153,192,114059,1,0,0:0:0:0:
51,192,114059,1,0,0:0:0:0:
358,192,114150,1,0,0:0:0:0:
256,192,114150,1,0,0:0:0:0:
51,192,114240,1,0,0:0:0:0:
153,192,114240,1,0,0:0:0:0:
358,192,114331,1,0,0:0:0:0:
460,192,114331,1,0,0:0:0:0:
153,192,114422,1,0,0:0:0:0:
256,192,114422,1,0,0:0:0:0:
358,192,114513,1,0,0:0:0:0:
460,192,114513,1,0,0:0:0:0:
51,192,114604,1,0,0:0:0:0:
256,192,114604,1,0,0:0:0:0:
153,192,114695,1,0,0:0:0:0:
358,192,114695,1,0,0:0:0:0:
256,192,114786,1,0,0:0:0:0:
460,192,114786,1,0,0:0:0:0:
358,192,114877,1,0,0:0:0:0:
51,192,114968,1,0,0:0:0:0:
460,192,114968,1,0,0:0:0:0:
153,192,115059,1,0,0:0:0:0:
256,192,115059,1,0,0:0:0:0:
358,192,115150,1,0,0:0:0:0:
51,192,115240,1,0,0:0:0:0:
256,192,115240,1,0,0:0:0:0:
460,192,115331,1,0,0:0:0:0:
358,192,115422,1,0,0:0:0:0:
153,192,115422,1,0,0:0:0:0:
256,192,115513,1,0,0:0:0:0:
460,192,115604,1,0,0:0:0:0:
358,192,115604,1,0,0:0:0:0:
51,192,115695,1,0,0:0:0:0:
153,192,115786,1,0,0:0:0:0:
256,192,115786,1,0,0:0:0:0:
460,192,115877,1,0,0:0:0:0:
51,192,115877,1,0,0:0:0:0:
358,192,115968,1,0,0:0:0:0:
153,192,115968,1,0,0:0:0:0:
256,192,116059,1,0,0:0:0:0:
460,192,116059,1,0,0:0:0:0:
358,192,116150,1,0,0:0:0:0:
51,192,116150,1,0,0:0:0:0:
153,192,116240,1,0,0:0:0:0:
460,192,116331,1,0,0:0:0:0:
51,192,116331,1,0,0:0:0:0:
358,192,116422,1,0,0:0:0:0:
153,192,116513,1,0,0:0:0:0:
51,192,116513,1,0,0:0:0:0:
51,192,119422,1,0,0:0:0:0:
