osu file format v14

[General]
AudioFilename: 19.mp3
AudioLeadIn: 1500
PreviewTime: 93240
Countdown: 1
SampleSet: Soft
StackLeniency: 0.7
Mode: 0
LetterboxInBreaks: 1
WidescreenStoryboard: 0

[Editor]
Bookmarks: 3326
DistanceSpacing: 1.25
BeatDivisor: 4
GridSize: 4
TimelineZoom: 1

[Metadata]
Title:Ryuu to Shoujo to Decoherence
TitleUnicode:龍と少女とデコヒーレンス
Artist:Kuroneko Dungeon
ArtistUnicode:黒猫ダンジョン
Creator:ignorethis
Version:Another
Source:beatmania IIDX 20 tricoro
Tags:bemani konami epic techno tomosuke zektbach omega-attack kiddly TW-KUMA01
BeatmapID:254656
BeatmapSetID:94671

[Difficulty]
HPDrainRate:8
CircleSize:5
OverallDifficulty:8
ApproachRate:9
SliderMultiplier:1.72
SliderTickRate:2

[Events]
//Background and Video events
0,0,"bg.jpg",0,0
//Break Periods
//Storyboard Layer 0 (Background)
//Storyboard Layer 1 (Fail)
//Storyboard Layer 2 (Pass)
//Storyboard Layer 3 (Foreground)
//Storyboard Sound Samples

[TimingPoints]
150,363.636363636364,4,2,1,20,1,0
3059,-100,4,2,1,25,0,0
5968,-83.3333333333333,4,2,1,75,0,0
11786,-133.333333333333,4,2,1,85,0,0
17604,-100,4,2,1,85,0,0
23422,-66.6666666666667,4,1,1,75,0,0
46786,-66.6666666666667,4,2,1,5,0,0
58150,-100,4,2,1,70,0,0
90331,-100,4,1,1,70,0,0
93240,-66.6666666666667,4,1,1,75,0,0

[Colours]
Combo1 : 164,209,255
Combo2 : 0,128,192
Combo3 : 51,153,255
Combo4 : 0,64,128

[HitObjects]
72,308,150,6,0,L|84:360,1,43,8|0,0:0|0:0,0:0:0:0:
156,256,331,2,0,L|148:316,1,43,0|0,0:0|0:0,0:0:0:0:
224,216,513,1,8,0:0:0:0:
224,216,604,2,0,B|276:228|276:228|296:256,1,86
336,328,877,6,0,L|356:288,1,43
412,184,1059,2,0,L|392:224,1,43
358,364,1240,6,0,L|336:328,1,43,8|0,0:0|0:0,0:0:0:0:
389,147,1422,2,0,L|411:183,1,43
340,228,1604,5,8,0:0:0:0:
298,167,1695,1,0,0:0:0:0:
306,94,1786,1,0,0:0:0:0:
360,45,1877,1,0,0:0:0:0:
433,41,1968,1,8,0:0:0:0:
498,74,2059,2,0,B|515:98|515:98|508:165,1,86
436,260,2331,6,0,L|444:304,1,43,8|0,0:0|0:0,0:0:0:0:
336,268,2513,2,0,L|344:312,1,43
356,140,2695,6,0,L|364:96,1,43,8|0,0:0|0:0,0:0:0:0:
256,132,2877,2,0,L|264:88,1,43
176,216,3059,5,8,0:0:0:0:
108,248,3150,2,0,L|64:240,1,43
176,216,3331,2,0,P|184:244|176:272,1,43,0|8,0:0|0:0,0:0:0:0:
82,323,3513,2,0,P|66:287|70:227,1,86
120,180,3786,5,8,0:0:0:0:
160,128,3877,1,0,0:0:0:0:
144,64,3968,1,0,0:0:0:0:
124,0,4059,1,0,0:0:0:0:
64,88,4150,6,0,L|56:136,1,43,8|0,0:0|0:0,0:0:0:0:
228,72,4331,2,0,L|236:24,1,43
280,132,4513,5,8,0:0:0:0:
352,128,4604,1,0,0:0:0:0:
408,80,4695,1,0,0:0:0:0:
480,76,4786,1,0,0:0:0:0:
408,208,4877,5,8,0:0:0:0:
452,264,4968,2,0,L|444:312,1,43
400,208,5150,1,0,0:0:0:0:
392,208,5331,2,0,B|368:232|368:232|380:288,1,86
316,336,5604,5,8,0:0:0:0:
240,348,5695,1,0,0:0:0:0:
216,224,5786,1,8,0:0:0:0:
140,236,5877,1,0,0:0:0:0:
64,300,5968,6,0,B|48:276|48:276|64:192,1,103.199996850586,4|2,1:0|0:0,0:0:0:0:
140,236,6240,1,0,0:0:0:0:
216,224,6331,1,8,0:0:0:0:
296,280,6422,6,0,P|344:296|424:288,3,103.199996850586,2|2|2|2,0:0|0:0|0:0|0:0,0:0:0:0:
216,304,7059,2,0,L|204:368,1,51.599998425293,0|0,1:0|0:0,0:0:0:0:
216,224,7240,1,2,0:0:0:0:
472,132,7422,6,0,B|496:104|496:104|484:28,1,103.199996850586,4|2,1:0|0:0,0:0:0:0:
400,136,7695,2,0,L|416:196,1,51.599998425293,0|8,0:0|0:0,0:0:0:0:
388,132,7877,1,2,0:0:0:0:
460,240,8059,1,2,0:0:0:0:
392,68,8240,1,2,0:0:0:0:
456,304,8422,5,2,0:0:0:0:
400,348,8513,2,0,L|344:360,1,51.599998425293,0|0,1:0|0:0,0:0:0:0:
136,348,8695,2,0,L|192:336,1,51.599998425293,2|0,0:0|0:0,0:0:0:0:
260,364,8877,6,0,B|280:336|280:336|268:256,1,103.199996850586,4|2,1:0|0:0,0:0:0:0:
216,200,9150,2,0,L|232:140,1,51.599998425293,0|8,0:0|0:0,0:0:0:0:
128,288,9331,2,0,L|144:228,1,51.599998425293,2|0,0:0|0:0,0:0:0:0:
48,372,9513,6,0,P|28:316|56:272,2,103.199996850586,2|2|2,0:0|0:0|0:0,0:0:0:0:
136,348,9968,1,0,1:0:0:0:
204,289,10059,1,0,0:0:0:0:
216,199,10150,1,2,0:0:0:0:
194,111,10241,1,0,0:0:0:0:
116,64,10331,6,0,L|60:68,1,51.599998425293,4|0,1:0|0:0,0:0:0:0:
24,188,10513,2,0,L|80:192,1,51.599998425293,2|0,0:0|0:0,0:0:0:0:
144,168,10695,1,8,0:0:0:0:
144,168,10786,1,2,0:0:0:0:
320,44,10968,5,2,0:0:0:0:
320,44,11059,1,8,0:0:0:0:
320,44,11150,1,2,0:0:0:0:
464,368,11331,5,2,0:0:0:0:
447,351,11422,1,8,1:2:0:0:
452,328,11513,1,2,0:0:0:0:
457,305,11604,1,0,1:0:0:0:
463,282,11695,1,0,0:0:0:0:
468,260,11786,5,12,0:0:0:0:
392,224,11968,1,2,0:0:0:0:
292,320,12150,2,0,L|300:360,1,32.2500012302399,0|2,0:0|0:0,0:0:0:0:
216,72,12422,2,0,L|224:32,1,32.2500012302399,2|0,0:0|0:0,0:0:0:0:
184,204,12695,1,2,0:0:0:0:
40,220,12877,2,0,L|116:212,1,64.5000024604798,0|2,0:0|0:0,0:0:0:0:
316,268,13240,6,0,P|328:236|312:188,1,64.5000024604798,0|2,0:0|0:0,0:0:0:0:
244,340,13604,1,0,0:0:0:0:
224,332,13695,1,2,0:0:0:0:
120,192,13877,1,2,0:0:0:0:
132,208,13968,2,0,B|140:224|140:224|132:276,1,64.5000024604798,0|2,0:0|0:0,0:0:0:0:
244,92,14331,2,0,B|252:76|252:76|244:24,1,64.5000024604798,0|2,0:0|0:0,0:0:0:0:
200,160,14695,5,0,0:0:0:0:
316,140,14877,1,2,0:0:0:0:
288,224,15059,2,0,L|276:268,1,32.2500012302399,0|2,0:0|0:0,0:0:0:0:
372,360,15331,2,0,L|380:328,1,32.2500012302399,2|0,0:0|0:0,0:0:0:0:
444,304,15513,2,0,L|452:272,1,32.2500012302399,0|2,0:0|0:0,0:0:0:0:
496,152,15786,2,0,P|484:116|496:84,1,64.5000024604798,0|2,0:0|0:0,0:0:0:0:
376,12,16150,6,0,P|388:48|376:80,1,64.5000024604798,0|2,0:0|0:0,0:0:0:0:
288,136,16513,1,0,0:0:0:0:
280,120,16604,1,2,0:0:0:0:
268,348,16786,1,2,0:0:0:0:
271,332,16877,1,0,0:0:0:0:
273,316,16968,1,0,0:0:0:0:
273,299,17059,1,0,0:0:0:0:
271,282,17150,1,0,0:0:0:0:
268,266,17240,1,0,0:0:0:0:
264,250,17331,1,0,0:0:0:0:
256,235,17422,1,0,0:0:0:0:
246,222,17513,1,0,0:0:0:0:
234,212,17604,6,0,L|222:301,1,86,12|2,0:0|0:0,0:0:0:0:
128,41,17968,5,0,0:0:0:0:
134,57,18059,1,0,0:0:0:0:
138,73,18150,1,0,0:0:0:0:
139,89,18241,1,0,0:0:0:0:
138,106,18331,1,0,0:0:0:0:
136,122,18422,1,0,0:0:0:0:
131,138,18513,1,0,0:0:0:0:
126,155,18604,1,0,0:0:0:0:
119,169,18696,1,0,0:0:0:0:
111,184,18787,1,0,0:0:0:0:
99,197,18878,1,0,0:0:0:0:
87,207,18969,1,0,0:0:0:0:
73,213,19060,2,0,L|83:128,1,86,12|2,0:0|0:0,0:0:0:0:
195,208,19422,5,0,0:0:0:0:
211,214,19513,1,0,0:0:0:0:
227,218,19604,1,0,0:0:0:0:
243,219,19695,1,0,0:0:0:0:
260,218,19787,1,0,0:0:0:0:
276,216,19878,1,0,0:0:0:0:
292,211,19969,1,0,0:0:0:0:
309,206,20060,1,0,0:0:0:0:
323,199,20150,1,0,0:0:0:0:
338,191,20241,1,0,0:0:0:0:
351,179,20332,1,0,0:0:0:0:
361,167,20423,1,0,0:0:0:0:
369,154,20513,6,0,L|364:112,1,43,12|0,0:0|0:0,0:0:0:0:
460,240,20786,2,0,L|448:292,2,43,0|10|0,0:0|0:0|0:0,0:0:0:0:
308,340,21150,2,0,L|320:388,2,43,0|12|0,0:0|0:0|0:0,0:0:0:0:
236,44,21513,2,0,L|244:0,2,43,0|10|0,0:0|0:0|0:0,0:0:0:0:
12,216,21877,5,0,0:0:0:0:
12,216,21968,2,0,L|68:208,1,43,12|0,0:0|0:0,0:0:0:0:
152,80,22150,2,0,L|148:132,1,43,12|0,0:0|0:0,0:0:0:0:
184,288,22331,2,0,L|188:236,1,43,12|0,0:0|0:0,0:0:0:0:
308,344,22513,2,0,L|364:336,1,43,12|0,0:0|0:0,0:0:0:0:
460,252,22695,5,4,0:0:0:0:
416,200,22786,1,4,0:0:0:0:
440,136,22877,1,4,0:0:0:0:
464,72,22968,1,4,0:0:0:0:
488,8,23059,1,4,0:0:0:0:
44,104,23422,6,0,B|104:76|104:76|84:8,1,129.00000492096,4|0,0:0|0:0,0:0:0:0:
12,216,23695,2,0,P|8:248|20:280,1,64.5000024604798,0|8,0:0|0:0,0:0:0:0:
84,312,23877,2,0,B|124:316|124:316|148:360|148:360|192:364,1,129.00000492096
248,320,24150,1,0,0:0:0:0:
248,320,24240,1,0,0:0:0:0:
276,32,24422,1,0,0:0:0:0:
208,60,24513,2,0,P|196:88|208:136,2,64.5000024604798,8|0|0,0:0|0:0|0:0,0:0:0:0:
276,32,24786,1,0,0:0:0:0:
348,52,24877,6,0,B|368:80|368:80|408:92|460:56,1,129.00000492096
488,128,25150,1,0,0:0:0:0:
488,128,25240,2,0,P|507:161|502:214,1,64.5000024604798,8|0,0:0|0:0,0:0:0:0:
388,316,25422,2,0,P|349:315|305:285,1,64.5000024604798
370,76,25604,2,0,P|408:76|452:106,1,64.5000024604798
496,256,25786,2,0,P|476:289|428:311,1,64.5000024604798
376,196,25968,2,0,B|340:176|340:176|296:172|256:204,1,129.00000492096,8|0,0:0|0:0,0:0:0:0:
156,324,26240,5,0,0:0:0:0:
104,376,26331,2,0,B|80:348|80:348|96:232,1,129.00000492096
116,72,26604,2,0,L|124:8,1,64.5000024604798,0|8,0:0|0:0,0:0:0:0:
20,208,26786,2,0,B|100:184|100:184|108:132,1,129.00000492096
116,72,27059,5,0,0:0:0:0:
124,7,27150,1,0,0:0:0:0:
180,47,27240,1,0,0:0:0:0:
172,112,27331,1,0,0:0:0:0:
216,160,27422,5,8,0:0:0:0:
224,224,27513,1,0,0:0:0:0:
280,185,27603,1,0,0:0:0:0:
272,120,27694,1,0,0:0:0:0:
340,16,27786,6,0,B|360:48|360:48|340:140,1,129.00000492096
388,264,28059,1,0,0:0:0:0:
388,336,28150,1,8,0:0:0:0:
456,364,28240,6,0,B|476:332|476:332|456:240,1,129.00000492096
20,256,28604,6,0,P|20:196|92:172,1,129.00000492096
112,252,28877,2,0,L|128:324,1,64.5000024604798,8|0,0:0|0:0,0:0:0:0:
184,72,29059,2,0,L|170:9,1,64.5000024604798
240,192,29240,6,0,B|304:152|376:212,1,129.00000492096
240,192,29513,2,0,P|276:208|296:240,1,64.5000024604798,0|8,0:0|0:0,0:0:0:0:
304,292,29695,1,0,0:0:0:0:
36,136,29877,6,0,P|63:108|71:71,1,64.5000024604798
64,16,30059,1,0,0:0:0:0:
13,342,30240,5,0,0:0:0:0:
79,304,30331,1,8,0:0:0:0:
153,286,30422,1,0,0:0:0:0:
229,283,30513,1,0,0:0:0:0:
304,292,30604,1,0,0:0:0:0:
373,323,30695,2,0,B|385:342|385:342|429:302|409:242,1,129.00000492096
488,32,30968,5,0,0:0:0:0:
464,96,31059,2,0,P|464:132|484:164,1,64.5000024604798,8|0,0:0|0:0,0:0:0:0:
477,156,31331,1,0,0:0:0:0:
400,180,31422,2,0,L|336:172,1,64.5000024604798
252,80,31604,2,0,L|188:72,1,64.5000024604798
28,128,31786,2,0,B|0:164|0:164|24:248,1,129.00000492096,8|0,0:0|0:0,0:0:0:0:
488,360,32150,6,0,B|516:324|516:324|492:240,1,129.00000492096
408,316,32422,2,0,L|388:380,2,64.5000024604798,0|8|0,0:0|0:0|0:0,0:0:0:0:
240,112,32786,1,0,0:0:0:0:
264,64,32877,1,0,0:0:0:0:
284,16,32968,1,0,0:0:0:0:
3,338,33150,1,0,0:0:0:0:
56,320,33241,1,8,0:0:0:0:
112,312,33331,1,0,0:0:0:0:
168,312,33422,1,0,0:0:0:0:
224,321,33513,1,0,0:0:0:0:
276,341,33604,2,0,P|348:349|420:345,1,129.00000492096
488,304,33877,5,0,0:0:0:0:
488,304,33968,2,0,L|504:240,1,64.5000024604798,8|0,0:0|0:0,0:0:0:0:
404,264,34150,2,0,L|420:200,1,64.5000024604798
284,16,34331,2,0,L|300:80,1,64.5000024604798
196,56,34513,2,0,L|212:120,1,64.5000024604798
116,312,34695,2,0,L|100:248,1,64.5000024604798,8|0,0:0|0:0,0:0:0:0:
32,356,34877,2,0,L|16:292,1,64.5000024604798
88,52,35059,5,6,0:0:0:0:
32,356,35240,1,0,0:0:0:0:
47,151,35422,1,8,0:0:0:0:
116,184,35513,1,0,0:0:0:0:
84,252,35604,1,0,0:0:0:0:
15,221,35695,1,0,0:0:0:0:
116,184,35786,6,0,L|192:196,1,64.5000024604798
244,288,35968,2,0,L|320:300,1,64.5000024604798,0|0,0:0|0:0,0:0:0:0:
400,232,36150,2,0,B|424:192|424:192|404:100,1,129.00000492096,8|0,0:0|0:0,0:0:0:0:
476,348,36513,5,2,0:0:0:0:
376,20,36695,1,0,0:0:0:0:
369,309,36877,1,8,0:0:0:0:
425,248,36967,1,0,0:0:0:0:
441,166,37058,1,0,0:0:0:0:
430,83,37149,1,0,0:0:0:0:
376,20,37240,2,0,P|376:56|356:88,1,64.5000024604798
220,204,37422,2,0,P|188:186|171:152,1,64.5000024604798
296,144,37604,2,0,P|318:199|272:278,1,129.00000492096,8|0,0:0|0:0,0:0:0:0:
112,352,37968,5,2,0:0:0:0:
36,44,38150,1,0,0:0:0:0:
44,188,38331,1,8,0:0:0:0:
116,180,38422,1,0,0:0:0:0:
148,284,38513,1,0,0:0:0:0:
220,276,38604,1,0,0:0:0:0:
296,200,38695,2,0,L|288:124,1,64.5000024604798
464,368,38877,2,0,L|456:292,1,64.5000024604798
376,264,39059,2,0,B|356:300|356:300|384:404,1,129.00000492096,8|0,0:0|0:0,0:0:0:0:
468,124,39422,6,0,B|488:88|488:88|460:-16,1,129.00000492096,2|0,0:0|0:0,0:0:0:0:
471,233,39786,1,8,0:0:0:0:
388,200,39877,1,0,0:0:0:0:
468,124,39968,1,0,0:0:0:0:
385,91,40059,1,0,0:0:0:0:
296,156,40150,2,0,B|288:200|288:200|308:228,1,64.5000024604798
172,336,40331,2,0,B|180:292|180:292|160:264,1,64.5000024604798
72,28,40513,2,0,B|49:60|49:60|65:148,1,129.00000492096,8|0,0:0|0:0,0:0:0:0:
44,340,40877,5,2,0:0:0:0:
244,292,41059,1,0,0:0:0:0:
44,340,41240,2,0,B|36:316|36:316|48:264,1,64.5000024604798,8|0,0:0|0:0,0:0:0:0:
100,232,41422,1,0,0:0:0:0:
112,300,41513,1,0,0:0:0:0:
232,360,41604,1,0,0:0:0:0:
244,292,41695,1,0,0:0:0:0:
360,216,41786,1,0,0:0:0:0:
372,284,41877,1,0,0:0:0:0:
481,361,41968,1,8,0:0:0:0:
512,180,42150,1,0,0:0:0:0:
418,205,42331,5,2,0:0:0:0:
448,23,42513,1,0,0:0:0:0:
300,60,42695,1,8,0:0:0:0:
228,56,42786,1,0,0:0:0:0:
160,24,42877,2,0,B|144:44|144:44|152:92,1,64.5000024604798
60,172,43059,1,0,0:0:0:0:
132,168,43150,1,0,0:0:0:0:
200,136,43241,2,0,B|216:156|216:156|208:204,1,64.5000024604798
168,256,43422,2,0,B|148:292|148:292|176:384,1,129.00000492096,8|0,0:0|0:0,0:0:0:0:
372,296,43786,6,0,L|388:364,1,64.5000024604798
352,228,43968,1,0,0:0:0:0:
336,160,44059,1,0,0:0:0:0:
320,84,44150,6,0,L|304:16,1,64.5000024604798,8|0,0:0|0:0,0:0:0:0:
340,152,44332,1,0,0:0:0:0:
356,220,44423,1,0,0:0:0:0:
380,280,44513,6,0,L|396:348,1,64.5000024604798
360,212,44695,1,0,0:0:0:0:
344,144,44786,1,0,0:0:0:0:
328,68,44877,6,0,L|312:0,1,64.5000024604798,8|0,0:0|0:0,0:0:0:0:
348,136,45059,1,0,0:0:0:0:
364,204,45150,1,0,0:0:0:0:
384,268,45240,6,0,L|400:336,1,64.5000024604798,8|0,0:0|0:0,0:0:0:0:
308,312,45422,2,0,L|324:380,1,64.5000024604798,8|0,0:0|0:0,0:0:0:0:
264,112,45604,6,0,L|280:44,1,64.5000024604798,8|0,0:0|0:0,0:0:0:0:
188,68,45786,2,0,L|204:0,1,64.5000024604798,8|0,0:0|0:0,0:0:0:0:
24,268,45968,6,0,L|8:336,1,64.5000024604798,8|0,0:0|0:0,0:0:0:0:
100,312,46150,2,0,L|84:380,1,64.5000024604798
124,202,46331,5,8,0:0:0:0:
184,152,46422,1,0,0:0:0:0:
257,179,46513,1,8,0:0:0:0:
330,206,46604,1,0,0:0:0:0:
403,234,46695,1,4,0:0:0:0:
256,192,46786,12,0,49604,0:0:0:0:
256,192,49695,12,0,52513,0:0:0:0:
256,192,52604,12,0,55422,0:0:0:0:
256,192,55513,12,0,57968,0:0:0:0:
52,300,58331,5,0,0:0:0:0:
222,340,58513,1,2,0:0:0:0:
172,172,58695,1,0,0:0:0:0:
52,300,58877,1,2,0:0:0:0:
148,271,59059,2,0,L|220:252,1,43
216,252,59240,1,2,0:0:0:0:
312,224,59422,2,0,B|328:252|328:252|320:308,1,86,0|2,0:0|0:0,0:0:0:0:
476,108,59786,6,0,B|460:80|460:80|468:24,1,86,0|2,0:0|0:0,0:0:0:0:
508,168,60150,1,0,0:0:0:0:
488,288,60331,1,2,0:0:0:0:
356,228,60513,1,0,0:0:0:0:
360,216,60604,1,0,0:0:0:0:
364,204,60695,1,2,0:0:0:0:
240,308,60877,1,0,0:0:0:0:
244,320,60968,1,0,0:0:0:0:
248,332,61059,1,2,0:0:0:0:
120,276,61240,5,0,0:0:0:0:
4,311,61422,1,2,0:0:0:0:
31,193,61604,1,0,0:0:0:0:
64,40,61786,1,2,0:0:0:0:
220,116,61968,2,0,L|168:124,1,43
232,104,62150,1,2,0:0:0:0:
356,48,62331,2,0,L|304:40,1,43
368,60,62513,1,2,0:0:0:0:
288,208,62695,6,0,P|320:164|312:120,1,86,0|2,0:0|0:0,0:0:0:0:
280,344,63059,2,0,P|248:300|256:256,1,86,0|2,0:0|0:0,0:0:0:0:
376,220,63422,1,0,0:0:0:0:
384,264,63513,1,0,0:0:0:0:
364,304,63604,1,2,0:0:0:0:
200,208,63786,1,0,0:0:0:0:
180,168,63877,1,0,0:0:0:0:
188,124,63968,1,2,0:0:0:0:
336,120,64150,5,0,0:0:0:0:
472,140,64331,1,2,0:0:0:0:
336,120,64513,1,0,0:0:0:0:
316,4,64695,1,2,0:0:0:0:
184,80,64877,2,0,L|128:72,1,43
200,72,65059,5,2,0:0:0:0:
220,212,65240,1,0,0:0:0:0:
52,260,65422,1,2,0:0:0:0:
204,296,65604,5,0,0:0:0:0:
212,308,65695,1,0,0:0:0:0:
220,320,65786,2,0,L|132:320,1,86,2|0,0:0|0:0,0:0:0:0:
280,356,66150,1,2,0:0:0:0:
412,312,66331,5,0,0:0:0:0:
420,300,66422,1,0,0:0:0:0:
428,288,66513,2,0,L|340:288,1,86,2|0,0:0|0:0,0:0:0:0:
488,252,66877,1,2,0:0:0:0:
456,28,67059,5,0,0:0:0:0:
456,28,67150,1,0,0:0:0:0:
456,28,67240,1,2,0:0:0:0:
392,156,67422,2,0,B|376:132|376:132|384:64,2,86,0|2|0,0:0|0:0|0:0,0:0:0:0:
404,164,67877,2,0,L|400:208,1,43,0|2,0:0|0:0,0:0:0:0:
312,284,68150,6,0,B|296:308|296:308|304:376,2,86,0|2|0,0:0|0:0|0:0,0:0:0:0:
328,280,68604,1,0,0:0:0:0:
344,276,68695,1,2,0:0:0:0:
172,288,68877,5,0,0:0:0:0:
180,308,68968,1,0,0:0:0:0:
188,328,69059,1,2,0:0:0:0:
248,80,69240,5,0,0:0:0:0:
260,44,69331,1,0,0:0:0:0:
272,8,69422,1,2,0:0:0:0:
4,160,69604,5,0,0:0:0:0:
72,172,69695,1,0,0:0:0:0:
140,184,69786,1,2,0:0:0:0:
444,156,69968,6,0,B|464:176|464:176|456:216,1,57.3333333333333,2|0,0:0|0:0,0:0:0:0:
404,204,70210,2,0,B|424:224|424:224|416:264,1,57.3333333333333
364,252,70453,2,0,B|384:272|384:272|376:312,1,57.3333333333333
300,280,70695,5,2,0:0:0:0:
241,237,70816,1,0,0:0:0:0:
249,165,70937,1,0,0:0:0:0:
308,208,71059,5,0,0:0:0:0:
241,237,71180,1,0,0:0:0:0:
174,266,71301,1,0,0:0:0:0:
116,216,71422,6,0,B|96:236|96:236|104:276,1,57.3333333333333,2|0,0:0|0:0,0:0:0:0:
76,168,71664,2,0,B|56:188|56:188|64:228,1,57.3333333333333
36,120,71907,2,0,B|16:140|16:140|24:180,1,57.3333333333333
120,92,72150,5,2,0:0:0:0:
136,20,72271,1,0,0:0:0:0:
256,92,72392,5,0,0:0:0:0:
272,164,72513,1,0,0:0:0:0:
396,104,72634,5,0,0:0:0:0:
412,32,72755,1,0,0:0:0:0:
452,292,72877,6,0,L|468:368,1,57.3333333333333,2|0,0:0|0:0,0:0:0:0:
452,224,73119,2,0,L|468:300,1,57.3333333333333
452,156,73362,2,0,L|468:232,1,57.3333333333333
372,160,73604,6,0,L|356:236,1,57.3333333333333,2|0,0:0|0:0,0:0:0:0:
372,92,73846,2,0,L|356:168,1,57.3333333333333
372,24,74089,2,0,L|356:100,1,57.3333333333333
288,156,74331,5,2,0:0:0:0:
260,240,74453,1,0,0:0:0:0:
328,296,74574,1,0,0:0:0:0:
252,228,74695,5,0,0:0:0:0:
280,144,74817,1,0,0:0:0:0:
232,68,74938,1,0,0:0:0:0:
140,96,75059,6,0,B|120:76|120:76|128:36,1,57.3333333333333,2|0,0:0|0:0,0:0:0:0:
100,144,75301,2,0,B|80:124|80:124|88:84,1,57.3333333333333
60,192,75544,2,0,B|40:172|40:172|48:132,1,57.3333333333333
132,232,75786,5,2,0:0:0:0:
148,304,75907,1,0,0:0:0:0:
93,356,76028,1,0,0:0:0:0:
132,232,76150,5,0,0:0:0:0:
220,326,76271,1,0,0:0:0:0:
93,356,76392,1,0,0:0:0:0:
148,304,76513,5,2,0:0:0:0:
220,326,76634,1,0,0:0:0:0:
292,348,76756,1,0,0:0:0:0:
448,328,76877,1,0,0:0:0:0:
296,276,76998,1,0,0:0:0:0:
452,256,77119,1,0,0:0:0:0:
368,324,77240,6,0,L|364:384,1,57.3333333333333,2|0,0:0|0:0,0:0:0:0:
380,256,77483,2,0,L|376:316,1,57.3333333333333
392,188,77725,2,0,L|388:248,1,57.3333333333333
296,68,77968,6,0,L|292:8,1,57.3333333333333,2|0,0:0|0:0,0:0:0:0:
308,136,78211,2,0,L|304:76,1,57.3333333333333
320,204,78453,2,0,L|316:144,1,57.3333333333333
268,280,78695,5,2,0:0:0:0:
160,296,78816,1,0,0:0:0:0:
116,232,78937,1,0,0:0:0:0:
152,304,79059,5,0,0:0:0:0:
44,288,79180,1,0,0:0:0:0:
0,352,79301,1,0,0:0:0:0:
20,184,79422,5,2,0:0:0:0:
44,288,79543,1,0,0:0:0:0:
8,176,79665,1,0,0:0:0:0:
116,112,79786,5,0,0:0:0:0:
92,8,79907,1,0,0:0:0:0:
128,120,80029,1,0,0:0:0:0:
252,68,80150,2,0,B|240:24|240:24|248:8,1,57.3333333333333,2|0,0:0|0:0,0:0:0:0:
328,88,80392,2,0,B|316:44|316:44|324:28,1,57.3333333333333,0|0,0:0|0:0,0:0:0:0:
404,108,80634,2,0,B|392:64|392:64|400:48,1,57.3333333333333
348,328,80877,6,0,B|336:372|336:372|344:388,1,57.3333333333333,2|2,0:0|0:0,0:0:0:0:
424,308,81119,2,0,B|412:352|412:352|420:368,1,57.3333333333333,2|2,0:0|0:0,0:0:0:0:
500,288,81361,2,0,B|488:332|488:332|496:348,1,57.3333333333333,2|2,0:0|0:0,0:0:0:0:
415,194,81604,5,4,0:0:0:0:
346,183,81695,1,0,0:0:0:0:
278,194,81786,1,0,0:0:0:0:
223,236,81877,1,0,0:0:0:0:
287,202,81968,5,2,0:0:0:0:
233,157,82059,1,0,0:0:0:0:
169,131,82150,1,0,0:0:0:0:
100,136,82241,1,0,0:0:0:0:
39,166,82331,6,0,L|29:217,1,43
32,333,82513,2,0,L|40:290,1,43,0|0,0:0|0:0,0:0:0:0:
108,201,82695,2,0,L|98:252,1,43,2|0,0:0|0:0,0:0:0:0:
101,368,82877,2,0,L|109:325,1,43,0|0,0:0|0:0,0:0:0:0:
179,238,83059,5,0,0:0:0:0:
216,180,83150,1,0,0:0:0:0:
228,113,83240,1,0,0:0:0:0:
221,44,83331,1,0,0:0:0:0:
220,108,83422,5,2,0:0:0:0:
253,166,83513,1,0,0:0:0:0:
265,233,83603,1,0,0:0:0:0:
258,302,83694,1,0,0:0:0:0:
233,367,83786,6,0,L|187:379,1,43
347,362,83968,2,0,L|301:374,1,43
371,246,84150,2,0,L|383:200,1,43,2|0,0:0|0:0,0:0:0:0:
439,306,84332,2,0,L|451:260,1,43
464,96,84513,5,4,0:0:0:0:
395,108,84604,1,0,0:0:0:0:
326,98,84695,1,0,0:0:0:0:
264,69,84786,1,0,0:0:0:0:
326,110,84877,5,2,0:0:0:0:
264,79,84968,1,0,0:0:0:0:
196,66,85059,1,0,0:0:0:0:
128,73,85150,1,0,0:0:0:0:
65,100,85240,6,0,L|77:149,1,43
86,317,85422,2,0,L|75:275,1,43,0|0,0:0|0:0,0:0:0:0:
146,141,85604,2,0,L|158:190,1,43,2|0,0:0|0:0,0:0:0:0:
167,358,85786,2,0,L|156:316,1,43,0|0,0:0|0:0,0:0:0:0:
226,177,85968,5,0,0:0:0:0:
280,219,86059,1,0,0:0:0:0:
315,278,86150,1,0,0:0:0:0:
318,346,86240,1,0,0:0:0:0:
306,285,86331,5,2,0:0:0:0:
322,218,86422,1,0,0:0:0:0:
370,168,86513,1,0,0:0:0:0:
432,138,86604,1,0,0:0:0:0:
500,133,86695,6,0,L|519:184,1,43
424,24,86877,2,0,L|443:75,1,43,0|0,0:0|0:0,0:0:0:0:
296,8,87059,2,0,L|244:0,1,43,2|0,0:0|0:0,0:0:0:0:
336,104,87240,2,0,L|284:96,1,43
192,136,87422,5,4,0:0:0:0:
124,121,87513,1,0,0:0:0:0:
64,86,87604,1,0,0:0:0:0:
31,25,87695,1,0,0:0:0:0:
72,76,87786,5,2,0:0:0:0:
113,131,87877,1,0,0:0:0:0:
123,199,87968,1,0,0:0:0:0:
113,267,88059,1,0,0:0:0:0:
75,325,88150,6,0,L|21:315,1,43
184,376,88331,2,0,L|226:383,1,43,0|0,0:0|0:0,0:0:0:0:
52,228,88513,2,0,L|-2:218,1,43,2|0,0:0|0:0,0:0:0:0:
231,286,88695,2,0,L|285:296,1,43,0|0,0:0|0:0,0:0:0:0:
336,187,88877,5,0,0:0:0:0:
344,252,88968,1,0,0:0:0:0:
400,212,89058,1,0,0:0:0:0:
392,147,89150,1,0,0:0:0:0:
436,99,89240,5,2,0:0:0:0:
444,35,89331,1,0,0:0:0:0:
500,74,89421,1,0,0:0:0:0:
492,139,89512,1,0,0:0:0:0:
484,207,89604,6,0,L|505:253,1,43
448,288,89786,2,0,L|469:334,1,43
280,124,89968,6,0,L|301:78,1,43,2|0,0:0|0:0,0:0:0:0:
244,43,90150,2,0,L|265:-3,1,43
56,304,90331,5,4,0:0:0:0:
115,339,90422,1,0,0:0:0:0:
183,342,90513,1,0,0:0:0:0:
249,323,90604,1,0,0:0:0:0:
188,355,90695,5,0,0:0:0:0:
241,312,90786,1,0,0:0:0:0:
264,247,90877,1,0,0:0:0:0:
251,179,90968,1,0,0:0:0:0:
275,243,91059,5,4,0:0:0:0:
316,297,91150,1,0,0:0:0:0:
379,324,91241,1,0,0:0:0:0:
447,332,91332,1,0,0:0:0:0:
379,337,91422,5,0,0:0:0:0:
327,291,91513,1,0,0:0:0:0:
304,225,91604,1,0,0:0:0:0:
313,156,91695,1,0,0:0:0:0:
353,100,91786,5,0,0:0:0:0:
353,100,91877,1,0,0:0:0:0:
353,100,91968,2,0,L|411:109,1,43
68,24,92150,5,0,0:0:0:0:
68,24,92241,1,0,0:0:0:0:
68,24,92332,2,0,L|10:33,1,43
200,112,92513,5,0,0:0:0:0:
200,112,92604,1,0,0:0:0:0:
200,112,92695,2,0,L|209:54,1,43
268,360,92877,5,0,0:0:0:0:
268,360,92968,1,0,0:0:0:0:
268,360,93059,2,0,L|259:302,1,43
244,220,93240,5,0,0:0:0:0:
504,380,93422,5,0,0:0:0:0:
456,312,93513,1,0,0:0:0:0:
480,232,93604,2,0,B|492:208|492:208|480:160,1,64.5000024604798,8|0,0:0|0:0,0:0:0:0:
384,180,93786,5,0,0:0:0:0:
408,108,93877,1,0,0:0:0:0:
400,40,93968,2,0,B|388:64|388:64|400:112,1,64.5000024604798
392,188,94150,5,0,0:0:0:0:
404,268,94240,1,0,0:0:0:0:
244,220,94331,5,8,0:0:0:0:
255,141,94421,1,0,0:0:0:0:
115,93,94513,5,0,0:0:0:0:
68,168,94604,1,0,0:0:0:0:
68,168,94695,2,0,B|63:238|63:238|81:312,1,129.00000492096
141,331,94968,1,0,0:0:0:0:
154,263,95059,2,0,L|139:188,1,64.5000024604798,8|0,0:0|0:0,0:0:0:0:
266,47,95331,2,0,B|290:84|290:84|277:184,1,129.00000492096
266,236,95604,1,0,0:0:0:0:
333,356,95695,2,0,L|321:288,1,64.5000024604798,0|8,0:0|0:0,0:0:0:0:
406,253,95877,2,0,L|349:213,1,64.5000024604798
353,216,96059,1,0,0:0:0:0:
376,138,96150,1,0,0:0:0:0:
190,362,96331,6,0,L|163:280,1,64.5000024604798
180,229,96513,1,8,0:0:0:0:
131,174,96604,1,0,0:0:0:0:
88,241,96695,2,0,B|84:278|84:278|91:318,1,64.5000024604798
15,212,96877,1,0,0:0:0:0:
31,136,96968,1,0,0:0:0:0:
102,168,97059,2,0,L|113:88,1,64.5000024604798
221,150,97240,1,8,0:0:0:0:
237,74,97331,1,0,0:0:0:0:
308,106,97422,2,0,L|319:26,1,64.5000024604798
391,28,97604,1,0,0:0:0:0:
391,28,97695,1,0,0:0:0:0:
391,28,97786,2,0,L|490:38,1,64.5000024604798
496,100,97968,1,8,0:0:0:0:
496,100,98059,1,0,0:0:0:0:
277,209,98240,6,0,B|352:204|352:204|396:177|396:177|489:171,1,193.50000738144
462,172,98695,1,8,0:0:0:0:
487,346,98877,1,0,0:0:0:0:
487,346,98968,1,0,0:0:0:0:
487,346,99059,2,0,L|358:334,1,129.00000492096,4|0,0:0|0:0,0:0:0:0:
87,360,99422,5,8,0:0:0:0:
39,292,99513,1,0,0:0:0:0:
63,212,99604,2,0,B|75:188|75:188|63:140,1,64.5000024604798
158,168,99786,5,0,0:0:0:0:
182,96,99877,1,0,0:0:0:0:
174,28,99968,2,0,B|162:52|162:52|174:100,1,64.5000024604798
273,170,100150,5,8,0:0:0:0:
285,250,100240,1,0,0:0:0:0:
377,150,100331,5,0,0:0:0:0:
388,71,100421,1,0,0:0:0:0:
458,124,100513,5,0,0:0:0:0:
21,59,100695,1,0,0:0:0:0:
26,79,100786,1,0,0:0:0:0:
32,98,100877,2,0,B|103:90|103:90|180:97,1,129.00000492096,8|0,0:0|0:0,0:0:0:0:
189,253,101240,1,0,0:0:0:0:
243,193,101331,1,0,0:0:0:0:
313,232,101422,1,0,0:0:0:0:
308,312,101513,1,0,0:0:0:0:
229,328,101604,2,0,P|164:337|114:303,1,129.00000492096,8|0,0:0|0:0,0:0:0:0:
132,42,101968,6,0,P|116:108|133:176,1,129.00000492096
477,101,102331,1,8,0:0:0:0:
489,180,102422,1,0,0:0:0:0:
399,313,102513,1,0,0:0:0:0:
411,234,102604,1,0,0:0:0:0:
363,61,102695,1,0,0:0:0:0:
375,140,102786,1,0,0:0:0:0:
285,273,102877,1,0,0:0:0:0:
297,194,102968,1,0,0:0:0:0:
238,144,103059,1,8,0:0:0:0:
158,156,103150,1,0,0:0:0:0:
79,170,103240,1,0,0:0:0:0:
46,244,103331,1,0,0:0:0:0:
114,286,103422,6,0,B|124:254|124:254|108:210,1,64.5000024604798
104,33,103604,2,0,B|94:65|94:65|110:109,1,64.5000024604798,0|0,0:0|0:0,0:0:0:0:
217,203,103786,1,8,0:0:0:0:
295,222,103877,1,0,0:0:0:0:
373,242,103968,1,0,0:0:0:0:
435,293,104059,1,0,0:0:0:0:
492,236,104150,6,0,B|496:206|496:206|488:156,1,64.5000024604798
402,34,104331,2,0,B|398:64|398:64|406:114,1,64.5000024604798,0|0,0:0|0:0,0:0:0:0:
346,158,104513,1,8,0:0:0:0:
270,134,104604,1,0,0:0:0:0:
206,84,104695,1,0,0:0:0:0:
131,67,104786,1,0,0:0:0:0:
57,105,104877,2,0,P|46:176|66:258,1,129.00000492096,4|0,0:0|0:0,0:0:0:0:
482,353,105240,5,8,0:0:0:0:
491,276,105331,1,0,0:0:0:0:
405,171,105422,1,0,0:0:0:0:
414,248,105513,1,0,0:0:0:0:
344,289,105604,2,0,L|257:278,1,64.5000024604798
214,329,105786,2,0,L|127:340,1,64.5000024604798
69,349,105968,1,8,0:0:0:0:
87,270,106059,1,0,0:0:0:0:
12,238,106150,1,0,0:0:0:0:
32,160,106240,1,0,0:0:0:0:
17,80,106331,6,0,L|100:85,1,64.5000024604798
219,110,106513,2,0,L|155:117,1,64.5000024604798
292,146,106695,2,0,L|356:149,1,64.5000024604798,8|0,0:0|0:0,0:0:0:0:
494,176,106877,2,0,L|430:183,1,64.5000024604798
376,238,107059,1,0,0:0:0:0:
388,317,107150,2,0,B|418:327|418:327|419:327|470:313,2,64.5000024604798
309,297,107422,1,8,0:0:0:0:
238,335,107513,1,0,0:0:0:0:
160,312,107604,1,0,0:0:0:0:
133,235,107695,1,0,0:0:0:0:
172,164,107786,6,0,B|190:107|190:107|166:25,1,129.00000492096
26,347,108150,5,8,0:0:0:0:
104,362,108240,1,0,0:0:0:0:
239,298,108331,1,0,0:0:0:0:
161,313,108421,1,0,0:0:0:0:
41,227,108513,2,0,L|32:153,1,64.5000024604798
109,154,108695,1,0,0:0:0:0:
118,90,108785,1,0,0:0:0:0:
195,119,108877,2,0,L|223:52,1,64.5000024604798,8|0,0:0|0:0,0:0:0:0:
281,111,109059,1,0,0:0:0:0:
332,65,109149,1,0,0:0:0:0:
382,18,109240,5,0,0:0:0:0:
441,82,109331,2,0,L|517:77,2,64.5000024604798
383,140,109604,1,8,0:0:0:0:
324,204,109695,2,0,L|248:199,2,64.5000024604798
384,271,109968,1,0,0:0:0:0:
443,335,110059,2,0,L|519:330,2,64.5000024604798
370,350,110331,1,8,0:0:0:0:
384,271,110422,1,0,0:0:0:0:
420,126,110513,1,0,0:0:0:0:
434,205,110604,1,0,0:0:0:0:
505,265,110695,6,0,P|444:288|365:253,1,129.00000492096
12,127,111059,2,0,P|42:105|79:91,1,64.5000024604798
136,133,111240,1,0,0:0:0:0:
207,26,111331,2,0,P|204:61|204:103,1,64.5000024604798
276,119,111513,1,0,0:0:0:0:
335,62,111604,2,0,P|367:59|421:48,1,64.5000024604798
481,39,111786,1,8,0:0:0:0:
483,54,111877,1,0,0:0:0:0:
485,69,111968,1,0,0:0:0:0:
487,84,112059,1,0,0:0:0:0:
512,161,112150,6,0,B|480:156|480:156|438:161,1,64.5000024604798
326,203,112331,2,0,B|358:208|358:208|400:203,1,64.5000024604798,0|0,0:0|0:0,0:0:0:0:
377,72,112513,2,0,L|386:158,1,64.5000024604798,8|0,0:0|0:0,0:0:0:0:
461,296,112695,2,0,L|452:210,1,64.5000024604798
384,274,112877,5,0,0:0:0:0:
319,322,112968,1,0,0:0:0:0:
238,322,113059,1,0,0:0:0:0:
168,280,113150,1,0,0:0:0:0:
137,206,113240,2,0,L|151:129,1,64.5000024604798,8|0,0:0|0:0,0:0:0:0:
258,33,113422,2,0,L|244:110,1,64.5000024604798
272,165,113604,5,0,0:0:0:0:
352,159,113695,1,0,0:0:0:0:
273,176,113786,1,0,0:0:0:0:
353,170,113877,1,0,0:0:0:0:
494,227,113968,5,8,0:0:0:0:
414,221,114059,1,0,0:0:0:0:
493,238,114150,1,0,0:0:0:0:
413,232,114241,1,0,0:0:0:0:
257,267,114331,5,0,0:0:0:0:
337,261,114422,1,0,0:0:0:0:
258,278,114513,1,0,0:0:0:0:
338,272,114604,1,0,0:0:0:0:
479,329,114695,5,8,0:0:0:0:
399,323,114786,1,0,0:0:0:0:
478,340,114877,1,0,0:0:0:0:
398,334,114968,1,0,0:0:0:0:
303,356,115059,5,0,0:0:0:0:
224,371,115150,2,0,B|228:335|228:335|220:293,1,64.5000024604798,0|8,0:0|0:0,0:0:0:0:
58,331,115331,1,0,0:0:0:0:
22,271,115422,2,0,L|28:184,1,64.5000024604798
122,140,115604,1,8,0:0:0:0:
124,62,115695,1,0,0:0:0:0:
262,27,115786,2,0,L|341:33,1,64.5000024604798
446,89,115968,1,8,0:0:0:0:
391,140,116059,2,0,B|384:175|384:175|388:208,1,64.5000024604798
447,260,116240,1,0,0:0:0:0:
512,149,116331,1,8,0:0:0:0:
392,140,116422,1,0,0:0:0:0:
448,192,116513,5,4,0:0:0:0:
256,192,116604,12,4,119422,0:0:0:0:
