osu file format v14

[General]
AudioFilename: 0113.mp3
AudioLeadIn: 2000
PreviewTime: 62996
Countdown: 0
SampleSet: Normal
StackLeniency: 0.7
Mode: 0
LetterboxInBreaks: 1
WidescreenStoryboard: 0

[Editor]
Bookmarks: 25282,71567
DistanceSpacing: 1.2
BeatDivisor: 4
GridSize: 8
TimelineZoom: 1

[Metadata]
Title:Ryoushi no Umi no Lindwurm
TitleUnicode:量子の海のリントヴルム
Artist:Kuroneko Dungeon
ArtistUnicode:黒猫ダンジョン
Creator:ignorethis
Version:MEDIUM
Source:jubeat copious
Tags:tomosuke zektbach yongtw123 reflec beat limelight pop'n music 21 sunny park epic prog progressive kiddly
BeatmapID:155425
BeatmapSetID:40123

[Difficulty]
HPDrainRate:6
CircleSize:4
OverallDifficulty:6
ApproachRate:7
SliderMultiplier:0.7
SliderTickRate:0.5

[Events]
//Background and Video events
0,0,"22016994_m.jpg",0,0
//Break Periods
//Storyboard Layer 0 (Background)
//Storyboard Layer 1 (Fail)
//Storyboard Layer 2 (Pass)
//Storyboard Layer 3 (Foreground)
//Storyboard Sound Samples

[TimingPoints]
425,214.285714285714,4,1,0,40,1,0
4925,-100,4,1,0,70,0,0
17139,-100,4,1,0,45,0,0
20246,-100,4,1,0,60,0,0
23996,-100,4,1,0,70,0,0
62889,-100,4,1,0,65,0,0
71675,-100,4,1,0,70,0,0
104782,-50,4,1,0,5,0,0

[Colours]
Combo1 : 128,0,255
Combo2 : 0,128,255

[HitObjects]
80,176,425,6,0,B|64:288,2,105
200,248,1496,2,0,B|184:136,1,105
320,176,2246,2,0,B|304:288,1,105
440,248,2996,2,0,B|424:136,1,105
304,72,3746,6,0,B|192:88,1,105
128,208,4496,2,0,B|248:192,1,105
264,208,4925,6,0,B|320:224|376:192,1,105
432,224,5460,1,0,0:0:0:0:
424,296,5675,2,0,B|320:328,1,105
256,304,6210,1,0,0:0:0:0:
188,326,6425,6,0,B|88:296,1,105
80,224,6960,1,0,0:0:0:0:
72,152,7175,2,0,B|96:64|200:32|280:104,1,245,0|4,0:0|0:0,0:0:0:0:
480,80,8567,1,0,0:0:0:0:
288,168,9210,1,0,0:0:0:0:
352,136,9425,6,0,B|376:248,1,105
440,264,9960,1,0,0:0:0:0:
408,328,10175,2,0,B|352:312|288:344,1,105
248,296,10710,1,0,0:0:0:0:
184,264,10925,6,0,B|136:288|80:272,1,105
40,216,11460,1,0,0:0:0:0:
71,151,11675,1,0,0:0:0:0:
56,80,11889,2,0,B|136:40|240:72,1,175,0|4,0:0|0:0,0:0:0:0:
440,56,13067,1,0,0:0:0:0:
248,144,13710,1,0,0:0:0:0:
176,128,13925,6,0,B|168:232,1,105,4|0,0:0|0:0,0:0:0:0:
104,264,14460,1,0,0:0:0:0:
112,336,14675,2,0,B|160:312|224:328,1,105
272,280,15210,1,0,0:0:0:0:
272,280,15425,6,0,B|328:296|384:264,1,105,4|0,0:0|0:0,0:0:0:0:
440,240,15960,1,0,0:0:0:0:
440,240,16175,2,0,B|432:128,1,105
400,72,16710,2,0,B|352:64,2,35,0|0|4,0:0|0:0|0:0,0:0:0:0:
272,128,17353,5,0,0:0:0:0:
336,256,17782,1,0,0:0:0:0:
208,320,18210,1,0,0:0:0:0:
144,192,18639,1,0,0:0:0:0:
208,64,19067,1,0,0:0:0:0:
336,120,19496,1,0,0:0:0:0:
272,248,19925,1,0,0:0:0:0:
272,248,20139,5,0,0:0:0:0:
304,312,20353,2,0,B|384:304,1,70,4|0,0:0|0:0,0:0:0:0:
400,240,20782,2,0,B|480:216,1,70
440,152,21210,6,0,B|456:64,1,70,4|0,0:0|0:0,0:0:0:0:
384,56,21639,2,0,B|368:136,1,70
304,152,22067,6,0,B|224:120,1,70,4|0,0:0|0:0,0:0:0:0:
184,176,22496,2,0,B|104:184,1,70
120,256,22925,6,0,B|56:304,1,70,4|0,0:0|0:0,0:0:0:0:
32,232,23353,2,0,B|24:184|24:184|40:144|40:144|32:80,1,140,0|4,0:0|0:0,0:0:0:0:
136,64,24103,6,0,B|248:56,1,105
176,136,24746,2,0,B|288:128,1,105
216,208,25389,5,0,0:0:0:0:
184,304,25710,1,0,0:0:0:0:
288,296,26032,1,0,0:0:0:0:
328,200,26353,1,0,0:0:0:0:
392,288,26675,6,0,B|432:296,3,35
440,192,27317,2,0,B|424:144,3,35
352,88,27960,2,0,B|304:80,3,35
232,144,28603,2,0,B|248:192,2,35
216,112,28925,6,0,B|104:112,1,105
40,112,29460,1,4,0:0:0:0:
56,216,29782,2,0,B|104:200|104:200|176:232|176:232|240:216,1,175,0|4,0:0|0:0,0:0:0:0:
256,320,30639,6,0,B|376:320,1,105
432,320,31175,1,4,0:0:0:0:
448,216,31496,2,0,B|400:200|400:200|328:232|328:232|264:216,1,175,0|4,0:0|0:0,0:0:0:0:
240,216,32139,2,0,B|184:216,2,35
232,128,32675,6,0,B|288:136|336:112,1,105
472,136,33425,2,0,B|464:64,2,70
464,168,33960,6,0,B|448:216|456:272,1,105
376,344,34603,1,0,0:0:0:0:
320,256,34925,1,0,0:0:0:0:
240,328,35246,1,0,0:0:0:0:
184,240,35567,2,0,B|112:224|40:256,1,140
24,280,36103,6,0,B|32:176,1,105
96,88,36746,2,0,B|80:40,2,35
112,120,37067,2,0,B|160:128,1,35
216,136,37389,2,0,B|272:152|320:128,1,105
408,72,38032,2,0,B|400:184,1,105
424,208,38460,6,0,B|480:288|432:360|360:360|304:320,1,245,0|4,0:0|0:0,0:0:0:0:
304,224,39532,1,0,0:0:0:0:
216,280,39853,1,0,0:0:0:0:
120,240,40175,1,0,0:0:0:0:
32,296,40496,1,0,0:0:0:0:
120,240,40817,6,0,B|128:184,3,35
88,144,41353,1,0,0:0:0:0:
104,72,41567,1,0,0:0:0:0:
168,104,41782,2,0,B|256:104,1,70
272,88,42103,6,0,B|320:120|408:120|448:64,1,175,4|0,0:0|0:0,0:0:0:0:
480,176,42960,1,0,0:0:0:0:
424,264,43282,1,0,0:0:0:0:
336,208,43603,1,0,0:0:0:0:
280,296,43925,1,0,0:0:0:0:
192,240,44246,6,0,B|136:224,3,35
88,248,44782,1,0,0:0:0:0:
56,184,44996,1,0,0:0:0:0:
88,120,45210,2,0,B|208:120,1,105,0|4,0:0|0:0,0:0:0:0:
193,120,45853,5,0,0:0:0:0:
256,80,46067,2,0,B|328:104|400:72,1,140,4|0,0:0|0:0,0:0:0:0:
440,128,46710,1,0,0:0:0:0:
448,200,46925,2,0,B|488:192,2,35
432,232,47246,2,0,B|416:344,1,105
344,336,47782,6,0,B|272:312|200:344,1,140
136,328,48425,1,0,0:0:0:0:
144,256,48639,2,0,B|192:240,2,35
112,248,48960,2,0,B|120:136,1,105,4|0,0:0|0:0,0:0:0:0:
72,88,49496,6,0,B|128:48|128:48|208:72,1,140,4|0,0:0|0:0,0:0:0:0:
224,88,50032,2,0,B|304:80,1,70
320,104,50353,2,0,B|400:120,1,70
408,144,50675,2,0,B|472:168,2,70
408,248,51425,2,0,B|472:272,2,70
344,280,52067,6,0,B|264:256|192:304,1,140
152,336,52710,1,0,0:0:0:0:
88,304,52925,2,0,B|56:320,2,35
96,272,53246,2,0,B|80:160,1,105,4|0,0:0|0:0,0:0:0:0:
88,96,53782,5,0,0:0:0:0:
156,120,53996,1,0,0:0:0:0:
228,124,54210,1,0,0:0:0:0:
300,112,54425,1,0,0:0:0:0:
368,84,54639,2,0,B|376:32,2,35
384,120,54960,2,0,B|496:96,1,105,4|0,0:0|0:0,0:0:0:0:
488,176,55496,6,0,B|480:224,2,35
408,208,55925,2,0,B|400:256,1,35
328,240,56246,2,0,B|320:288,1,35
248,272,56567,2,0,B|240:312,1,35
168,304,56889,2,0,B|160:344,2,35
104,216,57425,6,0,B|16:216,2,70
176,216,58067,2,0,B|160:144|160:144|200:80,1,140
264,64,58710,6,0,B|328:104,1,70
352,80,59032,2,0,B|384:168,1,70,4|0,0:0|0:0,0:0:0:0:
408,144,59353,2,0,B|392:224,1,70
424,224,59675,2,0,B|376:296,1,70
408,312,59996,6,0,B|336:344,1,70
312,320,60317,2,0,B|224:336,1,70
224,304,60639,2,0,B|144:304,1,70
144,272,60960,2,0,B|56:256,1,70
64,224,61282,1,4,0:0:0:0:
384,80,62460,6,0,B|432:64,3,35
456,128,62996,6,0,B|440:192|456:272,1,140
448,304,63532,2,0,B|368:328,1,70
280,296,64067,2,0,B|216:360,2,70
288,264,64603,2,0,B|280:184,1,70
264,168,64925,6,0,B|272:120,2,35,0|0|4,0:0|0:0|0:0,0:0:0:0:
128,208,65567,2,0,B|136:256,2,35
96,192,65889,2,0,B|104:80,1,105,0|4,0:0|0:0,0:0:0:0:
240,64,66639,6,0,B|248:104,1,35
288,160,66960,2,0,B|280:208,2,35
312,136,67282,2,0,B|416:128,1,105
448,112,67710,6,0,B|432:168|448:216,1,105
408,320,68353,2,0,B|344:352|264:336,2,140
424,288,69317,6,0,B|416:240,1,35,0|4,0:0|0:0,0:0:0:0:
328,144,69853,2,0,B|336:184,1,35
272,208,70175,2,0,B|216:192|160:216,1,105,0|4,0:0|0:0,0:0:0:0:
72,320,70925,6,0,B|88:256|40:168|72:96,1,210,0|4,0:0|0:0,0:0:0:0:
128,72,71782,5,0,0:0:0:0:
200,64,71996,1,0,0:0:0:0:
272,72,72210,1,0,0:0:0:0:
336,104,72425,2,0,B|400:120|448:88,2,105
288,168,73282,5,0,0:0:0:0:
216,160,73496,1,0,0:0:0:0:
168,216,73710,1,0,0:0:0:0:
96,208,73925,1,0,0:0:0:0:
32,176,74139,2,0,B|-8:224|8:320|56:344,1,175,0|4,0:0|0:0,0:0:0:0:
152,336,74996,6,0,B|200:320|200:320|256:328,1,105,4|0,0:0|0:0,0:0:0:0:
312,288,75532,1,0,0:0:0:0:
384,288,75746,1,0,0:0:0:0:
384,288,75853,6,0,B|408:240|408:240|400:184,1,105
424,120,76389,1,0,0:0:0:0:
368,72,76603,1,0,0:0:0:0:
368,72,76710,6,0,B|288:80,1,70
312,152,77139,2,0,B|232:160,1,70
248,232,77567,5,0,0:0:0:0:
176,240,77782,1,0,0:0:0:0:
104,248,77996,2,0,B|96:288,2,35
72,184,78425,1,4,0:0:0:0:
40,120,78639,6,0,B|48:72,2,35
72,184,79067,1,0,0:0:0:0:
136,144,79282,2,0,B|184:128,1,35
200,144,79496,2,0,B|240:112,1,35
264,128,79710,2,0,B|280:80,2,35
280,200,80139,5,4,0:0:0:0:
344,168,80353,1,0,0:0:0:0:
408,136,80567,1,0,0:0:0:0:
472,104,80782,1,0,0:0:0:0:
472,176,80996,6,0,B|464:216,1,35
472,248,81210,2,0,B|464:288,2,35
440,264,81532,2,0,B|384:264|344:312,1,105,4|4,0:0|0:0,0:0:0:0:
320,328,81960,6,0,B|240:320,1,70
192,280,82389,1,0,0:0:0:0:
128,312,82603,1,0,0:0:0:0:
128,312,82710,6,0,B|48:304,1,70
32,280,83032,2,0,B|32:240|24:200,1,70
56,144,83460,1,0,0:0:0:0:
56,144,83567,5,0,0:0:0:0:
120,112,83782,1,0,0:0:0:0:
192,104,83996,1,0,0:0:0:0:
264,112,84210,1,0,0:0:0:0:
328,144,84425,6,0,B|336:192,1,35
368,192,84639,2,0,B|360:240,1,35,0|4,0:0|0:0,0:0:0:0:
392,248,84853,2,0,B|376:296,2,35
456,208,85282,6,0,B|448:152|464:96,2,105,4|0|4,0:0|0:0|0:0,0:0:0:0:
400,336,86353,1,0,0:0:0:0:
335,303,86567,1,0,0:0:0:0:
264,320,86782,1,0,0:0:0:0:
200,288,86996,6,0,B|128:296,1,70
104,320,87317,2,0,B|56:256,1,70
32,256,87639,2,0,B|48:168,1,70
32,152,87960,2,0,B|152:152,1,105,4|0,0:0|0:0,0:0:0:0:
192,104,88496,6,0,B|184:64,2,35,0|0|4,0:0|0:0|0:0,0:0:0:0:
264,184,89032,1,0,0:0:0:0:
312,88,89353,2,0,B|384:72|464:88,1,140,4|0,0:0|0:0,0:0:0:0:
480,152,89996,1,0,0:0:0:0:
464,224,90210,1,0,0:0:0:0:
448,296,90425,6,0,B|368:296,1,70
352,320,90746,2,0,B|296:272,1,70
264,288,91067,2,0,B|240:208,1,70
208,216,91389,2,0,B|216:96,1,105,4|0,0:0|0:0,0:0:0:0:
184,88,91817,6,0,B|176:48,3,35,0|0|0|4,0:0|0:0|0:0|0:0,0:0:0:0:
48,224,92782,6,0,B|48:320|48:320|112:352,1,140,4|0,0:0|0:0,0:0:0:0:
156,324,93425,2,0,B|228:300|228:300|300:332,1,140
356,308,94067,2,0,B|428:292|428:292|452:220,1,140
436,156,94710,2,0,B|428:108,1,35
364,92,95032,2,0,B|372:44,2,35
336,120,95353,6,0,B|280:152|280:152|192:120,1,140,4|0,0:0|0:0,0:0:0:0:
168,64,95996,2,0,B|96:64|96:64|40:112,1,140
88,168,96639,2,0,B|96:248|96:248|56:304,1,140
112,348,97282,2,0,B|152:340,1,35
208,304,97603,2,0,B|264:312,2,35
192,272,97925,5,4,0:0:0:0:
232,176,98246,1,0,0:0:0:0:
320,224,98567,1,0,0:0:0:0:
312,120,98889,1,0,0:0:0:0:
416,152,99210,1,0,0:0:0:0:
368,56,99532,1,0,0:0:0:0:
416,152,99853,6,0,B|424:200,1,35
440,256,100175,2,0,B|432:296,2,35
424,224,100496,5,4,0:0:0:0:
344,296,100817,1,0,0:0:0:0:
288,208,101139,1,4,0:0:0:0:
256,312,101460,1,0,0:0:0:0:
176,240,101782,1,4,0:0:0:0:
184,344,102103,1,0,0:0:0:0:
80,320,102425,6,0,B|40:344,2,35
56,288,102746,2,0,B|8:296,2,35
56,248,103067,6,4,B|96:168|72:72,3,175
256,192,104782,12,0,106925,0:0:0:0:
