osu file format v14

[General]
AudioFilename: 0113.mp3
AudioLeadIn: 2000
PreviewTime: 62996
Countdown: 0
SampleSet: Normal
StackLeniency: 0.7
Mode: 0
LetterboxInBreaks: 1
WidescreenStoryboard: 0

[Editor]
Bookmarks: 4925,25282,71567
DistanceSpacing: 1
BeatDivisor: 4
GridSize: 16
TimelineZoom: 1

[Metadata]
Title:Ryoushi no Umi no Lindwurm
TitleUnicode:量子の海のリントヴルム
Artist:Kuroneko Dungeon
ArtistUnicode:黒猫ダンジョン
Creator:ignorethis
Version:BASIC
Source:jubeat copious
Tags:tomosuke zektbach yongtw123 reflec beat limelight pop'n music 21 sunny park epic prog progressive kiddly
BeatmapID:151194
BeatmapSetID:40123

[Difficulty]
HPDrainRate:4
CircleSize:3
OverallDifficulty:4
ApproachRate:5
SliderMultiplier:0.5
SliderTickRate:1

[Events]
//Background and Video events
0,0,"22016994_m.jpg",0,0
//Break Periods
2,49696,50867
2,55696,56867
2,63196,70367
//Storyboard Layer 0 (Background)
//Storyboard Layer 1 (Fail)
//Storyboard Layer 2 (Pass)
//Storyboard Layer 3 (Foreground)
//Storyboard Sound Samples

[TimingPoints]
425,214.285714285714,7,1,0,30,1,0
4925,-100,4,1,0,60,0,0
16978,-100,4,1,0,60,0,0
17139,-100,4,1,0,35,0,0
20246,-100,4,1,0,50,0,0
23996,-100,4,1,0,60,0,0
62889,-100,4,1,0,55,0,0
71675,-100,4,1,0,60,0,0
104782,-50,4,1,0,5,0,0

[Colours]
Combo1 : 128,0,255
Combo2 : 0,128,255

[HitObjects]
104,340,4925,6,0,B|16:283|54:180,2,175
201,362,6960,2,0,B|278:362|359:352|420:312,1,225,0|4,0:0|0:0,0:0:0:0:
256,192,8032,12,0,9425,0:0:0:0:
353,41,10175,6,0,B|442:100|438:216,1,200
381,293,11460,2,0,B|266:366|156:279,1,225,0|4,0:0|0:0,0:0:0:0:
256,192,12532,12,4,13925,0:0:0:0:
55,86,14674,5,0,0:0:0:0:
55,86,14996,1,0,0:0:0:0:
140,33,15425,2,0,B|185:82|193:143|126:190,1,175,4|0,0:0|0:0,0:0:0:0:
133,184,16496,1,0,0:0:0:0:
61,254,16925,5,4,0:0:0:0:
138,316,17353,1,0,0:0:0:0:
218,256,17782,1,0,0:0:0:0:
298,314,18210,1,0,0:0:0:0:
382,259,18639,6,0,B|431:243|452:184,1,100
400,103,19496,2,0,B|351:119|330:178,1,100,0|0,0:0|0:0,0:0:0:0:
239,209,20353,5,4,0:0:0:0:
140,202,20782,1,0,0:0:0:0:
65,135,21210,1,0,0:0:0:0:
45,36,21639,1,0,0:0:0:0:
65,135,22067,6,0,B|70:192|48:253,1,100
21,328,22925,2,0,B|63:351|141:350,1,100
217,348,23782,5,4,0:0:0:0:
366,363,24425,1,0,0:0:0:0:
479,265,25067,1,0,0:0:0:0:
393,141,25710,1,0,0:0:0:0:
245,115,26353,6,0,B|168:95|118:27,3,150
53,166,28925,5,0,0:0:0:0:
53,166,29460,1,4,0:0:0:0:
121,238,29889,2,0,B|104:304,2,50
196,236,30639,1,0,0:0:0:0:
196,236,31174,1,4,0:0:0:0:
264,164,31603,2,0,B|247:98,2,50
286,235,32353,6,0,B|386:230|481:314,2,200
211,335,34603,1,0,0:0:0:0:
157,282,34925,2,0,B|139:319|86:329,2,75
34,258,36103,1,0,0:0:0:0:
30,183,36424,1,0,0:0:0:0:
102,201,36746,1,0,0:0:0:0:
99,126,37067,1,0,0:0:0:0:
169,152,37389,1,0,0:0:0:0:
166,77,37710,2,0,B|195:46|236:46,1,75
307,46,38353,1,0,0:0:0:0:
327,91,38567,1,0,0:0:0:0:
348,136,38782,1,0,0:0:0:0:
369,180,38996,1,0,0:0:0:0:
388,226,39210,6,0,B|356:274|297:300,1,100,4|0,0:0|0:0,0:0:0:0:
245,364,40067,2,0,B|213:316|171:298,1,100,0|0,0:0|0:0,0:0:0:0:
89,249,40925,2,0,B|57:297|-2:323,1,100
110,346,41782,1,0,0:0:0:0:
177,314,42103,1,4,0:0:0:0:
251,302,42425,1,0,0:0:0:0:
298,318,42639,6,0,B|383:345|436:276,2,150
261,224,44353,2,0,B|176:197|123:266,2,150
359,239,46067,6,0,B|464:193|451:61,1,200,4|0,0:0|0:0,0:0:0:0:
257,124,47782,2,0,B|152:170|165:302,1,200
163,285,48960,1,0,0:0:0:0:
269,351,49496,1,4,0:0:0:0:
44,77,52067,6,0,B|139:21|249:89,1,200
234,80,53246,1,4,0:0:0:0:
236,205,53782,2,0,B|141:261|31:193,1,200
46,202,54961,1,0,0:0:0:0:
144,125,55496,1,4,0:0:0:0:
16,208,58067,6,0,L|32:128,1,75
44,60,58710,1,0,0:0:0:0:
118,48,59032,1,0,0:0:0:0:
192,54,59353,1,0,0:0:0:0:
254,96,59675,1,0,0:0:0:0:
275,167,59996,1,0,0:0:0:0:
256,239,60317,1,0,0:0:0:0:
204,293,60639,1,0,0:0:0:0:
130,309,60960,1,0,0:0:0:0:
56,293,61282,1,4,0:0:0:0:
56,293,62460,5,0,0:0:0:0:
56,293,62674,1,0,0:0:0:0:
42,359,62996,1,4,0:0:0:0:
60,66,71567,6,0,B|44:123|76:184,1,100
166,158,72425,2,0,B|177:213|150:276,1,100,0|0,0:0|0:0,0:0:0:0:
88,329,73282,2,0,B|165:360|249:320,2,150
29,247,74996,6,0,B|34:209|42:164,1,75,4|0,0:0|0:0,0:0:0:0:
163,151,75853,2,0,B|168:113|176:68,1,75,0|0,0:0|0:0,0:0:0:0:
293,40,76710,5,0,0:0:0:0:
385,78,77139,1,0,0:0:0:0:
457,146,77567,1,0,0:0:0:0:
486,241,77996,1,0,0:0:0:0:
471,339,78425,6,0,B|394:350|304:346,1,150,4|0,0:0|0:0,0:0:0:0:
222,329,79496,1,0,0:0:0:0:
165,248,79925,1,0,0:0:0:0:
142,203,80139,6,0,B|62:212|12:276,2,150,4|0|0,0:0|0:0|0:0,0:0:0:0:
239,180,81853,2,0,B|243:135|250:83,1,75,4|0,0:0|0:0,0:0:0:0:
352,172,82710,2,0,B|348:217|341:269,1,75
465,274,83567,2,0,B|492:198|448:110,2,150
400,350,85282,5,4,0:0:0:0:
303,325,85603,1,0,0:0:0:0:
202,322,85925,1,4,0:0:0:0:
61,115,86996,6,0,B|56:161|56:204,1,75
131,186,87639,2,0,B|120:237|116:273,1,75,0|4,0:0|0:0,0:0:0:0:
250,145,88710,6,0,B|243:105|190:79,2,75,0|0|4,0:0|0:0|0:0,0:0:0:0:
429,319,90425,2,0,B|419:282|402:233,1,75
332,242,91067,2,0,B|322:205|305:156,1,75,0|4,0:0|0:0,0:0:0:0:
451,66,92139,5,0,0:0:0:0:
451,66,92782,6,0,B|443:116|434:159,1,75,4|0,0:0|0:0,0:0:0:0:
364,125,93425,2,0,B|356:175|347:218,1,75,0|0,0:0|0:0,0:0:0:0:
278,178,94067,2,0,B|270:228|261:271,1,75
191,237,94710,2,0,B|183:287|174:330,1,75,0|0,0:0|0:0,0:0:0:0:
110,344,95353,6,0,B|59:268|113:203,2,150,4|0|0,0:0|0:0|0:0,0:0:0:0:
257,373,97282,1,0,0:0:0:0:
402,336,97925,6,0,B|410:292|420:249,1,75,4|0,0:0|0:0,0:0:0:0:
342,262,98567,2,0,B|350:218|360:175,1,75,0|0,0:0|0:0,0:0:0:0:
282,194,99210,2,0,B|290:150|300:107,1,75
222,116,99852,2,0,B|230:72|240:29,1,75,0|0,0:0|0:0,0:0:0:0:
161,43,100496,6,0,B|76:60|59:149,2,150,4|0|0,0:0|0:0|0:0,0:0:0:0:
254,160,102425,1,0,0:0:0:0:
416,43,103067,5,4,0:0:0:0:
306,102,103603,1,0,0:0:0:0:
234,204,104139,1,0,0:0:0:0:
188,320,104675,1,4,0:0:0:0:
256,192,104782,12,0,106710,0:0:0:0:
