osu file format v12

[General]
AudioFilename: [jubeat copious].mp3
AudioLeadIn: 0
PreviewTime: 64106
Countdown: 0
SampleSet: Soft
StackLeniency: 0.7
Mode: 3
LetterboxInBreaks: 0
SpecialStyle: 1
WidescreenStoryboard: 1

[Editor]
DistanceSpacing: 0.8
BeatDivisor: 4
GridSize: 8

[Metadata]
Title:Ryoushi no Umi no Lindwurm
TitleUnicode:量子の海のリントヴルム
Artist:Kuroneko Dungeon
ArtistUnicode:黒猫ダンジョン
Creator:ResucecaT
Version:7K Insane+
Source:Jubeat Copious
Tags:
BeatmapID:305333
BeatmapSetID:117435

[Difficulty]
HPDrainRate:8
CircleSize:7
OverallDifficulty:7
ApproachRate:5
SliderMultiplier:1.4
SliderTickRate:1

[Events]
//Background and Video events
0,0,"AEBEF877D8111805934B2E2D5797B2F45A6695B6457CC_800_800.jpg",0,0
//Break Periods
//Storyboard Layer 0 (Background)
//Storyboard Layer 1 (Fail)
//Storyboard Layer 2 (Pass)
//Storyboard Layer 3 (Foreground)
//Storyboard Sound Samples
//Background Colour Transformations
3,100,163,162,255

[TimingPoints]
1584,428.571428571429,4,2,0,40,1,0

[HitObjects]
36,192,1584,1,0,0:0:0:0:
109,192,1691,1,0,0:0:0:0:
256,192,1798,1,0,0:0:0:0:
182,192,1905,1,0,0:0:0:0:
256,192,2012,1,0,0:0:0:0:
402,192,2119,1,0,0:0:0:0:
329,192,2226,1,0,0:0:0:0:
109,192,2334,1,0,0:0:0:0:
182,192,2441,1,0,0:0:0:0:
329,192,2548,1,0,0:0:0:0:
256,192,2655,1,0,0:0:0:0:
109,192,2762,1,0,0:0:0:0:
329,192,2869,1,0,0:0:0:0:
402,192,2976,1,0,0:0:0:0:
109,192,3083,1,0,0:0:0:0:
182,192,3191,1,0,0:0:0:0:
329,192,3298,1,0,0:0:0:0:
475,192,3405,1,0,0:0:0:0:
402,192,3512,1,0,0:0:0:0:
182,192,3619,1,0,0:0:0:0:
256,192,3726,1,0,0:0:0:0:
109,192,3834,1,0,0:0:0:0:
182,192,3941,1,0,0:0:0:0:
329,192,4048,1,0,0:0:0:0:
256,192,4155,1,0,0:0:0:0:
36,192,4262,1,0,0:0:0:0:
182,192,4369,1,0,0:0:0:0:
329,192,4476,1,0,0:0:0:0:
109,192,4584,1,0,0:0:0:0:
256,192,4691,1,0,0:0:0:0:
402,192,4798,1,0,0:0:0:0:
182,192,4905,1,0,0:0:0:0:
329,192,5012,1,0,0:0:0:0:
402,192,5119,1,0,0:0:0:0:
475,192,5226,1,0,0:0:0:0:
36,192,5334,1,0,0:0:0:0:
182,192,5441,1,0,0:0:0:0:
329,192,5548,1,0,0:0:0:0:
109,192,5655,1,0,0:0:0:0:
256,192,5762,1,0,0:0:0:0:
329,192,5869,1,0,0:0:0:0:
402,192,5976,1,0,0:0:0:0:
36,192,6083,1,0,0:0:0:0:
182,192,6084,1,0,0:0:0:0:
256,192,6084,1,0,0:0:0:0:
475,192,6084,1,0,0:0:0:0:
109,192,6405,1,0,0:0:0:0:
329,192,6405,1,0,0:0:0:0:
36,192,6405,1,0,0:0:0:0:
182,192,6619,1,0,0:0:0:0:
402,192,6619,1,0,0:0:0:0:
256,192,6834,1,0,0:0:0:0:
475,192,6834,1,0,0:0:0:0:
36,192,7048,1,0,0:0:0:0:
182,192,7155,1,0,0:0:0:0:
402,192,7155,1,0,0:0:0:0:
182,192,7369,1,0,0:0:0:0:
402,192,7369,1,0,0:0:0:0:
109,192,7584,1,0,0:0:0:0:
329,192,7584,1,0,0:0:0:0:
182,192,7691,1,0,0:0:0:0:
402,192,7691,1,0,0:0:0:0:
36,192,7691,1,0,0:0:0:0:
329,192,7905,1,0,0:0:0:0:
256,192,7905,1,0,0:0:0:0:
182,192,8119,1,0,0:0:0:0:
475,192,8119,1,0,0:0:0:0:
402,192,8334,1,0,0:0:0:0:
36,192,8334,1,0,0:0:0:0:
256,192,8334,1,0,0:0:0:0:
182,192,8441,1,0,0:0:0:0:
329,192,8441,1,0,0:0:0:0:
109,192,8548,1,0,0:0:0:0:
256,192,8548,1,0,0:0:0:0:
475,192,8655,1,0,0:0:0:0:
182,192,8655,1,0,0:0:0:0:
402,192,8655,1,0,0:0:0:0:
109,192,8762,1,0,0:0:0:0:
329,192,8762,1,0,0:0:0:0:
36,192,8869,1,0,0:0:0:0:
256,192,8869,1,0,0:0:0:0:
402,192,8976,1,0,0:0:0:0:
256,192,9030,1,0,0:0:0:0:
36,192,9084,1,0,0:0:0:0:
182,192,9084,1,0,0:0:0:0:
475,192,9084,1,0,0:0:0:0:
329,192,9191,1,0,0:0:0:0:
402,192,9298,1,0,0:0:0:0:
36,192,9298,1,0,0:0:0:0:
109,192,9405,1,0,0:0:0:0:
256,192,9512,1,0,0:0:0:0:
402,192,9619,1,0,0:0:0:0:
475,192,9726,1,0,0:0:0:0:
36,192,9726,1,0,0:0:0:0:
109,192,9834,1,0,0:0:0:0:
256,192,9941,1,0,0:0:0:0:
329,192,10048,1,0,0:0:0:0:
475,192,10048,1,0,0:0:0:0:
36,192,10155,1,0,0:0:0:0:
182,192,10262,1,0,0:0:0:0:
329,192,10369,1,0,0:0:0:0:
402,192,10476,1,0,0:0:0:0:
256,192,10584,1,0,0:0:0:0:
182,192,10585,1,0,0:0:0:0:
109,192,10906,1,0,0:0:0:0:
329,192,10906,1,0,0:0:0:0:
36,192,10906,1,0,0:0:0:0:
182,192,11120,1,0,0:0:0:0:
402,192,11120,1,0,0:0:0:0:
256,192,11335,1,0,0:0:0:0:
475,192,11335,1,0,0:0:0:0:
36,192,11549,1,0,0:0:0:0:
182,192,11656,1,0,0:0:0:0:
402,192,11656,1,0,0:0:0:0:
402,192,11870,1,0,0:0:0:0:
182,192,11870,1,0,0:0:0:0:
109,192,12085,1,0,0:0:0:0:
329,192,12085,1,0,0:0:0:0:
36,192,12192,1,0,0:0:0:0:
402,192,12192,1,0,0:0:0:0:
182,192,12192,1,0,0:0:0:0:
256,192,12406,1,0,0:0:0:0:
329,192,12406,1,0,0:0:0:0:
182,192,12620,1,0,0:0:0:0:
475,192,12620,1,0,0:0:0:0:
256,192,12834,1,0,0:0:0:0:
329,192,12834,1,0,0:0:0:0:
36,192,12835,1,0,0:0:0:0:
182,192,12941,1,0,0:0:0:0:
402,192,12941,1,0,0:0:0:0:
109,192,13048,1,0,0:0:0:0:
329,192,13048,1,0,0:0:0:0:
182,192,13155,1,0,0:0:0:0:
402,192,13155,1,0,0:0:0:0:
475,192,13156,1,0,0:0:0:0:
109,192,13262,1,0,0:0:0:0:
329,192,13262,1,0,0:0:0:0:
256,192,13369,1,0,0:0:0:0:
36,192,13370,1,0,0:0:0:0:
402,192,13477,1,0,0:0:0:0:
256,192,13531,1,0,0:0:0:0:
475,192,13584,1,0,0:0:0:0:
36,192,13585,1,0,0:0:0:0:
182,192,13585,1,0,0:0:0:0:
329,192,13692,1,0,0:0:0:0:
36,192,13798,1,0,0:0:0:0:
402,192,13799,1,0,0:0:0:0:
109,192,13906,1,0,0:0:0:0:
256,192,14013,1,0,0:0:0:0:
402,192,14120,1,0,0:0:0:0:
36,192,14226,1,0,0:0:0:0:
475,192,14227,1,0,0:0:0:0:
109,192,14335,1,0,0:0:0:0:
256,192,14442,1,0,0:0:0:0:
36,192,14548,1,0,0:0:0:0:
329,192,14549,1,0,0:0:0:0:
182,192,14763,1,0,0:0:0:0:
36,192,14869,1,0,0:0:0:0:
256,192,14869,1,0,0:0:0:0:
475,192,14923,1,0,0:0:0:0:
36,192,14976,1,0,0:0:0:0:
329,192,14976,1,0,0:0:0:0:
475,192,15030,1,0,0:0:0:0:
256,192,15083,128,0,15726:0:0:0:0:
109,192,15084,1,0,0:0:0:0:
402,192,15084,1,0,0:0:0:0:
402,192,15405,1,0,0:0:0:0:
329,192,15405,1,0,0:0:0:0:
182,192,15619,1,0,0:0:0:0:
109,192,15619,1,0,0:0:0:0:
36,192,15833,1,0,0:0:0:0:
329,192,15833,1,0,0:0:0:0:
475,192,15941,1,0,0:0:0:0:
182,192,15941,1,0,0:0:0:0:
36,192,16155,128,0,16584:0:0:0:0:
182,192,16155,128,0,16584:0:0:0:0:
475,192,16369,1,0,0:0:0:0:
329,192,16423,1,0,0:0:0:0:
475,192,16476,1,0,0:0:0:0:
329,192,16530,1,0,0:0:0:0:
256,192,16584,128,0,17226:0:0:0:0:
109,192,16584,1,0,0:0:0:0:
329,192,16691,1,0,0:0:0:0:
475,192,16798,1,0,0:0:0:0:
402,192,16905,1,0,0:0:0:0:
109,192,17012,1,0,0:0:0:0:
329,192,17119,1,0,0:0:0:0:
182,192,17226,1,0,0:0:0:0:
36,192,17333,1,0,0:0:0:0:
475,192,17333,1,0,0:0:0:0:
182,192,17441,1,0,0:0:0:0:
329,192,17441,1,0,0:0:0:0:
36,192,17655,128,0,18083:0:0:0:0:
475,192,17655,128,0,18083:0:0:0:0:
182,192,17869,1,0,0:0:0:0:
329,192,17869,1,0,0:0:0:0:
182,192,17976,1,0,0:0:0:0:
329,192,17976,1,0,0:0:0:0:
109,192,18083,1,0,0:0:0:0:
256,192,18083,1,0,0:0:0:0:
402,192,18083,1,0,0:0:0:0:
182,192,18191,1,0,0:0:0:0:
329,192,18298,1,0,0:0:0:0:
402,192,18405,1,0,0:0:0:0:
475,192,18512,1,0,0:0:0:0:
36,192,18512,1,0,0:0:0:0:
402,192,18619,1,0,0:0:0:0:
256,192,18726,1,0,0:0:0:0:
182,192,18833,1,0,0:0:0:0:
109,192,18941,1,0,0:0:0:0:
402,192,18941,1,0,0:0:0:0:
256,192,19048,1,0,0:0:0:0:
329,192,19155,1,0,0:0:0:0:
402,192,19262,1,0,0:0:0:0:
329,192,19369,1,0,0:0:0:0:
36,192,19369,1,0,0:0:0:0:
182,192,19476,1,0,0:0:0:0:
109,192,19584,1,0,0:0:0:0:
36,192,19691,1,0,0:0:0:0:
182,192,19798,1,0,0:0:0:0:
329,192,19798,1,0,0:0:0:0:
402,192,19905,1,0,0:0:0:0:
256,192,20012,1,0,0:0:0:0:
36,192,20119,1,0,0:0:0:0:
475,192,20226,1,0,0:0:0:0:
109,192,20226,1,0,0:0:0:0:
329,192,20333,1,0,0:0:0:0:
182,192,20441,1,0,0:0:0:0:
36,192,20548,1,0,0:0:0:0:
256,192,20655,1,0,0:0:0:0:
475,192,20655,1,0,0:0:0:0:
402,192,20762,1,0,0:0:0:0:
256,192,20869,1,0,0:0:0:0:
109,192,20976,1,0,0:0:0:0:
36,192,21083,1,0,0:0:0:0:
329,192,21084,1,0,0:0:0:0:
402,192,21191,1,0,0:0:0:0:
256,192,21298,1,0,0:0:0:0:
109,192,21405,1,0,0:0:0:0:
36,192,21512,1,0,0:0:0:0:
329,192,21512,1,0,0:0:0:0:
475,192,21512,1,0,0:0:0:0:
109,192,21619,1,0,0:0:0:0:
256,192,21726,1,0,0:0:0:0:
329,192,21833,1,0,0:0:0:0:
475,192,21941,1,0,0:0:0:0:
36,192,21941,1,0,0:0:0:0:
182,192,21941,1,0,0:0:0:0:
402,192,22048,1,0,0:0:0:0:
256,192,22155,1,0,0:0:0:0:
182,192,22262,1,0,0:0:0:0:
475,192,22369,1,0,0:0:0:0:
36,192,22369,1,0,0:0:0:0:
329,192,22369,1,0,0:0:0:0:
256,192,22476,1,0,0:0:0:0:
182,192,22583,1,0,0:0:0:0:
402,192,22691,1,0,0:0:0:0:
36,192,22798,1,0,0:0:0:0:
182,192,22798,1,0,0:0:0:0:
329,192,22798,1,0,0:0:0:0:
256,192,22905,1,0,0:0:0:0:
402,192,23012,1,0,0:0:0:0:
256,192,23119,1,0,0:0:0:0:
109,192,23226,1,0,0:0:0:0:
475,192,23226,1,0,0:0:0:0:
329,192,23226,1,0,0:0:0:0:
402,192,23333,1,0,0:0:0:0:
329,192,23441,1,0,0:0:0:0:
256,192,23548,1,0,0:0:0:0:
475,192,23654,1,0,0:0:0:0:
36,192,23655,1,0,0:0:0:0:
182,192,23655,1,0,0:0:0:0:
329,192,23761,1,0,0:0:0:0:
182,192,23869,1,0,0:0:0:0:
36,192,23976,1,0,0:0:0:0:
475,192,24083,1,0,0:0:0:0:
329,192,24084,1,0,0:0:0:0:
109,192,24084,1,0,0:0:0:0:
256,192,24191,1,0,0:0:0:0:
182,192,24298,1,0,0:0:0:0:
109,192,24404,1,0,0:0:0:0:
36,192,24511,1,0,0:0:0:0:
329,192,24512,1,0,0:0:0:0:
475,192,24619,1,0,0:0:0:0:
182,192,24619,1,0,0:0:0:0:
402,192,24726,128,0,24941:0:0:0:0:
109,192,24726,128,0,24941:0:0:0:0:
36,192,24941,1,0,0:0:0:0:
475,192,24941,1,0,0:0:0:0:
329,192,25048,1,0,0:0:0:0:
182,192,25155,1,0,0:0:0:0:
109,192,25262,1,0,0:0:0:0:
256,192,25262,1,0,0:0:0:0:
109,192,25476,1,0,0:0:0:0:
256,192,25476,1,0,0:0:0:0:
182,192,25583,1,0,0:0:0:0:
475,192,25583,1,0,0:0:0:0:
329,192,25691,1,0,0:0:0:0:
109,192,25798,1,0,0:0:0:0:
256,192,25905,1,0,0:0:0:0:
402,192,25905,1,0,0:0:0:0:
329,192,26119,1,0,0:0:0:0:
182,192,26119,1,0,0:0:0:0:
109,192,26226,1,0,0:0:0:0:
475,192,26226,1,0,0:0:0:0:
256,192,26334,1,0,0:0:0:0:
36,192,26441,1,0,0:0:0:0:
182,192,26548,1,0,0:0:0:0:
402,192,26548,1,0,0:0:0:0:
182,192,26762,1,0,0:0:0:0:
402,192,26762,1,0,0:0:0:0:
256,192,26869,1,0,0:0:0:0:
475,192,26869,1,0,0:0:0:0:
182,192,26976,1,0,0:0:0:0:
109,192,27084,1,0,0:0:0:0:
329,192,27191,1,0,0:0:0:0:
402,192,27191,1,0,0:0:0:0:
402,192,27405,1,0,0:0:0:0:
329,192,27405,1,0,0:0:0:0:
36,192,27512,128,0,28155:0:0:0:0:
256,192,27512,1,0,0:0:0:0:
256,192,27833,128,0,28476:0:0:0:0:
182,192,27833,1,0,0:0:0:0:
329,192,27941,1,0,0:0:0:0:
182,192,28048,1,0,0:0:0:0:
109,192,28155,128,0,28798:0:0:0:0:
329,192,28155,1,0,0:0:0:0:
182,192,28262,1,0,0:0:0:0:
329,192,28369,1,0,0:0:0:0:
402,192,28476,128,0,29119:0:0:0:0:
182,192,28476,1,0,0:0:0:0:
329,192,28584,1,0,0:0:0:0:
182,192,28691,1,0,0:0:0:0:
256,192,28798,128,0,29441:0:0:0:0:
329,192,28798,1,0,0:0:0:0:
475,192,29119,128,0,29762:0:0:0:0:
182,192,29119,1,0,0:0:0:0:
329,192,29119,1,0,0:0:0:0:
329,192,29226,1,0,0:0:0:0:
182,192,29226,1,0,0:0:0:0:
182,192,29333,1,0,0:0:0:0:
329,192,29334,1,0,0:0:0:0:
36,192,29441,128,0,30083:0:0:0:0:
329,192,29441,1,0,0:0:0:0:
182,192,29441,1,0,0:0:0:0:
402,192,29762,128,0,30083:0:0:0:0:
329,192,30083,1,0,0:0:0:0:
182,192,30083,1,0,0:0:0:0:
109,192,30191,1,0,0:0:0:0:
256,192,30191,1,0,0:0:0:0:
329,192,30405,1,0,0:0:0:0:
182,192,30405,1,0,0:0:0:0:
109,192,30619,1,0,0:0:0:0:
256,192,30619,1,0,0:0:0:0:
475,192,30619,1,0,0:0:0:0:
36,192,30619,1,0,0:0:0:0:
402,192,30941,1,0,0:0:0:0:
109,192,30941,1,0,0:0:0:0:
36,192,31048,1,0,0:0:0:0:
256,192,31048,1,0,0:0:0:0:
182,192,31048,1,0,0:0:0:0:
329,192,31155,1,0,0:0:0:0:
475,192,31155,1,0,0:0:0:0:
36,192,31262,1,0,0:0:0:0:
256,192,31262,1,0,0:0:0:0:
182,192,31262,1,0,0:0:0:0:
329,192,31369,1,0,0:0:0:0:
475,192,31369,1,0,0:0:0:0:
36,192,31476,1,0,0:0:0:0:
182,192,31476,1,0,0:0:0:0:
256,192,31476,1,0,0:0:0:0:
402,192,31476,1,0,0:0:0:0:
329,192,31798,1,0,0:0:0:0:
109,192,31798,1,0,0:0:0:0:
402,192,31905,1,0,0:0:0:0:
182,192,31905,1,0,0:0:0:0:
109,192,32119,1,0,0:0:0:0:
329,192,32119,1,0,0:0:0:0:
182,192,32333,1,0,0:0:0:0:
402,192,32333,1,0,0:0:0:0:
36,192,32333,1,0,0:0:0:0:
475,192,32333,1,0,0:0:0:0:
109,192,32655,1,0,0:0:0:0:
402,192,32655,1,0,0:0:0:0:
36,192,32762,1,0,0:0:0:0:
475,192,32762,1,0,0:0:0:0:
256,192,32762,1,0,0:0:0:0:
182,192,32869,1,0,0:0:0:0:
329,192,32869,1,0,0:0:0:0:
36,192,32976,1,0,0:0:0:0:
475,192,32976,1,0,0:0:0:0:
256,192,32976,1,0,0:0:0:0:
182,192,33084,1,0,0:0:0:0:
329,192,33084,1,0,0:0:0:0:
36,192,33191,1,0,0:0:0:0:
475,192,33191,1,0,0:0:0:0:
256,192,33191,1,0,0:0:0:0:
475,192,33512,1,0,0:0:0:0:
109,192,33512,1,0,0:0:0:0:
256,192,33512,1,0,0:0:0:0:
36,192,33726,1,0,0:0:0:0:
182,192,33833,128,0,33941:0:0:0:0:
402,192,33833,128,0,33941:0:0:0:0:
475,192,33941,1,0,0:0:0:0:
36,192,34155,1,0,0:0:0:0:
329,192,34155,128,0,34369:0:0:0:0:
256,192,34155,128,0,34369:0:0:0:0:
475,192,34369,1,0,0:0:0:0:
109,192,34476,1,0,0:0:0:0:
36,192,34583,1,0,0:0:0:0:
402,192,34584,1,0,0:0:0:0:
475,192,34798,1,0,0:0:0:0:
329,192,34798,128,0,34905:0:0:0:0:
256,192,34798,128,0,34905:0:0:0:0:
36,192,34905,1,0,0:0:0:0:
109,192,35012,1,0,0:0:0:0:
402,192,35119,128,0,35333:0:0:0:0:
182,192,35119,128,0,35333:0:0:0:0:
475,192,35226,1,0,0:0:0:0:
36,192,35441,1,0,0:0:0:0:
256,192,35441,128,0,35548:0:0:0:0:
329,192,35441,128,0,35548:0:0:0:0:
475,192,35655,1,0,0:0:0:0:
402,192,35762,128,0,35869:0:0:0:0:
182,192,35762,128,0,35869:0:0:0:0:
36,192,35869,1,0,0:0:0:0:
475,192,36083,1,0,0:0:0:0:
109,192,36083,128,0,36298:0:0:0:0:
329,192,36083,128,0,36298:0:0:0:0:
36,192,36298,1,0,0:0:0:0:
182,192,36405,128,0,36512:0:0:0:0:
256,192,36405,128,0,36512:0:0:0:0:
475,192,36512,1,0,0:0:0:0:
36,192,36619,1,0,0:0:0:0:
109,192,36726,128,0,36941:0:0:0:0:
256,192,36726,128,0,36941:0:0:0:0:
329,192,36726,128,0,36941:0:0:0:0:
402,192,36726,1,0,0:0:0:0:
475,192,36941,1,0,0:0:0:0:
36,192,37155,1,0,0:0:0:0:
182,192,37262,128,0,37370:0:0:0:0:
402,192,37262,128,0,37370:0:0:0:0:
475,192,37370,1,0,0:0:0:0:
329,192,37584,128,0,37798:0:0:0:0:
256,192,37584,128,0,37798:0:0:0:0:
36,192,37584,1,0,0:0:0:0:
475,192,37798,1,0,0:0:0:0:
109,192,37905,1,0,0:0:0:0:
36,192,38012,1,0,0:0:0:0:
402,192,38012,1,0,0:0:0:0:
475,192,38227,1,0,0:0:0:0:
329,192,38227,128,0,38334:0:0:0:0:
256,192,38227,128,0,38334:0:0:0:0:
36,192,38334,1,0,0:0:0:0:
109,192,38441,1,0,0:0:0:0:
402,192,38548,128,0,38762:0:0:0:0:
182,192,38548,128,0,38762:0:0:0:0:
475,192,38655,1,0,0:0:0:0:
36,192,38869,1,0,0:0:0:0:
256,192,38870,128,0,38977:0:0:0:0:
329,192,38870,128,0,38977:0:0:0:0:
475,192,39084,1,0,0:0:0:0:
402,192,39191,128,0,39298:0:0:0:0:
182,192,39191,128,0,39298:0:0:0:0:
36,192,39298,1,0,0:0:0:0:
475,192,39512,128,0,39726:0:0:0:0:
256,192,39512,128,0,39726:0:0:0:0:
36,192,39619,1,0,0:0:0:0:
109,192,39726,1,0,0:0:0:0:
182,192,39833,1,0,0:0:0:0:
329,192,39833,128,0,39941:0:0:0:0:
402,192,39833,128,0,39941:0:0:0:0:
109,192,39941,1,0,0:0:0:0:
182,192,40048,1,0,0:0:0:0:
475,192,40155,128,0,40369:0:0:0:0:
36,192,40155,128,0,40369:0:0:0:0:
256,192,40155,1,0,0:0:0:0:
329,192,40262,1,0,0:0:0:0:
402,192,40369,1,0,0:0:0:0:
182,192,40369,1,0,0:0:0:0:
256,192,40476,1,0,0:0:0:0:
109,192,40583,1,0,0:0:0:0:
475,192,40584,1,0,0:0:0:0:
329,192,40691,1,0,0:0:0:0:
182,192,40798,1,0,0:0:0:0:
256,192,40798,1,0,0:0:0:0:
36,192,40905,1,0,0:0:0:0:
402,192,41012,1,0,0:0:0:0:
475,192,41012,1,0,0:0:0:0:
329,192,41119,1,0,0:0:0:0:
182,192,41226,1,0,0:0:0:0:
36,192,41226,1,0,0:0:0:0:
256,192,41333,1,0,0:0:0:0:
109,192,41441,1,0,0:0:0:0:
475,192,41441,1,0,0:0:0:0:
36,192,41548,1,0,0:0:0:0:
402,192,41655,1,0,0:0:0:0:
256,192,41655,1,0,0:0:0:0:
329,192,41762,1,0,0:0:0:0:
182,192,41869,1,0,0:0:0:0:
475,192,41869,1,0,0:0:0:0:
36,192,41976,1,0,0:0:0:0:
402,192,42083,1,0,0:0:0:0:
109,192,42084,1,0,0:0:0:0:
256,192,42191,1,0,0:0:0:0:
182,192,42298,1,0,0:0:0:0:
475,192,42298,1,0,0:0:0:0:
329,192,42405,1,0,0:0:0:0:
182,192,42512,1,0,0:0:0:0:
36,192,42512,1,0,0:0:0:0:
109,192,42619,1,0,0:0:0:0:
256,192,42726,1,0,0:0:0:0:
475,192,42726,1,0,0:0:0:0:
109,192,42833,1,0,0:0:0:0:
36,192,42941,1,0,0:0:0:0:
256,192,42941,1,0,0:0:0:0:
109,192,43048,1,0,0:0:0:0:
329,192,43048,1,0,0:0:0:0:
182,192,43155,1,0,0:0:0:0:
402,192,43155,1,0,0:0:0:0:
475,192,43262,1,0,0:0:0:0:
256,192,43262,1,0,0:0:0:0:
36,192,43262,1,0,0:0:0:0:
329,192,43583,1,0,0:0:0:0:
109,192,43584,1,0,0:0:0:0:
402,192,43798,1,0,0:0:0:0:
182,192,43798,1,0,0:0:0:0:
256,192,43905,1,0,0:0:0:0:
109,192,44012,1,0,0:0:0:0:
475,192,44013,1,0,0:0:0:0:
329,192,44120,1,0,0:0:0:0:
182,192,44227,1,0,0:0:0:0:
256,192,44227,1,0,0:0:0:0:
36,192,44334,1,0,0:0:0:0:
475,192,44441,1,0,0:0:0:0:
402,192,44441,1,0,0:0:0:0:
329,192,44548,1,0,0:0:0:0:
36,192,44655,1,0,0:0:0:0:
182,192,44655,1,0,0:0:0:0:
256,192,44762,1,0,0:0:0:0:
109,192,44870,1,0,0:0:0:0:
475,192,44870,1,0,0:0:0:0:
36,192,44977,1,0,0:0:0:0:
256,192,45084,1,0,0:0:0:0:
402,192,45084,1,0,0:0:0:0:
329,192,45191,1,0,0:0:0:0:
182,192,45298,1,0,0:0:0:0:
475,192,45298,1,0,0:0:0:0:
36,192,45405,1,0,0:0:0:0:
402,192,45512,1,0,0:0:0:0:
109,192,45513,1,0,0:0:0:0:
256,192,45620,1,0,0:0:0:0:
182,192,45727,1,0,0:0:0:0:
475,192,45727,1,0,0:0:0:0:
329,192,45834,1,0,0:0:0:0:
36,192,45941,1,0,0:0:0:0:
182,192,45941,1,0,0:0:0:0:
109,192,46048,1,0,0:0:0:0:
475,192,46155,1,0,0:0:0:0:
256,192,46155,1,0,0:0:0:0:
109,192,46262,1,0,0:0:0:0:
36,192,46370,1,0,0:0:0:0:
256,192,46370,1,0,0:0:0:0:
109,192,46477,1,0,0:0:0:0:
329,192,46477,1,0,0:0:0:0:
182,192,46584,1,0,0:0:0:0:
402,192,46584,1,0,0:0:0:0:
475,192,46691,1,0,0:0:0:0:
256,192,46691,1,0,0:0:0:0:
36,192,46691,1,0,0:0:0:0:
109,192,46905,1,0,0:0:0:0:
402,192,46905,1,0,0:0:0:0:
36,192,47012,1,0,0:0:0:0:
475,192,47066,1,0,0:0:0:0:
182,192,47119,1,0,0:0:0:0:
329,192,47173,1,0,0:0:0:0:
256,192,47226,1,0,0:0:0:0:
402,192,47333,1,0,0:0:0:0:
329,192,47441,1,0,0:0:0:0:
36,192,47441,1,0,0:0:0:0:
182,192,47548,1,0,0:0:0:0:
109,192,47655,1,0,0:0:0:0:
36,192,47762,1,0,0:0:0:0:
475,192,47869,1,0,0:0:0:0:
256,192,47976,1,0,0:0:0:0:
329,192,48083,1,0,0:0:0:0:
109,192,48084,1,0,0:0:0:0:
402,192,48191,1,0,0:0:0:0:
182,192,48191,1,0,0:0:0:0:
36,192,48298,1,0,0:0:0:0:
256,192,48298,1,0,0:0:0:0:
329,192,48298,1,0,0:0:0:0:
475,192,48405,1,0,0:0:0:0:
182,192,48405,1,0,0:0:0:0:
109,192,48405,1,0,0:0:0:0:
475,192,48619,1,0,0:0:0:0:
36,192,48726,1,0,0:0:0:0:
329,192,48941,1,0,0:0:0:0:
182,192,49048,1,0,0:0:0:0:
109,192,49155,1,0,0:0:0:0:
475,192,49155,1,0,0:0:0:0:
256,192,49262,1,0,0:0:0:0:
182,192,49369,1,0,0:0:0:0:
36,192,49476,1,0,0:0:0:0:
109,192,49583,1,0,0:0:0:0:
475,192,49584,1,0,0:0:0:0:
256,192,49691,1,0,0:0:0:0:
402,192,49798,1,0,0:0:0:0:
475,192,49798,1,0,0:0:0:0:
329,192,49905,1,0,0:0:0:0:
256,192,49905,1,0,0:0:0:0:
182,192,50012,1,0,0:0:0:0:
109,192,50012,1,0,0:0:0:0:
36,192,50119,1,0,0:0:0:0:
475,192,50119,1,0,0:0:0:0:
402,192,50119,1,0,0:0:0:0:
256,192,50119,1,0,0:0:0:0:
329,192,50226,1,0,0:0:0:0:
182,192,50226,1,0,0:0:0:0:
109,192,50333,1,0,0:0:0:0:
36,192,50334,1,0,0:0:0:0:
182,192,50441,1,0,0:0:0:0:
329,192,50441,1,0,0:0:0:0:
256,192,50548,1,0,0:0:0:0:
402,192,50548,1,0,0:0:0:0:
36,192,50655,1,0,0:0:0:0:
475,192,50655,1,0,0:0:0:0:
256,192,50762,1,0,0:0:0:0:
402,192,50762,1,0,0:0:0:0:
256,192,50869,1,0,0:0:0:0:
402,192,50869,1,0,0:0:0:0:
182,192,51083,1,0,0:0:0:0:
329,192,51083,1,0,0:0:0:0:
182,192,51191,1,0,0:0:0:0:
329,192,51191,1,0,0:0:0:0:
109,192,51405,1,0,0:0:0:0:
256,192,51405,1,0,0:0:0:0:
109,192,51512,1,0,0:0:0:0:
256,192,51512,1,0,0:0:0:0:
36,192,51726,1,0,0:0:0:0:
182,192,51726,1,0,0:0:0:0:
36,192,51833,1,0,0:0:0:0:
182,192,51833,1,0,0:0:0:0:
329,192,52048,1,0,0:0:0:0:
475,192,52048,1,0,0:0:0:0:
256,192,52048,1,0,0:0:0:0:
109,192,52262,1,0,0:0:0:0:
402,192,52262,1,0,0:0:0:0:
182,192,52262,1,0,0:0:0:0:
256,192,52583,1,0,0:0:0:0:
402,192,52583,1,0,0:0:0:0:
475,192,52583,1,0,0:0:0:0:
329,192,52798,1,0,0:0:0:0:
182,192,52798,1,0,0:0:0:0:
109,192,52798,1,0,0:0:0:0:
36,192,53012,1,0,0:0:0:0:
475,192,53012,1,0,0:0:0:0:
256,192,53012,1,0,0:0:0:0:
329,192,53226,1,0,0:0:0:0:
182,192,53226,1,0,0:0:0:0:
109,192,53333,1,0,0:0:0:0:
256,192,53441,1,0,0:0:0:0:
475,192,53441,1,0,0:0:0:0:
329,192,53548,1,0,0:0:0:0:
402,192,53655,1,0,0:0:0:0:
256,192,53655,1,0,0:0:0:0:
182,192,53762,1,0,0:0:0:0:
36,192,53869,1,0,0:0:0:0:
329,192,53869,1,0,0:0:0:0:
182,192,53976,1,0,0:0:0:0:
256,192,54084,1,0,0:0:0:0:
402,192,54084,1,0,0:0:0:0:
329,192,54191,1,0,0:0:0:0:
475,192,54191,1,0,0:0:0:0:
256,192,54298,1,0,0:0:0:0:
402,192,54298,1,0,0:0:0:0:
182,192,54405,1,0,0:0:0:0:
36,192,54405,1,0,0:0:0:0:
475,192,54405,1,0,0:0:0:0:
329,192,54405,1,0,0:0:0:0:
109,192,54512,1,0,0:0:0:0:
256,192,54619,1,0,0:0:0:0:
329,192,54726,1,0,0:0:0:0:
36,192,54726,1,0,0:0:0:0:
402,192,54833,1,0,0:0:0:0:
256,192,54941,1,0,0:0:0:0:
36,192,54941,1,0,0:0:0:0:
109,192,55048,1,0,0:0:0:0:
256,192,55155,1,0,0:0:0:0:
475,192,55155,1,0,0:0:0:0:
329,192,55262,1,0,0:0:0:0:
402,192,55369,1,0,0:0:0:0:
36,192,55369,1,0,0:0:0:0:
109,192,55476,1,0,0:0:0:0:
256,192,55583,1,0,0:0:0:0:
475,192,55584,1,0,0:0:0:0:
329,192,55691,1,0,0:0:0:0:
402,192,55798,1,0,0:0:0:0:
256,192,55798,1,0,0:0:0:0:
36,192,55798,1,0,0:0:0:0:
329,192,55905,1,0,0:0:0:0:
182,192,55905,1,0,0:0:0:0:
475,192,55905,1,0,0:0:0:0:
109,192,56012,1,0,0:0:0:0:
256,192,56012,1,0,0:0:0:0:
36,192,56012,1,0,0:0:0:0:
475,192,56119,1,0,0:0:0:0:
182,192,56119,1,0,0:0:0:0:
329,192,56119,1,0,0:0:0:0:
402,192,56119,1,0,0:0:0:0:
109,192,56333,1,0,0:0:0:0:
256,192,56441,1,0,0:0:0:0:
475,192,56441,1,0,0:0:0:0:
329,192,56548,1,0,0:0:0:0:
109,192,56655,1,0,0:0:0:0:
402,192,56655,1,0,0:0:0:0:
475,192,56762,1,0,0:0:0:0:
256,192,56762,1,0,0:0:0:0:
329,192,56762,1,0,0:0:0:0:
475,192,56869,1,0,0:0:0:0:
256,192,56869,1,0,0:0:0:0:
329,192,56869,1,0,0:0:0:0:
182,192,57083,1,0,0:0:0:0:
402,192,57083,1,0,0:0:0:0:
109,192,57084,1,0,0:0:0:0:
402,192,57191,1,0,0:0:0:0:
182,192,57191,1,0,0:0:0:0:
109,192,57191,1,0,0:0:0:0:
329,192,57405,1,0,0:0:0:0:
109,192,57405,1,0,0:0:0:0:
36,192,57405,1,0,0:0:0:0:
329,192,57512,1,0,0:0:0:0:
109,192,57512,1,0,0:0:0:0:
36,192,57512,1,0,0:0:0:0:
256,192,57726,1,0,0:0:0:0:
36,192,57726,1,0,0:0:0:0:
475,192,57726,1,0,0:0:0:0:
256,192,57833,1,0,0:0:0:0:
36,192,57833,1,0,0:0:0:0:
475,192,57834,1,0,0:0:0:0:
182,192,58048,1,0,0:0:0:0:
329,192,58048,1,0,0:0:0:0:
475,192,58048,1,0,0:0:0:0:
109,192,58262,1,0,0:0:0:0:
256,192,58262,1,0,0:0:0:0:
402,192,58262,1,0,0:0:0:0:
402,192,58583,1,0,0:0:0:0:
475,192,58583,1,0,0:0:0:0:
256,192,58583,1,0,0:0:0:0:
182,192,58798,1,0,0:0:0:0:
329,192,58798,1,0,0:0:0:0:
109,192,58798,1,0,0:0:0:0:
36,192,59012,1,0,0:0:0:0:
402,192,59012,1,0,0:0:0:0:
475,192,59012,1,0,0:0:0:0:
182,192,59226,1,0,0:0:0:0:
36,192,59333,1,0,0:0:0:0:
109,192,59441,1,0,0:0:0:0:
256,192,59548,1,0,0:0:0:0:
402,192,59655,1,0,0:0:0:0:
475,192,59762,1,0,0:0:0:0:
402,192,59869,1,0,0:0:0:0:
36,192,59869,1,0,0:0:0:0:
329,192,59869,1,0,0:0:0:0:
256,192,59976,1,0,0:0:0:0:
402,192,60083,1,0,0:0:0:0:
329,192,60191,1,0,0:0:0:0:
475,192,60191,1,0,0:0:0:0:
109,192,60191,1,0,0:0:0:0:
182,192,60298,1,0,0:0:0:0:
329,192,60405,1,0,0:0:0:0:
256,192,60512,1,0,0:0:0:0:
36,192,60512,1,0,0:0:0:0:
402,192,60512,1,0,0:0:0:0:
109,192,60619,1,0,0:0:0:0:
256,192,60726,1,0,0:0:0:0:
182,192,60833,1,0,0:0:0:0:
475,192,60833,1,0,0:0:0:0:
109,192,60833,1,0,0:0:0:0:
36,192,60941,1,0,0:0:0:0:
475,192,61048,1,0,0:0:0:0:
402,192,61155,1,0,0:0:0:0:
36,192,61155,1,0,0:0:0:0:
329,192,61155,1,0,0:0:0:0:
256,192,61262,1,0,0:0:0:0:
402,192,61369,1,0,0:0:0:0:
329,192,61476,1,0,0:0:0:0:
475,192,61476,1,0,0:0:0:0:
109,192,61476,1,0,0:0:0:0:
182,192,61583,1,0,0:0:0:0:
329,192,61691,1,0,0:0:0:0:
256,192,61798,1,0,0:0:0:0:
36,192,61798,1,0,0:0:0:0:
402,192,61798,1,0,0:0:0:0:
109,192,61905,1,0,0:0:0:0:
256,192,62012,1,0,0:0:0:0:
36,192,62119,1,0,0:0:0:0:
475,192,62119,1,0,0:0:0:0:
182,192,62226,1,0,0:0:0:0:
329,192,62226,1,0,0:0:0:0:
402,192,62333,1,0,0:0:0:0:
109,192,62333,1,0,0:0:0:0:
36,192,62334,128,0,62441:0:0:0:0:
475,192,62441,128,0,62548:0:0:0:0:
36,192,62548,128,0,62655:0:0:0:0:
256,192,62655,128,0,62762:0:0:0:0:
182,192,62762,128,0,62869:0:0:0:0:
329,192,62869,128,0,62976:0:0:0:0:
256,192,63084,128,0,63191:0:0:0:0:
109,192,63191,128,0,63298:0:0:0:0:
402,192,63298,128,0,63405:0:0:0:0:
109,192,63405,128,0,63512:0:0:0:0:
475,192,63619,1,0,0:0:0:0:
256,192,63619,128,0,63726:0:0:0:0:
402,192,63619,1,0,0:0:0:0:
36,192,63726,1,0,0:0:0:0:
182,192,63726,128,0,63834:0:0:0:0:
109,192,63726,1,0,0:0:0:0:
475,192,63833,1,0,0:0:0:0:
329,192,63834,128,0,63941:0:0:0:0:
402,192,63834,1,0,0:0:0:0:
36,192,63941,1,0,0:0:0:0:
182,192,63941,128,0,64048:0:0:0:0:
109,192,63941,1,0,0:0:0:0:
256,192,64155,1,0,0:0:0:0:
109,192,64262,1,0,0:0:0:0:
182,192,64369,1,0,0:0:0:0:
329,192,64476,1,0,0:0:0:0:
475,192,64476,1,0,0:0:0:0:
36,192,64583,1,0,0:0:0:0:
402,192,64691,128,0,64798:0:0:0:0:
109,192,64691,1,0,0:0:0:0:
329,192,64798,1,0,0:0:0:0:
402,192,64905,128,0,65012:0:0:0:0:
182,192,64905,1,0,0:0:0:0:
109,192,65012,1,0,0:0:0:0:
475,192,65119,1,0,0:0:0:0:
182,192,65226,1,0,0:0:0:0:
109,192,65333,1,0,0:0:0:0:
329,192,65441,1,0,0:0:0:0:
182,192,65548,1,0,0:0:0:0:
475,192,65548,1,0,0:0:0:0:
36,192,65655,1,0,0:0:0:0:
402,192,65655,1,0,0:0:0:0:
256,192,65762,1,0,0:0:0:0:
475,192,65762,128,0,65869:0:0:0:0:
109,192,65869,1,0,0:0:0:0:
256,192,65976,1,0,0:0:0:0:
475,192,65976,128,0,66083:0:0:0:0:
182,192,66083,1,0,0:0:0:0:
402,192,66084,1,0,0:0:0:0:
109,192,66191,1,0,0:0:0:0:
329,192,66191,1,0,0:0:0:0:
36,192,66298,1,0,0:0:0:0:
475,192,66298,1,0,0:0:0:0:
182,192,66405,1,0,0:0:0:0:
329,192,66512,1,0,0:0:0:0:
475,192,66512,1,0,0:0:0:0:
402,192,66619,1,0,0:0:0:0:
256,192,66726,1,0,0:0:0:0:
475,192,66833,1,0,0:0:0:0:
109,192,66833,1,0,0:0:0:0:
36,192,66941,1,0,0:0:0:0:
182,192,67048,1,0,0:0:0:0:
475,192,67048,1,0,0:0:0:0:
329,192,67155,1,0,0:0:0:0:
402,192,67262,1,0,0:0:0:0:
36,192,67369,1,0,0:0:0:0:
182,192,67369,1,0,0:0:0:0:
475,192,67476,1,0,0:0:0:0:
329,192,67583,1,0,0:0:0:0:
182,192,67691,1,0,0:0:0:0:
109,192,67798,1,0,0:0:0:0:
36,192,67905,1,0,0:0:0:0:
475,192,67905,1,0,0:0:0:0:
256,192,68012,1,0,0:0:0:0:
329,192,68119,1,0,0:0:0:0:
182,192,68119,1,0,0:0:0:0:
109,192,68226,1,0,0:0:0:0:
475,192,68226,1,0,0:0:0:0:
36,192,68334,1,0,0:0:0:0:
402,192,68334,1,0,0:0:0:0:
329,192,68441,1,0,0:0:0:0:
109,192,68548,1,0,0:0:0:0:
182,192,68655,1,0,0:0:0:0:
475,192,68762,1,0,0:0:0:0:
329,192,68762,1,0,0:0:0:0:
36,192,68869,1,0,0:0:0:0:
109,192,68977,1,0,0:0:0:0:
402,192,68977,128,0,69084:0:0:0:0:
329,192,69084,1,0,0:0:0:0:
402,192,69191,128,0,69298:0:0:0:0:
182,192,69191,1,0,0:0:0:0:
109,192,69298,1,0,0:0:0:0:
475,192,69405,1,0,0:0:0:0:
402,192,69512,128,0,69619:0:0:0:0:
182,192,69512,1,0,0:0:0:0:
109,192,69619,1,0,0:0:0:0:
329,192,69727,1,0,0:0:0:0:
182,192,69834,1,0,0:0:0:0:
475,192,69834,1,0,0:0:0:0:
402,192,69941,1,0,0:0:0:0:
36,192,69941,1,0,0:0:0:0:
475,192,70048,128,0,70155:0:0:0:0:
256,192,70048,1,0,0:0:0:0:
109,192,70155,1,0,0:0:0:0:
256,192,70262,1,0,0:0:0:0:
475,192,70262,128,0,70369:0:0:0:0:
182,192,70369,1,0,0:0:0:0:
402,192,70476,1,0,0:0:0:0:
109,192,70477,1,0,0:0:0:0:
475,192,70584,1,0,0:0:0:0:
36,192,70584,1,0,0:0:0:0:
182,192,70691,1,0,0:0:0:0:
475,192,70798,1,0,0:0:0:0:
329,192,70798,1,0,0:0:0:0:
402,192,70905,1,0,0:0:0:0:
256,192,71012,1,0,0:0:0:0:
475,192,71119,1,0,0:0:0:0:
109,192,71119,1,0,0:0:0:0:
36,192,71227,1,0,0:0:0:0:
475,192,71334,1,0,0:0:0:0:
182,192,71334,1,0,0:0:0:0:
329,192,71441,1,0,0:0:0:0:
402,192,71548,1,0,0:0:0:0:
36,192,71655,1,0,0:0:0:0:
182,192,71655,1,0,0:0:0:0:
475,192,71762,1,0,0:0:0:0:
329,192,71869,1,0,0:0:0:0:
182,192,71977,1,0,0:0:0:0:
109,192,72084,1,0,0:0:0:0:
36,192,72191,1,0,0:0:0:0:
475,192,72191,1,0,0:0:0:0:
182,192,72298,1,0,0:0:0:0:
329,192,72298,1,0,0:0:0:0:
475,192,72405,1,0,0:0:0:0:
256,192,72405,1,0,0:0:0:0:
402,192,72405,1,0,0:0:0:0:
109,192,72512,1,0,0:0:0:0:
329,192,72512,1,0,0:0:0:0:
256,192,72619,1,0,0:0:0:0:
36,192,72619,1,0,0:0:0:0:
329,192,72726,1,0,0:0:0:0:
475,192,72726,1,0,0:0:0:0:
182,192,72726,1,0,0:0:0:0:
256,192,72941,1,0,0:0:0:0:
36,192,72941,1,0,0:0:0:0:
475,192,73048,1,0,0:0:0:0:
402,192,73155,1,0,0:0:0:0:
182,192,73155,1,0,0:0:0:0:
329,192,73369,1,0,0:0:0:0:
109,192,73369,1,0,0:0:0:0:
36,192,73369,1,0,0:0:0:0:
182,192,73583,1,0,0:0:0:0:
329,192,73583,1,0,0:0:0:0:
256,192,73691,1,0,0:0:0:0:
402,192,73691,1,0,0:0:0:0:
182,192,73798,1,0,0:0:0:0:
329,192,73798,1,0,0:0:0:0:
109,192,73905,1,0,0:0:0:0:
256,192,73905,1,0,0:0:0:0:
182,192,74012,1,0,0:0:0:0:
402,192,74012,1,0,0:0:0:0:
256,192,74119,1,0,0:0:0:0:
475,192,74119,1,0,0:0:0:0:
182,192,74226,1,0,0:0:0:0:
402,192,74226,1,0,0:0:0:0:
109,192,74333,1,0,0:0:0:0:
329,192,74333,1,0,0:0:0:0:
36,192,74441,1,0,0:0:0:0:
182,192,74441,1,0,0:0:0:0:
475,192,74655,1,0,0:0:0:0:
256,192,74655,1,0,0:0:0:0:
109,192,74655,1,0,0:0:0:0:
182,192,74869,1,0,0:0:0:0:
329,192,74869,1,0,0:0:0:0:
475,192,75083,1,0,0:0:0:0:
402,192,75083,1,0,0:0:0:0:
256,192,75083,1,0,0:0:0:0:
475,192,75298,1,0,0:0:0:0:
329,192,75298,1,0,0:0:0:0:
402,192,75405,1,0,0:0:0:0:
256,192,75405,1,0,0:0:0:0:
329,192,75512,1,0,0:0:0:0:
182,192,75512,1,0,0:0:0:0:
256,192,75619,1,0,0:0:0:0:
475,192,75619,1,0,0:0:0:0:
182,192,75726,1,0,0:0:0:0:
402,192,75726,1,0,0:0:0:0:
109,192,75833,1,0,0:0:0:0:
329,192,75833,1,0,0:0:0:0:
475,192,75833,1,0,0:0:0:0:
36,192,75833,1,0,0:0:0:0:
402,192,75941,1,0,0:0:0:0:
182,192,75941,1,0,0:0:0:0:
329,192,76048,1,0,0:0:0:0:
109,192,76048,1,0,0:0:0:0:
256,192,76155,1,0,0:0:0:0:
475,192,76155,1,0,0:0:0:0:
36,192,76155,1,0,0:0:0:0:
402,192,76155,1,0,0:0:0:0:
109,192,76262,1,0,0:0:0:0:
182,192,76262,1,0,0:0:0:0:
36,192,76369,1,0,0:0:0:0:
256,192,76369,1,0,0:0:0:0:
475,192,76369,1,0,0:0:0:0:
182,192,76476,1,0,0:0:0:0:
402,192,76476,1,0,0:0:0:0:
109,192,76691,1,0,0:0:0:0:
329,192,76691,1,0,0:0:0:0:
475,192,76798,1,0,0:0:0:0:
182,192,76905,1,0,0:0:0:0:
36,192,76905,1,0,0:0:0:0:
256,192,77012,1,0,0:0:0:0:
329,192,77012,1,0,0:0:0:0:
402,192,77119,1,0,0:0:0:0:
109,192,77119,1,0,0:0:0:0:
475,192,77226,1,0,0:0:0:0:
256,192,77226,1,0,0:0:0:0:
329,192,77226,1,0,0:0:0:0:
182,192,77333,1,0,0:0:0:0:
402,192,77333,1,0,0:0:0:0:
109,192,77548,1,0,0:0:0:0:
329,192,77548,1,0,0:0:0:0:
475,192,77655,1,0,0:0:0:0:
36,192,77762,1,0,0:0:0:0:
256,192,77762,1,0,0:0:0:0:
402,192,77762,1,0,0:0:0:0:
329,192,77869,1,0,0:0:0:0:
109,192,77869,1,0,0:0:0:0:
182,192,77869,1,0,0:0:0:0:
36,192,77976,1,0,0:0:0:0:
256,192,77976,1,0,0:0:0:0:
475,192,78083,1,0,0:0:0:0:
109,192,78083,1,0,0:0:0:0:
329,192,78083,1,0,0:0:0:0:
182,192,78191,1,0,0:0:0:0:
402,192,78191,1,0,0:0:0:0:
256,192,78298,1,0,0:0:0:0:
329,192,78298,1,0,0:0:0:0:
182,192,78405,1,0,0:0:0:0:
402,192,78405,1,0,0:0:0:0:
475,192,78512,1,0,0:0:0:0:
256,192,78512,1,0,0:0:0:0:
109,192,78512,1,0,0:0:0:0:
329,192,78619,1,0,0:0:0:0:
182,192,78619,1,0,0:0:0:0:
109,192,78726,1,0,0:0:0:0:
256,192,78726,1,0,0:0:0:0:
182,192,78833,1,0,0:0:0:0:
402,192,78833,1,0,0:0:0:0:
475,192,78941,1,0,0:0:0:0:
109,192,78941,1,0,0:0:0:0:
329,192,78941,1,0,0:0:0:0:
36,192,79048,1,0,0:0:0:0:
256,192,79048,1,0,0:0:0:0:
109,192,79155,1,0,0:0:0:0:
182,192,79155,1,0,0:0:0:0:
256,192,79262,1,0,0:0:0:0:
402,192,79262,1,0,0:0:0:0:
475,192,79369,1,0,0:0:0:0:
182,192,79369,1,0,0:0:0:0:
329,192,79369,1,0,0:0:0:0:
402,192,79476,1,0,0:0:0:0:
109,192,79476,1,0,0:0:0:0:
329,192,79583,1,0,0:0:0:0:
475,192,79583,1,0,0:0:0:0:
182,192,79583,1,0,0:0:0:0:
36,192,79583,1,0,0:0:0:0:
36,192,79798,1,0,0:0:0:0:
256,192,79798,1,0,0:0:0:0:
329,192,79798,1,0,0:0:0:0:
109,192,79905,1,0,0:0:0:0:
475,192,79905,1,0,0:0:0:0:
182,192,80012,1,0,0:0:0:0:
402,192,80012,1,0,0:0:0:0:
109,192,80226,1,0,0:0:0:0:
329,192,80226,1,0,0:0:0:0:
475,192,80226,1,0,0:0:0:0:
329,192,80440,1,0,0:0:0:0:
182,192,80440,1,0,0:0:0:0:
402,192,80548,1,0,0:0:0:0:
256,192,80548,1,0,0:0:0:0:
182,192,80655,1,0,0:0:0:0:
329,192,80655,1,0,0:0:0:0:
36,192,80655,1,0,0:0:0:0:
256,192,80762,1,0,0:0:0:0:
109,192,80762,1,0,0:0:0:0:
402,192,80869,1,0,0:0:0:0:
182,192,80869,1,0,0:0:0:0:
256,192,80976,1,0,0:0:0:0:
475,192,80976,1,0,0:0:0:0:
182,192,81083,1,0,0:0:0:0:
402,192,81083,1,0,0:0:0:0:
36,192,81084,1,0,0:0:0:0:
109,192,81190,1,0,0:0:0:0:
329,192,81190,1,0,0:0:0:0:
36,192,81298,1,0,0:0:0:0:
182,192,81298,1,0,0:0:0:0:
402,192,81298,1,0,0:0:0:0:
475,192,81298,1,0,0:0:0:0:
256,192,81298,1,0,0:0:0:0:
475,192,81512,1,0,0:0:0:0:
256,192,81512,1,0,0:0:0:0:
109,192,81512,1,0,0:0:0:0:
36,192,81619,1,0,0:0:0:0:
182,192,81726,1,0,0:0:0:0:
329,192,81726,1,0,0:0:0:0:
256,192,81940,1,0,0:0:0:0:
402,192,81940,1,0,0:0:0:0:
475,192,81940,1,0,0:0:0:0:
36,192,81941,1,0,0:0:0:0:
329,192,82155,1,0,0:0:0:0:
475,192,82155,1,0,0:0:0:0:
402,192,82262,1,0,0:0:0:0:
256,192,82262,1,0,0:0:0:0:
36,192,82262,1,0,0:0:0:0:
329,192,82369,1,0,0:0:0:0:
182,192,82369,1,0,0:0:0:0:
256,192,82476,1,0,0:0:0:0:
475,192,82476,1,0,0:0:0:0:
402,192,82583,1,0,0:0:0:0:
182,192,82583,1,0,0:0:0:0:
109,192,82690,1,0,0:0:0:0:
475,192,82690,1,0,0:0:0:0:
36,192,82690,1,0,0:0:0:0:
329,192,82690,1,0,0:0:0:0:
402,192,82798,1,0,0:0:0:0:
256,192,82798,1,0,0:0:0:0:
329,192,82905,1,0,0:0:0:0:
182,192,82905,1,0,0:0:0:0:
402,192,83012,1,0,0:0:0:0:
475,192,83012,1,0,0:0:0:0:
256,192,83012,1,0,0:0:0:0:
36,192,83012,1,0,0:0:0:0:
109,192,83012,1,0,0:0:0:0:
182,192,83119,1,0,0:0:0:0:
329,192,83119,1,0,0:0:0:0:
475,192,83226,1,0,0:0:0:0:
109,192,83226,1,0,0:0:0:0:
256,192,83226,1,0,0:0:0:0:
182,192,83333,1,0,0:0:0:0:
402,192,83334,1,0,0:0:0:0:
329,192,83548,1,0,0:0:0:0:
109,192,83548,1,0,0:0:0:0:
475,192,83655,1,0,0:0:0:0:
182,192,83762,1,0,0:0:0:0:
36,192,83762,1,0,0:0:0:0:
329,192,83869,1,0,0:0:0:0:
256,192,83869,1,0,0:0:0:0:
109,192,83976,1,0,0:0:0:0:
402,192,83976,1,0,0:0:0:0:
475,192,84083,1,0,0:0:0:0:
256,192,84083,1,0,0:0:0:0:
329,192,84083,1,0,0:0:0:0:
182,192,84190,1,0,0:0:0:0:
402,192,84190,1,0,0:0:0:0:
109,192,84405,1,0,0:0:0:0:
329,192,84405,1,0,0:0:0:0:
475,192,84512,1,0,0:0:0:0:
402,192,84619,1,0,0:0:0:0:
36,192,84619,1,0,0:0:0:0:
256,192,84619,1,0,0:0:0:0:
182,192,84726,1,0,0:0:0:0:
109,192,84726,1,0,0:0:0:0:
329,192,84726,1,0,0:0:0:0:
36,192,84833,1,0,0:0:0:0:
256,192,84833,1,0,0:0:0:0:
329,192,84940,1,0,0:0:0:0:
109,192,84940,1,0,0:0:0:0:
475,192,84940,1,0,0:0:0:0:
182,192,85048,1,0,0:0:0:0:
402,192,85048,1,0,0:0:0:0:
256,192,85155,1,0,0:0:0:0:
329,192,85155,1,0,0:0:0:0:
182,192,85262,1,0,0:0:0:0:
402,192,85262,1,0,0:0:0:0:
475,192,85369,1,0,0:0:0:0:
256,192,85369,1,0,0:0:0:0:
109,192,85369,1,0,0:0:0:0:
329,192,85476,1,0,0:0:0:0:
182,192,85476,1,0,0:0:0:0:
109,192,85583,1,0,0:0:0:0:
256,192,85583,1,0,0:0:0:0:
182,192,85690,1,0,0:0:0:0:
402,192,85690,1,0,0:0:0:0:
329,192,85798,1,0,0:0:0:0:
109,192,85798,1,0,0:0:0:0:
475,192,85798,1,0,0:0:0:0:
36,192,85905,1,0,0:0:0:0:
256,192,85905,1,0,0:0:0:0:
402,192,85905,1,0,0:0:0:0:
182,192,86012,1,0,0:0:0:0:
109,192,86012,1,0,0:0:0:0:
256,192,86119,1,0,0:0:0:0:
402,192,86119,1,0,0:0:0:0:
182,192,86226,1,0,0:0:0:0:
329,192,86226,1,0,0:0:0:0:
475,192,86226,1,0,0:0:0:0:
402,192,86333,1,0,0:0:0:0:
109,192,86333,1,0,0:0:0:0:
36,192,86441,1,0,0:0:0:0:
256,192,86441,1,0,0:0:0:0:
109,192,86548,1,0,0:0:0:0:
329,192,86548,1,0,0:0:0:0:
182,192,86655,1,0,0:0:0:0:
402,192,86655,1,0,0:0:0:0:
256,192,86762,1,0,0:0:0:0:
475,192,86762,1,0,0:0:0:0:
182,192,86869,1,0,0:0:0:0:
402,192,86869,1,0,0:0:0:0:
109,192,86976,1,0,0:0:0:0:
329,192,86976,1,0,0:0:0:0:
36,192,87084,1,0,0:0:0:0:
256,192,87084,1,0,0:0:0:0:
109,192,87191,1,0,0:0:0:0:
329,192,87191,1,0,0:0:0:0:
182,192,87298,1,0,0:0:0:0:
402,192,87298,1,0,0:0:0:0:
475,192,87405,1,0,0:0:0:0:
256,192,87405,1,0,0:0:0:0:
182,192,87512,1,0,0:0:0:0:
402,192,87512,1,0,0:0:0:0:
109,192,87619,1,0,0:0:0:0:
329,192,87619,1,0,0:0:0:0:
256,192,87726,1,0,0:0:0:0:
475,192,87726,1,0,0:0:0:0:
182,192,87834,1,0,0:0:0:0:
402,192,87834,1,0,0:0:0:0:
109,192,87941,1,0,0:0:0:0:
329,192,87941,1,0,0:0:0:0:
36,192,88048,1,0,0:0:0:0:
256,192,88048,1,0,0:0:0:0:
109,192,88155,1,0,0:0:0:0:
182,192,88155,1,0,0:0:0:0:
475,192,88369,1,0,0:0:0:0:
182,192,88369,1,0,0:0:0:0:
36,192,88369,1,0,0:0:0:0:
256,192,88476,1,0,0:0:0:0:
109,192,88476,1,0,0:0:0:0:
256,192,88690,1,0,0:0:0:0:
475,192,88690,1,0,0:0:0:0:
109,192,88690,1,0,0:0:0:0:
36,192,88797,1,0,0:0:0:0:
182,192,88797,1,0,0:0:0:0:
475,192,89012,1,0,0:0:0:0:
256,192,89012,1,0,0:0:0:0:
109,192,89012,1,0,0:0:0:0:
402,192,89119,1,0,0:0:0:0:
182,192,89119,1,0,0:0:0:0:
329,192,89119,1,0,0:0:0:0:
36,192,89119,1,0,0:0:0:0:
109,192,89441,1,0,0:0:0:0:
402,192,89548,1,0,0:0:0:0:
109,192,89655,1,0,0:0:0:0:
402,192,89762,1,0,0:0:0:0:
256,192,89869,1,0,0:0:0:0:
36,192,89869,1,0,0:0:0:0:
109,192,89976,1,0,0:0:0:0:
329,192,89976,1,0,0:0:0:0:
402,192,90083,1,0,0:0:0:0:
182,192,90083,1,0,0:0:0:0:
256,192,90190,1,0,0:0:0:0:
475,192,90190,1,0,0:0:0:0:
182,192,90297,1,0,0:0:0:0:
402,192,90297,1,0,0:0:0:0:
109,192,90404,1,0,0:0:0:0:
329,192,90404,1,0,0:0:0:0:
36,192,90512,1,0,0:0:0:0:
256,192,90512,1,0,0:0:0:0:
109,192,90619,1,0,0:0:0:0:
329,192,90619,1,0,0:0:0:0:
402,192,90726,1,0,0:0:0:0:
182,192,90726,1,0,0:0:0:0:
256,192,90833,1,0,0:0:0:0:
475,192,90833,1,0,0:0:0:0:
182,192,90940,1,0,0:0:0:0:
402,192,90940,1,0,0:0:0:0:
329,192,91047,1,0,0:0:0:0:
109,192,91047,1,0,0:0:0:0:
256,192,91154,1,0,0:0:0:0:
475,192,91154,1,0,0:0:0:0:
182,192,91262,1,0,0:0:0:0:
402,192,91262,1,0,0:0:0:0:
109,192,91369,1,0,0:0:0:0:
329,192,91369,1,0,0:0:0:0:
256,192,91476,1,0,0:0:0:0:
36,192,91476,1,0,0:0:0:0:
109,192,91584,1,0,0:0:0:0:
182,192,91584,1,0,0:0:0:0:
475,192,91798,1,0,0:0:0:0:
182,192,91798,1,0,0:0:0:0:
36,192,91798,1,0,0:0:0:0:
256,192,91905,1,0,0:0:0:0:
109,192,91905,1,0,0:0:0:0:
109,192,92119,1,0,0:0:0:0:
256,192,92119,1,0,0:0:0:0:
475,192,92119,1,0,0:0:0:0:
36,192,92226,1,0,0:0:0:0:
182,192,92226,1,0,0:0:0:0:
475,192,92441,1,0,0:0:0:0:
256,192,92441,1,0,0:0:0:0:
109,192,92441,1,0,0:0:0:0:
402,192,92548,1,0,0:0:0:0:
329,192,92548,1,0,0:0:0:0:
182,192,92548,1,0,0:0:0:0:
36,192,92548,1,0,0:0:0:0:
182,192,92976,1,0,0:0:0:0:
329,192,93084,1,0,0:0:0:0:
256,192,93191,1,0,0:0:0:0:
36,192,93298,1,0,0:0:0:0:
475,192,93298,1,0,0:0:0:0:
329,192,93298,1,0,0:0:0:0:
329,192,93405,1,0,0:0:0:0:
109,192,93512,1,0,0:0:0:0:
329,192,93619,1,0,0:0:0:0:
329,192,93726,1,0,0:0:0:0:
109,192,93833,1,0,0:0:0:0:
475,192,93941,1,0,0:0:0:0:
256,192,93941,1,0,0:0:0:0:
182,192,93941,1,0,0:0:0:0:
402,192,94048,1,0,0:0:0:0:
329,192,94155,1,0,0:0:0:0:
109,192,94155,1,0,0:0:0:0:
36,192,94155,1,0,0:0:0:0:
402,192,94262,1,0,0:0:0:0:
256,192,94369,1,0,0:0:0:0:
475,192,94369,1,0,0:0:0:0:
182,192,94369,1,0,0:0:0:0:
329,192,94476,1,0,0:0:0:0:
182,192,94583,1,0,0:0:0:0:
402,192,94583,1,0,0:0:0:0:
109,192,94584,1,0,0:0:0:0:
329,192,94691,1,0,0:0:0:0:
256,192,94798,1,0,0:0:0:0:
36,192,94798,1,0,0:0:0:0:
475,192,94798,1,0,0:0:0:0:
329,192,94905,1,0,0:0:0:0:
402,192,95012,1,0,0:0:0:0:
182,192,95012,1,0,0:0:0:0:
109,192,95012,1,0,0:0:0:0:
256,192,95119,1,0,0:0:0:0:
109,192,95226,1,0,0:0:0:0:
329,192,95226,1,0,0:0:0:0:
475,192,95226,1,0,0:0:0:0:
256,192,95333,1,0,0:0:0:0:
182,192,95441,1,0,0:0:0:0:
36,192,95441,1,0,0:0:0:0:
256,192,95548,1,0,0:0:0:0:
329,192,95655,1,0,0:0:0:0:
109,192,95655,1,0,0:0:0:0:
475,192,95655,1,0,0:0:0:0:
182,192,95762,1,0,0:0:0:0:
109,192,95869,1,0,0:0:0:0:
402,192,95869,1,0,0:0:0:0:
109,192,95976,1,0,0:0:0:0:
402,192,95976,1,0,0:0:0:0:
182,192,96083,1,0,0:0:0:0:
329,192,96083,1,0,0:0:0:0:
109,192,96191,1,0,0:0:0:0:
402,192,96191,1,0,0:0:0:0:
109,192,96298,1,0,0:0:0:0:
402,192,96298,1,0,0:0:0:0:
182,192,96405,1,0,0:0:0:0:
329,192,96405,1,0,0:0:0:0:
475,192,96512,1,0,0:0:0:0:
109,192,96512,1,0,0:0:0:0:
36,192,96512,1,0,0:0:0:0:
256,192,96512,1,0,0:0:0:0:
402,192,96619,1,0,0:0:0:0:
329,192,96726,1,0,0:0:0:0:
182,192,96726,1,0,0:0:0:0:
256,192,96726,1,0,0:0:0:0:
402,192,96833,1,0,0:0:0:0:
256,192,96940,1,0,0:0:0:0:
475,192,96940,1,0,0:0:0:0:
36,192,96941,1,0,0:0:0:0:
109,192,96941,1,0,0:0:0:0:
329,192,97048,1,0,0:0:0:0:
402,192,97154,1,0,0:0:0:0:
182,192,97154,1,0,0:0:0:0:
475,192,97155,1,0,0:0:0:0:
329,192,97262,1,0,0:0:0:0:
256,192,97369,1,0,0:0:0:0:
109,192,97369,1,0,0:0:0:0:
36,192,97369,1,0,0:0:0:0:
329,192,97476,1,0,0:0:0:0:
402,192,97583,1,0,0:0:0:0:
182,192,97583,1,0,0:0:0:0:
475,192,97584,1,0,0:0:0:0:
256,192,97691,1,0,0:0:0:0:
329,192,97797,1,0,0:0:0:0:
109,192,97797,1,0,0:0:0:0:
475,192,97798,1,0,0:0:0:0:
256,192,97904,1,0,0:0:0:0:
182,192,98012,1,0,0:0:0:0:
36,192,98012,1,0,0:0:0:0:
109,192,98012,1,0,0:0:0:0:
256,192,98119,1,0,0:0:0:0:
329,192,98226,1,0,0:0:0:0:
109,192,98226,1,0,0:0:0:0:
475,192,98226,1,0,0:0:0:0:
182,192,98333,1,0,0:0:0:0:
109,192,98441,1,0,0:0:0:0:
402,192,98441,1,0,0:0:0:0:
402,192,98548,1,0,0:0:0:0:
109,192,98548,1,0,0:0:0:0:
182,192,98655,1,0,0:0:0:0:
329,192,98655,1,0,0:0:0:0:
109,192,98763,1,0,0:0:0:0:
402,192,98763,1,0,0:0:0:0:
402,192,98870,1,0,0:0:0:0:
109,192,98870,1,0,0:0:0:0:
36,192,98976,1,0,0:0:0:0:
329,192,98977,1,0,0:0:0:0:
256,192,99084,1,0,0:0:0:0:
475,192,99084,1,0,0:0:0:0:
182,192,99084,1,0,0:0:0:0:
402,192,99191,1,0,0:0:0:0:
329,192,99298,1,0,0:0:0:0:
36,192,99298,1,0,0:0:0:0:
109,192,99298,1,0,0:0:0:0:
402,192,99405,1,0,0:0:0:0:
475,192,99512,1,0,0:0:0:0:
182,192,99512,1,0,0:0:0:0:
256,192,99512,1,0,0:0:0:0:
329,192,99619,1,0,0:0:0:0:
182,192,99726,1,0,0:0:0:0:
402,192,99726,1,0,0:0:0:0:
475,192,99726,1,0,0:0:0:0:
329,192,99834,1,0,0:0:0:0:
256,192,99941,1,0,0:0:0:0:
109,192,99941,1,0,0:0:0:0:
36,192,99941,1,0,0:0:0:0:
329,192,100048,1,0,0:0:0:0:
402,192,100155,1,0,0:0:0:0:
182,192,100155,1,0,0:0:0:0:
475,192,100155,1,0,0:0:0:0:
256,192,100262,1,0,0:0:0:0:
109,192,100369,1,0,0:0:0:0:
329,192,100369,1,0,0:0:0:0:
475,192,100369,1,0,0:0:0:0:
256,192,100476,1,0,0:0:0:0:
182,192,100584,1,0,0:0:0:0:
36,192,100584,1,0,0:0:0:0:
402,192,100584,1,0,0:0:0:0:
256,192,100691,1,0,0:0:0:0:
109,192,100798,1,0,0:0:0:0:
329,192,100798,1,0,0:0:0:0:
475,192,100798,1,0,0:0:0:0:
182,192,100905,1,0,0:0:0:0:
109,192,101012,1,0,0:0:0:0:
402,192,101012,1,0,0:0:0:0:
402,192,101119,1,0,0:0:0:0:
109,192,101119,1,0,0:0:0:0:
182,192,101226,1,0,0:0:0:0:
329,192,101226,1,0,0:0:0:0:
402,192,101334,1,0,0:0:0:0:
109,192,101334,1,0,0:0:0:0:
402,192,101441,1,0,0:0:0:0:
109,192,101441,1,0,0:0:0:0:
329,192,101548,1,0,0:0:0:0:
182,192,101548,1,0,0:0:0:0:
109,192,101655,1,0,0:0:0:0:
256,192,101655,1,0,0:0:0:0:
475,192,101655,1,0,0:0:0:0:
36,192,101655,1,0,0:0:0:0:
402,192,101762,1,0,0:0:0:0:
329,192,101869,1,0,0:0:0:0:
182,192,101869,1,0,0:0:0:0:
109,192,101869,1,0,0:0:0:0:
402,192,101976,1,0,0:0:0:0:
256,192,102083,1,0,0:0:0:0:
475,192,102083,1,0,0:0:0:0:
36,192,102084,1,0,0:0:0:0:
329,192,102190,1,0,0:0:0:0:
402,192,102297,1,0,0:0:0:0:
182,192,102297,1,0,0:0:0:0:
36,192,102298,1,0,0:0:0:0:
475,192,102298,1,0,0:0:0:0:
109,192,102298,1,0,0:0:0:0:
329,192,102405,1,0,0:0:0:0:
109,192,102512,1,0,0:0:0:0:
256,192,102512,1,0,0:0:0:0:
475,192,102512,1,0,0:0:0:0:
329,192,102619,1,0,0:0:0:0:
402,192,102726,1,0,0:0:0:0:
182,192,102726,1,0,0:0:0:0:
36,192,102726,1,0,0:0:0:0:
256,192,102833,1,0,0:0:0:0:
329,192,102940,1,0,0:0:0:0:
109,192,102940,1,0,0:0:0:0:
402,192,102941,1,0,0:0:0:0:
36,192,102941,1,0,0:0:0:0:
475,192,102941,1,0,0:0:0:0:
256,192,103047,1,0,0:0:0:0:
182,192,103155,1,0,0:0:0:0:
36,192,103155,1,0,0:0:0:0:
402,192,103155,1,0,0:0:0:0:
256,192,103262,1,0,0:0:0:0:
109,192,103369,1,0,0:0:0:0:
329,192,103369,1,0,0:0:0:0:
475,192,103369,1,0,0:0:0:0:
182,192,103476,1,0,0:0:0:0:
475,192,103583,1,0,0:0:0:0:
329,192,103691,1,0,0:0:0:0:
182,192,103798,1,0,0:0:0:0:
402,192,103905,1,0,0:0:0:0:
256,192,104012,1,0,0:0:0:0:
109,192,104119,1,0,0:0:0:0:
182,192,104226,1,0,0:0:0:0:
36,192,104226,128,0,104762:0:0:0:0:
329,192,104226,128,0,104762:0:0:0:0:
475,192,104226,1,0,0:0:0:0:
256,192,104762,1,0,0:0:0:0:
475,192,104762,1,0,0:0:0:0:
109,192,104762,128,0,105298:0:0:0:0:
402,192,104762,128,0,105298:0:0:0:0:
36,192,105298,1,0,0:0:0:0:
475,192,105298,1,0,0:0:0:0:
256,192,105298,128,0,105834:0:0:0:0:
182,192,105298,128,0,105834:0:0:0:0:
329,192,105834,128,0,108084:0:0:0:0:
109,192,105834,128,0,108084:0:0:0:0:
36,192,105834,128,0,108084:0:0:0:0:
475,192,105834,128,0,108084:0:0:0:0:
