osu file format v12

[General]
AudioFilename: [jubeat copious].mp3
AudioLeadIn: 0
PreviewTime: 64106
Countdown: 0
SampleSet: Soft
StackLeniency: 0.7
Mode: 3
LetterboxInBreaks: 0
SpecialStyle: 1
WidescreenStoryboard: 1

[Editor]
DistanceSpacing: 0.8
BeatDivisor: 4
GridSize: 8

[Metadata]
Title:Ryoushi no Umi no Lindwurm
TitleUnicode:量子の海のリントヴルム
Artist:Kuroneko Dungeon
ArtistUnicode:黒猫ダンジョン
Creator:ResucecaT
Version:4K Normal
Source:Jubeat Copious
Tags:
BeatmapID:302569
BeatmapSetID:117435

[Difficulty]
HPDrainRate:6
CircleSize:4
OverallDifficulty:6
ApproachRate:5
SliderMultiplier:1.4
SliderTickRate:1

[Events]
//Background and Video events
0,0,"AEBEF877D8111805934B2E2D5797B2F45A6695B6457CC_800_800.jpg",0,0
//Break Periods
//Storyboard Layer 0 (Background)
//Storyboard Layer 1 (Fail)
//Storyboard Layer 2 (Pass)
//Storyboard Layer 3 (Foreground)
//Storyboard Sound Samples
//Background Colour Transformations
3,100,163,162,255

[TimingPoints]
1584,428.571428571429,4,2,0,40,1,0

[HitObjects]
36,192,6083,1,0,0:0:0:0:
109,192,6405,1,0,0:0:0:0:
256,192,6619,1,0,0:0:0:0:
475,192,6834,1,0,0:0:0:0:
182,192,7155,1,0,0:0:0:0:
329,192,7369,1,0,0:0:0:0:
109,192,7584,1,0,0:0:0:0:
320,192,7691,1,0,0:0:0:0:
192,192,7905,1,0,0:0:0:0:
475,192,8119,1,0,0:0:0:0:
320,192,8334,1,0,0:0:0:0:
192,192,8655,1,0,0:0:0:0:
109,192,9084,128,0,9941:0:0:0:0:
192,192,10584,1,0,0:0:0:0:
109,192,10906,1,0,0:0:0:0:
256,192,11120,1,0,0:0:0:0:
475,192,11335,1,0,0:0:0:0:
192,192,11655,1,0,0:0:0:0:
329,192,11870,1,0,0:0:0:0:
109,192,12085,1,0,0:0:0:0:
320,192,12191,1,0,0:0:0:0:
192,192,12405,1,0,0:0:0:0:
475,192,12620,1,0,0:0:0:0:
320,192,12834,1,0,0:0:0:0:
192,192,13155,1,0,0:0:0:0:
448,192,13584,1,0,0:0:0:0:
109,192,13585,128,0,14442:0:0:0:0:
192,192,15084,1,0,0:0:0:0:
448,192,15084,128,0,15834:0:0:0:0:
320,192,15834,1,0,0:0:0:0:
64,192,15941,1,0,0:0:0:0:
192,192,16155,128,0,16584:0:0:0:0:
448,192,16584,128,0,17334:0:0:0:0:
192,192,17334,1,0,0:0:0:0:
64,192,17441,1,0,0:0:0:0:
329,192,17655,128,0,18084:0:0:0:0:
64,192,18084,1,0,0:0:0:0:
329,192,21512,128,0,21941:0:0:0:0:
475,192,21941,128,0,22369:0:0:0:0:
182,192,22369,128,0,22798:0:0:0:0:
256,192,22798,128,0,23226:0:0:0:0:
192,192,23226,128,0,23655:0:0:0:0:
402,192,23655,128,0,24084:0:0:0:0:
64,192,24084,128,0,24512:0:0:0:0:
192,192,24512,1,0,0:0:0:0:
448,192,24941,1,0,0:0:0:0:
192,192,25262,1,0,0:0:0:0:
192,192,25476,1,0,0:0:0:0:
329,192,25584,1,0,0:0:0:0:
320,192,25905,1,0,0:0:0:0:
448,192,26119,1,0,0:0:0:0:
192,192,26226,1,0,0:0:0:0:
192,192,26548,1,0,0:0:0:0:
192,192,26762,1,0,0:0:0:0:
475,192,26869,1,0,0:0:0:0:
448,192,27191,1,0,0:0:0:0:
448,192,27405,1,0,0:0:0:0:
36,192,27512,128,0,28155:0:0:0:0:
182,192,28155,128,0,28798:0:0:0:0:
329,192,28798,128,0,29441:0:0:0:0:
475,192,29441,128,0,30084:0:0:0:0:
192,192,30084,1,0,0:0:0:0:
320,192,30191,1,0,0:0:0:0:
109,192,30405,1,0,0:0:0:0:
402,192,30619,1,0,0:0:0:0:
192,192,30941,1,0,0:0:0:0:
320,192,31048,128,0,31476:0:0:0:0:
109,192,31476,1,0,0:0:0:0:
192,192,31798,1,0,0:0:0:0:
448,192,31905,1,0,0:0:0:0:
182,192,32119,1,0,0:0:0:0:
475,192,32334,1,0,0:0:0:0:
192,192,32655,1,0,0:0:0:0:
320,192,32762,128,0,33191:0:0:0:0:
182,192,33191,1,0,0:0:0:0:
475,192,33512,1,0,0:0:0:0:
36,192,33512,1,0,0:0:0:0:
448,192,33834,1,0,0:0:0:0:
320,192,34155,1,0,0:0:0:0:
192,192,34476,1,0,0:0:0:0:
64,192,34584,1,0,0:0:0:0:
192,192,34798,1,0,0:0:0:0:
320,192,35119,1,0,0:0:0:0:
320,192,35441,1,0,0:0:0:0:
320,192,35762,1,0,0:0:0:0:
192,192,36084,1,0,0:0:0:0:
192,192,36405,1,0,0:0:0:0:
64,192,36726,1,0,0:0:0:0:
192,192,37262,1,0,0:0:0:0:
320,192,37584,1,0,0:0:0:0:
192,192,37905,1,0,0:0:0:0:
448,192,38012,1,0,0:0:0:0:
192,192,38226,1,0,0:0:0:0:
320,192,38548,1,0,0:0:0:0:
320,192,38869,1,0,0:0:0:0:
320,192,39191,1,0,0:0:0:0:
448,192,39512,1,0,0:0:0:0:
320,192,39834,1,0,0:0:0:0:
64,192,40155,1,0,0:0:0:0:
448,192,40369,1,0,0:0:0:0:
256,192,40691,1,0,0:0:0:0:
182,192,41012,1,0,0:0:0:0:
109,192,41334,1,0,0:0:0:0:
320,192,41655,1,0,0:0:0:0:
182,192,41869,1,0,0:0:0:0:
448,192,42084,1,0,0:0:0:0:
256,192,42405,1,0,0:0:0:0:
192,192,42726,1,0,0:0:0:0:
64,192,42941,128,0,43262:0:0:0:0:
475,192,43262,1,0,0:0:0:0:
192,192,43584,1,0,0:0:0:0:
448,192,43798,1,0,0:0:0:0:
256,192,44120,1,0,0:0:0:0:
182,192,44441,1,0,0:0:0:0:
109,192,44763,1,0,0:0:0:0:
402,192,45084,1,0,0:0:0:0:
182,192,45298,1,0,0:0:0:0:
448,192,45512,1,0,0:0:0:0:
320,192,45834,1,0,0:0:0:0:
192,192,46155,1,0,0:0:0:0:
64,192,46369,128,0,46691:0:0:0:0:
475,192,46691,1,0,0:0:0:0:
192,192,47012,1,0,0:0:0:0:
448,192,47226,128,0,47655:0:0:0:0:
36,192,47655,128,0,48084:0:0:0:0:
320,192,48084,128,0,48405:0:0:0:0:
192,192,48405,128,0,48941:0:0:0:0:
329,192,48941,128,0,49369:0:0:0:0:
109,192,49369,128,0,49798:0:0:0:0:
192,192,49798,128,0,50119:0:0:0:0:
320,192,50119,128,0,50655:0:0:0:0:
192,192,50655,1,0,0:0:0:0:
475,192,50762,1,0,0:0:0:0:
64,192,50976,1,0,0:0:0:0:
329,192,51084,1,0,0:0:0:0:
192,192,51405,1,0,0:0:0:0:
320,192,51512,1,0,0:0:0:0:
36,192,51726,1,0,0:0:0:0:
448,192,51834,1,0,0:0:0:0:
475,192,52048,1,0,0:0:0:0:
256,192,52262,1,0,0:0:0:0:
402,192,52584,1,0,0:0:0:0:
182,192,52798,1,0,0:0:0:0:
36,192,53012,1,0,0:0:0:0:
402,192,53226,128,0,53655:0:0:0:0:
109,192,53655,128,0,54084:0:0:0:0:
320,192,54084,128,0,54405:0:0:0:0:
475,192,54405,1,0,0:0:0:0:
256,192,54941,128,0,55369:0:0:0:0:
109,192,55369,128,0,55798:0:0:0:0:
448,192,55798,128,0,56119:0:0:0:0:
192,192,56119,1,0,0:0:0:0:
320,192,56762,1,0,0:0:0:0:
192,192,56869,1,0,0:0:0:0:
402,192,57084,1,0,0:0:0:0:
64,192,57191,1,0,0:0:0:0:
320,192,57405,1,0,0:0:0:0:
192,192,57512,1,0,0:0:0:0:
320,192,57726,1,0,0:0:0:0:
64,192,57834,1,0,0:0:0:0:
475,192,58048,1,0,0:0:0:0:
256,192,58262,1,0,0:0:0:0:
329,192,58584,1,0,0:0:0:0:
182,192,58798,1,0,0:0:0:0:
320,192,59012,1,0,0:0:0:0:
64,192,59226,1,0,0:0:0:0:
192,192,59441,1,0,0:0:0:0:
320,192,59655,1,0,0:0:0:0:
448,192,59869,128,0,60191:0:0:0:0:
192,192,60191,128,0,60512:0:0:0:0:
320,192,60512,128,0,60834:0:0:0:0:
64,192,60834,128,0,61155:0:0:0:0:
448,192,61155,128,0,61476:0:0:0:0:
320,192,61476,128,0,61798:0:0:0:0:
192,192,61798,128,0,62119:0:0:0:0:
64,192,62119,128,0,62441:0:0:0:0:
402,192,62441,1,0,0:0:0:0:
320,192,63619,1,0,0:0:0:0:
192,192,63834,1,0,0:0:0:0:
256,192,64155,1,0,0:0:0:0:
192,192,64369,1,0,0:0:0:0:
64,192,64691,1,0,0:0:0:0:
64,192,64905,1,0,0:0:0:0:
448,192,64905,1,0,0:0:0:0:
320,192,65012,1,0,0:0:0:0:
192,192,65226,1,0,0:0:0:0:
320,192,65441,128,0,65655:0:0:0:0:
448,192,65655,128,0,65869:0:0:0:0:
64,192,65869,128,0,66084:0:0:0:0:
320,192,66084,128,0,66298:0:0:0:0:
448,192,66298,128,0,66941:0:0:0:0:
64,192,67369,128,0,68012:0:0:0:0:
256,192,68441,1,0,0:0:0:0:
192,192,68655,1,0,0:0:0:0:
64,192,68977,1,0,0:0:0:0:
64,192,69191,1,0,0:0:0:0:
448,192,69191,1,0,0:0:0:0:
320,192,69298,1,0,0:0:0:0:
192,192,69512,1,0,0:0:0:0:
320,192,69726,128,0,69941:0:0:0:0:
448,192,69941,128,0,70155:0:0:0:0:
64,192,70155,128,0,70369:0:0:0:0:
320,192,70369,128,0,70584:0:0:0:0:
448,192,70584,128,0,71227:0:0:0:0:
64,192,71655,128,0,72298:0:0:0:0:
36,192,72726,1,0,0:0:0:0:
320,192,72726,1,0,0:0:0:0:
402,192,72941,1,0,0:0:0:0:
320,192,73155,1,0,0:0:0:0:
109,192,73369,1,0,0:0:0:0:
192,192,73584,1,0,0:0:0:0:
320,192,73798,1,0,0:0:0:0:
448,192,74012,1,0,0:0:0:0:
192,192,74226,1,0,0:0:0:0:
64,192,74441,1,0,0:0:0:0:
320,192,74655,1,0,0:0:0:0:
192,192,74869,1,0,0:0:0:0:
320,192,75084,1,0,0:0:0:0:
448,192,75298,1,0,0:0:0:0:
320,192,75512,1,0,0:0:0:0:
192,192,75726,1,0,0:0:0:0:
64,192,75941,1,0,0:0:0:0:
192,192,76155,1,0,0:0:0:0:
320,192,76262,1,0,0:0:0:0:
192,192,76369,1,0,0:0:0:0:
448,192,76476,1,0,0:0:0:0:
192,192,76691,1,0,0:0:0:0:
320,192,76905,1,0,0:0:0:0:
64,192,77012,1,0,0:0:0:0:
192,192,77119,1,0,0:0:0:0:
64,192,77226,1,0,0:0:0:0:
320,192,77334,1,0,0:0:0:0:
192,192,77548,1,0,0:0:0:0:
448,192,77762,1,0,0:0:0:0:
64,192,77869,1,0,0:0:0:0:
320,192,78084,1,0,0:0:0:0:
448,192,78298,1,0,0:0:0:0:
192,192,78512,1,0,0:0:0:0:
320,192,78726,1,0,0:0:0:0:
64,192,78941,1,0,0:0:0:0:
448,192,79155,1,0,0:0:0:0:
320,192,79369,1,0,0:0:0:0:
36,192,79584,1,0,0:0:0:0:
475,192,79584,1,0,0:0:0:0:
192,192,79798,1,0,0:0:0:0:
320,192,80012,1,0,0:0:0:0:
192,192,80226,1,0,0:0:0:0:
320,192,80441,1,0,0:0:0:0:
64,192,80655,1,0,0:0:0:0:
448,192,80869,1,0,0:0:0:0:
320,192,81084,1,0,0:0:0:0:
192,192,81298,1,0,0:0:0:0:
320,192,81512,1,0,0:0:0:0:
64,192,81726,1,0,0:0:0:0:
320,192,81941,1,0,0:0:0:0:
448,192,82155,1,0,0:0:0:0:
320,192,82369,1,0,0:0:0:0:
192,192,82584,1,0,0:0:0:0:
64,192,82798,1,0,0:0:0:0:
192,192,83012,1,0,0:0:0:0:
320,192,83119,1,0,0:0:0:0:
192,192,83226,1,0,0:0:0:0:
448,192,83334,1,0,0:0:0:0:
192,192,83548,1,0,0:0:0:0:
320,192,83762,1,0,0:0:0:0:
64,192,83869,1,0,0:0:0:0:
192,192,83976,1,0,0:0:0:0:
64,192,84084,1,0,0:0:0:0:
448,192,84191,1,0,0:0:0:0:
320,192,84405,1,0,0:0:0:0:
448,192,84619,1,0,0:0:0:0:
192,192,84726,1,0,0:0:0:0:
320,192,84941,1,0,0:0:0:0:
448,192,85155,1,0,0:0:0:0:
64,192,85369,1,0,0:0:0:0:
320,192,85584,1,0,0:0:0:0:
192,192,85798,1,0,0:0:0:0:
448,192,86012,1,0,0:0:0:0:
192,192,86226,1,0,0:0:0:0:
109,192,86441,128,0,86762:0:0:0:0:
256,192,86441,1,0,0:0:0:0:
402,192,86762,128,0,87084:0:0:0:0:
320,192,87084,128,0,88155:0:0:0:0:
192,192,88155,128,0,88476:0:0:0:0:
64,192,88476,128,0,88798:0:0:0:0:
320,192,88798,128,0,89119:0:0:0:0:
448,192,89119,128,0,89869:0:0:0:0:
109,192,89869,128,0,90190:0:0:0:0:
402,192,90190,128,0,90512:0:0:0:0:
192,192,90512,128,0,91584:0:0:0:0:
320,192,91584,128,0,91905:0:0:0:0:
192,192,91905,128,0,92226:0:0:0:0:
64,192,92226,128,0,92548:0:0:0:0:
448,192,92548,128,0,93298:0:0:0:0:
475,192,93941,1,0,0:0:0:0:
64,192,93941,1,0,0:0:0:0:
182,192,94155,1,0,0:0:0:0:
448,192,94369,1,0,0:0:0:0:
320,192,94584,1,0,0:0:0:0:
64,192,94798,1,0,0:0:0:0:
320,192,95012,1,0,0:0:0:0:
192,192,95226,1,0,0:0:0:0:
36,192,95441,1,0,0:0:0:0:
192,192,95655,1,0,0:0:0:0:
448,192,95869,128,0,96191:0:0:0:0:
192,192,96191,128,0,96512:0:0:0:0:
475,192,96512,1,0,0:0:0:0:
64,192,96512,1,0,0:0:0:0:
182,192,96726,1,0,0:0:0:0:
475,192,96940,1,0,0:0:0:0:
320,192,97155,1,0,0:0:0:0:
109,192,97369,1,0,0:0:0:0:
320,192,97584,1,0,0:0:0:0:
192,192,97798,1,0,0:0:0:0:
36,192,98012,1,0,0:0:0:0:
192,192,98226,1,0,0:0:0:0:
448,192,98441,128,0,98762:0:0:0:0:
192,192,98762,128,0,99084:0:0:0:0:
475,192,99084,1,0,0:0:0:0:
64,192,99084,1,0,0:0:0:0:
182,192,99298,1,0,0:0:0:0:
475,192,99512,1,0,0:0:0:0:
320,192,99726,1,0,0:0:0:0:
109,192,99941,1,0,0:0:0:0:
320,192,100155,1,0,0:0:0:0:
192,192,100369,1,0,0:0:0:0:
36,192,100584,1,0,0:0:0:0:
192,192,100798,1,0,0:0:0:0:
448,192,101012,128,0,101334:0:0:0:0:
192,192,101334,128,0,101655:0:0:0:0:
320,192,101655,1,0,0:0:0:0:
64,192,101655,1,0,0:0:0:0:
182,192,101869,1,0,0:0:0:0:
320,192,102084,1,0,0:0:0:0:
402,192,102298,1,0,0:0:0:0:
192,192,102298,1,0,0:0:0:0:
109,192,102512,1,0,0:0:0:0:
402,192,102726,1,0,0:0:0:0:
329,192,102940,1,0,0:0:0:0:
192,192,102941,1,0,0:0:0:0:
36,192,103155,1,0,0:0:0:0:
329,192,103369,1,0,0:0:0:0:
36,192,103584,1,0,0:0:0:0:
320,192,103798,1,0,0:0:0:0:
192,192,104012,1,0,0:0:0:0:
64,192,104226,128,0,104762:0:0:0:0:
192,192,104762,128,0,105298:0:0:0:0:
320,192,105298,128,0,105834:0:0:0:0:
448,192,105834,128,0,108084:0:0:0:0:
64,192,105834,128,0,108084:0:0:0:0:
