osu file format v12

[General]
AudioFilename: [jubeat copious].mp3
AudioLeadIn: 0
PreviewTime: 64106
Countdown: 0
SampleSet: Soft
StackLeniency: 0.7
Mode: 3
LetterboxInBreaks: 0
SpecialStyle: 1
WidescreenStoryboard: 1

[Editor]
DistanceSpacing: 0.8
BeatDivisor: 4
GridSize: 8

[Metadata]
Title:Ryoushi no Umi no Lindwurm
TitleUnicode:量子の海のリントヴルム
Artist:Kuroneko Dungeon
ArtistUnicode:黒猫ダンジョン
Creator:ResucecaT
Version:4K Insane
Source:Jubeat Copious
Tags:
BeatmapID:305332
BeatmapSetID:117435

[Difficulty]
HPDrainRate:8
CircleSize:4
OverallDifficulty:7
ApproachRate:5
SliderMultiplier:1.4
SliderTickRate:1

[Events]
//Background and Video events
0,0,"AEBEF877D8111805934B2E2D5797B2F45A6695B6457CC_800_800.jpg",0,0
//Break Periods
//Storyboard Layer 0 (Background)
//Storyboard Layer 1 (Fail)
//Storyboard Layer 2 (Pass)
//Storyboard Layer 3 (Foreground)
//Storyboard Sound Samples
//Background Colour Transformations
3,100,163,162,255

[TimingPoints]
1584,428.571428571429,4,2,0,40,1,0

[HitObjects]
64,192,1584,1,0,0:0:0:0:
192,192,1691,1,0,0:0:0:0:
320,192,1798,1,0,0:0:0:0:
448,192,1905,1,0,0:0:0:0:
320,192,2012,1,0,0:0:0:0:
192,192,2119,1,0,0:0:0:0:
448,192,2226,1,0,0:0:0:0:
320,192,2334,1,0,0:0:0:0:
64,192,2441,1,0,0:0:0:0:
192,192,2548,1,0,0:0:0:0:
320,192,2655,1,0,0:0:0:0:
192,192,2762,1,0,0:0:0:0:
64,192,2869,1,0,0:0:0:0:
448,192,2976,1,0,0:0:0:0:
192,192,3084,1,0,0:0:0:0:
320,192,3191,1,0,0:0:0:0:
448,192,3298,1,0,0:0:0:0:
320,192,3405,1,0,0:0:0:0:
192,192,3512,1,0,0:0:0:0:
64,192,3619,1,0,0:0:0:0:
320,192,3726,1,0,0:0:0:0:
192,192,3834,1,0,0:0:0:0:
448,192,3941,1,0,0:0:0:0:
64,192,4048,1,0,0:0:0:0:
192,192,4155,1,0,0:0:0:0:
320,192,4262,1,0,0:0:0:0:
448,192,4369,1,0,0:0:0:0:
192,192,4476,1,0,0:0:0:0:
64,192,4584,1,0,0:0:0:0:
320,192,4691,1,0,0:0:0:0:
448,192,4798,1,0,0:0:0:0:
64,192,4905,1,0,0:0:0:0:
192,192,5012,1,0,0:0:0:0:
320,192,5119,1,0,0:0:0:0:
448,192,5226,1,0,0:0:0:0:
192,192,5334,1,0,0:0:0:0:
320,192,5441,1,0,0:0:0:0:
448,192,5548,1,0,0:0:0:0:
192,192,5655,1,0,0:0:0:0:
64,192,5762,1,0,0:0:0:0:
192,192,5869,1,0,0:0:0:0:
320,192,5976,1,0,0:0:0:0:
36,192,6083,1,0,0:0:0:0:
448,192,6084,1,0,0:0:0:0:
64,192,6405,1,0,0:0:0:0:
448,192,6405,1,0,0:0:0:0:
256,192,6619,1,0,0:0:0:0:
192,192,6619,1,0,0:0:0:0:
475,192,6834,1,0,0:0:0:0:
192,192,6834,1,0,0:0:0:0:
182,192,7155,1,0,0:0:0:0:
448,192,7155,1,0,0:0:0:0:
329,192,7369,1,0,0:0:0:0:
64,192,7369,1,0,0:0:0:0:
64,192,7584,1,0,0:0:0:0:
192,192,7584,1,0,0:0:0:0:
320,192,7691,1,0,0:0:0:0:
448,192,7691,1,0,0:0:0:0:
192,192,7905,1,0,0:0:0:0:
320,192,7905,1,0,0:0:0:0:
475,192,8119,1,0,0:0:0:0:
192,192,8119,1,0,0:0:0:0:
448,192,8334,1,0,0:0:0:0:
320,192,8441,1,0,0:0:0:0:
192,192,8548,1,0,0:0:0:0:
320,192,8655,1,0,0:0:0:0:
192,192,8762,1,0,0:0:0:0:
64,192,8869,1,0,0:0:0:0:
320,192,8976,1,0,0:0:0:0:
448,192,9030,1,0,0:0:0:0:
64,192,9084,1,0,0:0:0:0:
192,192,9191,1,0,0:0:0:0:
320,192,9298,1,0,0:0:0:0:
192,192,9405,1,0,0:0:0:0:
64,192,9512,1,0,0:0:0:0:
192,192,9619,1,0,0:0:0:0:
320,192,9726,1,0,0:0:0:0:
448,192,9834,1,0,0:0:0:0:
320,192,9941,1,0,0:0:0:0:
192,192,10048,1,0,0:0:0:0:
320,192,10155,1,0,0:0:0:0:
448,192,10262,1,0,0:0:0:0:
320,192,10369,1,0,0:0:0:0:
192,192,10476,1,0,0:0:0:0:
36,192,10584,1,0,0:0:0:0:
320,192,10584,1,0,0:0:0:0:
192,192,10905,1,0,0:0:0:0:
109,192,10906,1,0,0:0:0:0:
192,192,11119,1,0,0:0:0:0:
256,192,11120,1,0,0:0:0:0:
320,192,11334,1,0,0:0:0:0:
475,192,11335,1,0,0:0:0:0:
192,192,11655,1,0,0:0:0:0:
320,192,11655,1,0,0:0:0:0:
64,192,11869,1,0,0:0:0:0:
329,192,11870,1,0,0:0:0:0:
448,192,12084,1,0,0:0:0:0:
109,192,12085,1,0,0:0:0:0:
320,192,12191,1,0,0:0:0:0:
192,192,12191,1,0,0:0:0:0:
192,192,12405,1,0,0:0:0:0:
448,192,12405,1,0,0:0:0:0:
320,192,12619,1,0,0:0:0:0:
475,192,12620,1,0,0:0:0:0:
448,192,12834,1,0,0:0:0:0:
320,192,12941,1,0,0:0:0:0:
64,192,13048,1,0,0:0:0:0:
192,192,13155,1,0,0:0:0:0:
320,192,13262,1,0,0:0:0:0:
64,192,13369,1,0,0:0:0:0:
320,192,13476,1,0,0:0:0:0:
448,192,13530,1,0,0:0:0:0:
192,192,13584,1,0,0:0:0:0:
64,192,13691,1,0,0:0:0:0:
192,192,13798,1,0,0:0:0:0:
320,192,13905,1,0,0:0:0:0:
192,192,14012,1,0,0:0:0:0:
64,192,14119,1,0,0:0:0:0:
320,192,14226,1,0,0:0:0:0:
448,192,14334,1,0,0:0:0:0:
320,192,14441,1,0,0:0:0:0:
192,192,14548,1,0,0:0:0:0:
64,192,14655,1,0,0:0:0:0:
192,192,14762,1,0,0:0:0:0:
320,192,14869,1,0,0:0:0:0:
192,192,14976,1,0,0:0:0:0:
402,192,15084,128,0,15726:0:0:0:0:
109,192,15405,1,0,0:0:0:0:
192,192,15405,1,0,0:0:0:0:
109,192,15619,1,0,0:0:0:0:
192,192,15619,1,0,0:0:0:0:
64,192,15834,1,0,0:0:0:0:
320,192,15834,1,0,0:0:0:0:
329,192,15941,1,0,0:0:0:0:
192,192,15941,1,0,0:0:0:0:
475,192,16155,128,0,16584:0:0:0:0:
192,192,16155,1,0,0:0:0:0:
64,192,16369,1,0,0:0:0:0:
192,192,16423,1,0,0:0:0:0:
64,192,16476,1,0,0:0:0:0:
192,192,16530,1,0,0:0:0:0:
64,192,16584,1,0,0:0:0:0:
320,192,16584,1,0,0:0:0:0:
192,192,16691,1,0,0:0:0:0:
320,192,16798,1,0,0:0:0:0:
448,192,16905,1,0,0:0:0:0:
192,192,17012,1,0,0:0:0:0:
448,192,17119,1,0,0:0:0:0:
320,192,17226,1,0,0:0:0:0:
109,192,17334,1,0,0:0:0:0:
192,192,17334,1,0,0:0:0:0:
402,192,17441,1,0,0:0:0:0:
320,192,17441,1,0,0:0:0:0:
64,192,17655,128,0,18084:0:0:0:0:
320,192,17869,1,0,0:0:0:0:
448,192,17869,1,0,0:0:0:0:
320,192,17976,1,0,0:0:0:0:
448,192,17976,1,0,0:0:0:0:
192,192,18084,1,0,0:0:0:0:
320,192,18191,1,0,0:0:0:0:
448,192,18298,1,0,0:0:0:0:
192,192,18405,1,0,0:0:0:0:
320,192,18512,1,0,0:0:0:0:
448,192,18619,1,0,0:0:0:0:
320,192,18726,1,0,0:0:0:0:
192,192,18834,1,0,0:0:0:0:
64,192,18941,1,0,0:0:0:0:
448,192,19048,1,0,0:0:0:0:
192,192,19155,1,0,0:0:0:0:
320,192,19262,1,0,0:0:0:0:
448,192,19369,1,0,0:0:0:0:
64,192,19476,1,0,0:0:0:0:
320,192,19584,1,0,0:0:0:0:
192,192,19691,1,0,0:0:0:0:
64,192,19798,1,0,0:0:0:0:
320,192,19905,1,0,0:0:0:0:
192,192,20012,1,0,0:0:0:0:
320,192,20119,1,0,0:0:0:0:
448,192,20226,1,0,0:0:0:0:
320,192,20334,1,0,0:0:0:0:
192,192,20441,1,0,0:0:0:0:
64,192,20548,1,0,0:0:0:0:
192,192,20655,1,0,0:0:0:0:
320,192,20762,1,0,0:0:0:0:
192,192,20869,1,0,0:0:0:0:
64,192,20976,1,0,0:0:0:0:
192,192,21084,1,0,0:0:0:0:
320,192,21191,1,0,0:0:0:0:
448,192,21298,1,0,0:0:0:0:
320,192,21405,1,0,0:0:0:0:
64,192,21512,1,0,0:0:0:0:
448,192,21512,1,0,0:0:0:0:
192,192,21619,1,0,0:0:0:0:
320,192,21726,1,0,0:0:0:0:
448,192,21834,1,0,0:0:0:0:
320,192,21941,1,0,0:0:0:0:
64,192,21941,1,0,0:0:0:0:
192,192,22048,1,0,0:0:0:0:
320,192,22155,1,0,0:0:0:0:
64,192,22262,1,0,0:0:0:0:
192,192,22369,1,0,0:0:0:0:
448,192,22369,1,0,0:0:0:0:
320,192,22476,1,0,0:0:0:0:
64,192,22584,1,0,0:0:0:0:
192,192,22691,1,0,0:0:0:0:
448,192,22798,1,0,0:0:0:0:
64,192,22798,1,0,0:0:0:0:
192,192,22905,1,0,0:0:0:0:
320,192,23012,1,0,0:0:0:0:
192,192,23119,1,0,0:0:0:0:
64,192,23226,1,0,0:0:0:0:
448,192,23226,1,0,0:0:0:0:
320,192,23334,1,0,0:0:0:0:
192,192,23441,1,0,0:0:0:0:
320,192,23548,1,0,0:0:0:0:
448,192,23655,1,0,0:0:0:0:
64,192,23655,1,0,0:0:0:0:
320,192,23762,1,0,0:0:0:0:
192,192,23869,1,0,0:0:0:0:
64,192,23976,1,0,0:0:0:0:
192,192,24084,1,0,0:0:0:0:
448,192,24084,1,0,0:0:0:0:
320,192,24191,1,0,0:0:0:0:
192,192,24298,1,0,0:0:0:0:
64,192,24405,1,0,0:0:0:0:
192,192,24512,1,0,0:0:0:0:
320,192,24619,1,0,0:0:0:0:
192,192,24726,1,0,0:0:0:0:
64,192,24726,1,0,0:0:0:0:
448,192,24726,128,0,24941:0:0:0:0:
36,192,24941,1,0,0:0:0:0:
192,192,25262,1,0,0:0:0:0:
64,192,25262,1,0,0:0:0:0:
192,192,25476,1,0,0:0:0:0:
64,192,25476,1,0,0:0:0:0:
329,192,25584,1,0,0:0:0:0:
192,192,25584,1,0,0:0:0:0:
320,192,25905,1,0,0:0:0:0:
192,192,25905,1,0,0:0:0:0:
320,192,26119,1,0,0:0:0:0:
192,192,26119,1,0,0:0:0:0:
402,192,26226,1,0,0:0:0:0:
320,192,26226,1,0,0:0:0:0:
192,192,26548,1,0,0:0:0:0:
64,192,26548,1,0,0:0:0:0:
192,192,26762,1,0,0:0:0:0:
64,192,26762,1,0,0:0:0:0:
475,192,26869,1,0,0:0:0:0:
320,192,26869,1,0,0:0:0:0:
448,192,27191,1,0,0:0:0:0:
320,192,27191,1,0,0:0:0:0:
448,192,27405,1,0,0:0:0:0:
320,192,27405,1,0,0:0:0:0:
36,192,27512,128,0,28155:0:0:0:0:
320,192,27834,128,0,28476:0:0:0:0:
182,192,28155,128,0,28798:0:0:0:0:
448,192,28476,128,0,29119:0:0:0:0:
329,192,28798,128,0,29441:0:0:0:0:
64,192,29119,128,0,29762:0:0:0:0:
475,192,29441,128,0,30084:0:0:0:0:
192,192,29762,128,0,30084:0:0:0:0:
64,192,30084,1,0,0:0:0:0:
329,192,30191,1,0,0:0:0:0:
109,192,30405,1,0,0:0:0:0:
402,192,30619,1,0,0:0:0:0:
192,192,30941,1,0,0:0:0:0:
448,192,31048,1,0,0:0:0:0:
320,192,31048,1,0,0:0:0:0:
192,192,31155,1,0,0:0:0:0:
64,192,31155,1,0,0:0:0:0:
448,192,31262,1,0,0:0:0:0:
320,192,31262,1,0,0:0:0:0:
192,192,31369,1,0,0:0:0:0:
64,192,31369,1,0,0:0:0:0:
448,192,31476,1,0,0:0:0:0:
320,192,31476,1,0,0:0:0:0:
256,192,31798,1,0,0:0:0:0:
402,192,31905,1,0,0:0:0:0:
182,192,32119,1,0,0:0:0:0:
475,192,32334,1,0,0:0:0:0:
64,192,32655,1,0,0:0:0:0:
192,192,32762,1,0,0:0:0:0:
448,192,32762,1,0,0:0:0:0:
320,192,32869,1,0,0:0:0:0:
64,192,32869,1,0,0:0:0:0:
192,192,32976,1,0,0:0:0:0:
448,192,32976,1,0,0:0:0:0:
320,192,33084,1,0,0:0:0:0:
64,192,33084,1,0,0:0:0:0:
182,192,33191,1,0,0:0:0:0:
448,192,33191,1,0,0:0:0:0:
192,192,33512,1,0,0:0:0:0:
64,192,33726,1,0,0:0:0:0:
448,192,33834,128,0,33941:0:0:0:0:
329,192,34155,128,0,34369:0:0:0:0:
64,192,34155,1,0,0:0:0:0:
192,192,34476,128,0,34584:0:0:0:0:
64,192,34584,1,0,0:0:0:0:
448,192,34584,128,0,34691:0:0:0:0:
256,192,34798,128,0,34905:0:0:0:0:
64,192,35012,1,0,0:0:0:0:
182,192,35119,128,0,35333:0:0:0:0:
256,192,35441,128,0,35548:0:0:0:0:
64,192,35441,1,0,0:0:0:0:
448,192,35762,128,0,35869:0:0:0:0:
64,192,35869,1,0,0:0:0:0:
192,192,36084,128,0,36298:0:0:0:0:
64,192,36298,1,0,0:0:0:0:
320,192,36405,128,0,36512:0:0:0:0:
192,192,36726,128,0,36941:0:0:0:0:
64,192,36726,1,0,0:0:0:0:
320,192,36726,128,0,36941:0:0:0:0:
64,192,37155,1,0,0:0:0:0:
448,192,37262,128,0,37369:0:0:0:0:
329,192,37584,128,0,37798:0:0:0:0:
64,192,37584,1,0,0:0:0:0:
192,192,37905,128,0,38012:0:0:0:0:
64,192,38012,1,0,0:0:0:0:
448,192,38012,128,0,38119:0:0:0:0:
256,192,38226,128,0,38334:0:0:0:0:
64,192,38441,1,0,0:0:0:0:
182,192,38548,128,0,38762:0:0:0:0:
64,192,38869,1,0,0:0:0:0:
256,192,38870,128,0,38977:0:0:0:0:
182,192,39191,128,0,39298:0:0:0:0:
64,192,39298,1,0,0:0:0:0:
64,192,39619,1,0,0:0:0:0:
192,192,39726,1,0,0:0:0:0:
320,192,39834,1,0,0:0:0:0:
192,192,39941,1,0,0:0:0:0:
64,192,40048,1,0,0:0:0:0:
192,192,40155,1,0,0:0:0:0:
320,192,40262,1,0,0:0:0:0:
448,192,40369,1,0,0:0:0:0:
64,192,40369,1,0,0:0:0:0:
320,192,40476,1,0,0:0:0:0:
192,192,40584,1,0,0:0:0:0:
64,192,40584,1,0,0:0:0:0:
448,192,40691,1,0,0:0:0:0:
192,192,40798,1,0,0:0:0:0:
64,192,40905,1,0,0:0:0:0:
448,192,41012,1,0,0:0:0:0:
192,192,41012,1,0,0:0:0:0:
320,192,41119,1,0,0:0:0:0:
64,192,41226,1,0,0:0:0:0:
320,192,41334,1,0,0:0:0:0:
192,192,41441,1,0,0:0:0:0:
448,192,41441,1,0,0:0:0:0:
64,192,41548,1,0,0:0:0:0:
448,192,41655,1,0,0:0:0:0:
320,192,41762,1,0,0:0:0:0:
182,192,41869,1,0,0:0:0:0:
448,192,41869,1,0,0:0:0:0:
64,192,41976,1,0,0:0:0:0:
448,192,42084,1,0,0:0:0:0:
320,192,42191,1,0,0:0:0:0:
64,192,42298,1,0,0:0:0:0:
192,192,42298,1,0,0:0:0:0:
448,192,42405,1,0,0:0:0:0:
192,192,42512,1,0,0:0:0:0:
64,192,42619,1,0,0:0:0:0:
320,192,42726,1,0,0:0:0:0:
448,192,42726,1,0,0:0:0:0:
192,192,42834,1,0,0:0:0:0:
36,192,42941,1,0,0:0:0:0:
320,192,42941,1,0,0:0:0:0:
182,192,43048,1,0,0:0:0:0:
448,192,43048,1,0,0:0:0:0:
329,192,43155,1,0,0:0:0:0:
64,192,43155,1,0,0:0:0:0:
475,192,43262,1,0,0:0:0:0:
192,192,43262,1,0,0:0:0:0:
320,192,43584,1,0,0:0:0:0:
192,192,43584,1,0,0:0:0:0:
448,192,43798,1,0,0:0:0:0:
320,192,43905,1,0,0:0:0:0:
192,192,44012,1,0,0:0:0:0:
64,192,44012,1,0,0:0:0:0:
448,192,44119,1,0,0:0:0:0:
192,192,44226,1,0,0:0:0:0:
64,192,44334,1,0,0:0:0:0:
448,192,44441,1,0,0:0:0:0:
192,192,44441,1,0,0:0:0:0:
320,192,44548,1,0,0:0:0:0:
64,192,44655,1,0,0:0:0:0:
320,192,44762,1,0,0:0:0:0:
192,192,44869,1,0,0:0:0:0:
448,192,44869,1,0,0:0:0:0:
64,192,44976,1,0,0:0:0:0:
448,192,45084,1,0,0:0:0:0:
320,192,45191,1,0,0:0:0:0:
192,192,45298,1,0,0:0:0:0:
448,192,45298,1,0,0:0:0:0:
64,192,45405,1,0,0:0:0:0:
448,192,45512,1,0,0:0:0:0:
320,192,45619,1,0,0:0:0:0:
64,192,45726,1,0,0:0:0:0:
192,192,45726,1,0,0:0:0:0:
448,192,45834,1,0,0:0:0:0:
192,192,45941,1,0,0:0:0:0:
64,192,46048,1,0,0:0:0:0:
320,192,46155,1,0,0:0:0:0:
448,192,46155,1,0,0:0:0:0:
192,192,46262,1,0,0:0:0:0:
320,192,46369,1,0,0:0:0:0:
36,192,46370,1,0,0:0:0:0:
448,192,46476,1,0,0:0:0:0:
182,192,46477,1,0,0:0:0:0:
329,192,46584,1,0,0:0:0:0:
64,192,46584,1,0,0:0:0:0:
475,192,46691,1,0,0:0:0:0:
192,192,46691,1,0,0:0:0:0:
36,192,47012,1,0,0:0:0:0:
448,192,47066,1,0,0:0:0:0:
64,192,47119,1,0,0:0:0:0:
448,192,47173,1,0,0:0:0:0:
192,192,47226,1,0,0:0:0:0:
448,192,47334,1,0,0:0:0:0:
320,192,47441,1,0,0:0:0:0:
64,192,47441,1,0,0:0:0:0:
192,192,47548,1,0,0:0:0:0:
320,192,47655,1,0,0:0:0:0:
64,192,47762,1,0,0:0:0:0:
192,192,47869,1,0,0:0:0:0:
448,192,47869,1,0,0:0:0:0:
320,192,47976,1,0,0:0:0:0:
192,192,48084,1,0,0:0:0:0:
402,192,48191,1,0,0:0:0:0:
256,192,48298,1,0,0:0:0:0:
64,192,48298,1,0,0:0:0:0:
448,192,48405,1,0,0:0:0:0:
192,192,48405,1,0,0:0:0:0:
64,192,48619,1,0,0:0:0:0:
448,192,48619,1,0,0:0:0:0:
192,192,48726,1,0,0:0:0:0:
320,192,48726,1,0,0:0:0:0:
192,192,48941,1,0,0:0:0:0:
448,192,49048,1,0,0:0:0:0:
320,192,49155,1,0,0:0:0:0:
64,192,49155,1,0,0:0:0:0:
192,192,49262,1,0,0:0:0:0:
320,192,49369,1,0,0:0:0:0:
64,192,49476,1,0,0:0:0:0:
192,192,49584,1,0,0:0:0:0:
448,192,49584,1,0,0:0:0:0:
320,192,49691,1,0,0:0:0:0:
402,192,49798,1,0,0:0:0:0:
329,192,49905,1,0,0:0:0:0:
64,192,50012,1,0,0:0:0:0:
475,192,50119,1,0,0:0:0:0:
192,192,50119,1,0,0:0:0:0:
320,192,50226,1,0,0:0:0:0:
64,192,50334,1,0,0:0:0:0:
192,192,50441,1,0,0:0:0:0:
320,192,50548,1,0,0:0:0:0:
64,192,50655,1,0,0:0:0:0:
475,192,50762,1,0,0:0:0:0:
192,192,50762,1,0,0:0:0:0:
448,192,50869,1,0,0:0:0:0:
192,192,50869,1,0,0:0:0:0:
329,192,51084,1,0,0:0:0:0:
64,192,51084,1,0,0:0:0:0:
320,192,51191,1,0,0:0:0:0:
64,192,51191,1,0,0:0:0:0:
182,192,51405,1,0,0:0:0:0:
448,192,51405,1,0,0:0:0:0:
192,192,51512,1,0,0:0:0:0:
448,192,51512,1,0,0:0:0:0:
36,192,51726,1,0,0:0:0:0:
320,192,51726,1,0,0:0:0:0:
64,192,51834,1,0,0:0:0:0:
320,192,51834,1,0,0:0:0:0:
475,192,52048,1,0,0:0:0:0:
192,192,52048,1,0,0:0:0:0:
256,192,52262,1,0,0:0:0:0:
64,192,52262,1,0,0:0:0:0:
448,192,52584,1,0,0:0:0:0:
320,192,52584,1,0,0:0:0:0:
182,192,52798,1,0,0:0:0:0:
64,192,52798,1,0,0:0:0:0:
64,192,53012,1,0,0:0:0:0:
448,192,53012,1,0,0:0:0:0:
192,192,53226,1,0,0:0:0:0:
64,192,53334,1,0,0:0:0:0:
192,192,53441,1,0,0:0:0:0:
320,192,53441,1,0,0:0:0:0:
448,192,53548,1,0,0:0:0:0:
320,192,53655,1,0,0:0:0:0:
192,192,53762,1,0,0:0:0:0:
64,192,53869,1,0,0:0:0:0:
448,192,53869,1,0,0:0:0:0:
192,192,53976,1,0,0:0:0:0:
320,192,54084,1,0,0:0:0:0:
448,192,54191,1,0,0:0:0:0:
192,192,54298,1,0,0:0:0:0:
320,192,54298,1,0,0:0:0:0:
64,192,54405,1,0,0:0:0:0:
448,192,54405,1,0,0:0:0:0:
192,192,54619,1,0,0:0:0:0:
320,192,54726,1,0,0:0:0:0:
64,192,54726,1,0,0:0:0:0:
448,192,54834,1,0,0:0:0:0:
320,192,54941,1,0,0:0:0:0:
192,192,55048,1,0,0:0:0:0:
64,192,55155,1,0,0:0:0:0:
448,192,55155,1,0,0:0:0:0:
192,192,55262,1,0,0:0:0:0:
320,192,55369,1,0,0:0:0:0:
64,192,55476,1,0,0:0:0:0:
320,192,55584,1,0,0:0:0:0:
192,192,55584,1,0,0:0:0:0:
448,192,55691,1,0,0:0:0:0:
320,192,55798,1,0,0:0:0:0:
192,192,55905,1,0,0:0:0:0:
320,192,56012,1,0,0:0:0:0:
64,192,56012,1,0,0:0:0:0:
475,192,56119,1,0,0:0:0:0:
192,192,56119,1,0,0:0:0:0:
320,192,56334,1,0,0:0:0:0:
64,192,56441,1,0,0:0:0:0:
448,192,56441,1,0,0:0:0:0:
192,192,56548,1,0,0:0:0:0:
320,192,56655,1,0,0:0:0:0:
448,192,56762,1,0,0:0:0:0:
192,192,56762,1,0,0:0:0:0:
448,192,56869,1,0,0:0:0:0:
192,192,56869,1,0,0:0:0:0:
192,192,57084,1,0,0:0:0:0:
320,192,57084,1,0,0:0:0:0:
192,192,57191,1,0,0:0:0:0:
320,192,57191,1,0,0:0:0:0:
320,192,57405,1,0,0:0:0:0:
64,192,57405,1,0,0:0:0:0:
64,192,57512,1,0,0:0:0:0:
320,192,57512,1,0,0:0:0:0:
64,192,57726,1,0,0:0:0:0:
192,192,57726,1,0,0:0:0:0:
64,192,57834,1,0,0:0:0:0:
192,192,57834,1,0,0:0:0:0:
475,192,58048,1,0,0:0:0:0:
192,192,58048,1,0,0:0:0:0:
320,192,58048,1,0,0:0:0:0:
256,192,58262,1,0,0:0:0:0:
64,192,58262,1,0,0:0:0:0:
192,192,58262,1,0,0:0:0:0:
329,192,58584,1,0,0:0:0:0:
64,192,58584,1,0,0:0:0:0:
448,192,58584,1,0,0:0:0:0:
182,192,58798,1,0,0:0:0:0:
64,192,58798,1,0,0:0:0:0:
320,192,58798,1,0,0:0:0:0:
109,192,59012,1,0,0:0:0:0:
448,192,59012,1,0,0:0:0:0:
192,192,59012,1,0,0:0:0:0:
192,192,59226,1,0,0:0:0:0:
64,192,59334,1,0,0:0:0:0:
320,192,59441,1,0,0:0:0:0:
192,192,59548,1,0,0:0:0:0:
320,192,59655,1,0,0:0:0:0:
448,192,59762,1,0,0:0:0:0:
320,192,59869,1,0,0:0:0:0:
64,192,59869,1,0,0:0:0:0:
192,192,59976,1,0,0:0:0:0:
64,192,60084,1,0,0:0:0:0:
448,192,60191,1,0,0:0:0:0:
192,192,60191,1,0,0:0:0:0:
320,192,60298,1,0,0:0:0:0:
192,192,60405,1,0,0:0:0:0:
448,192,60512,1,0,0:0:0:0:
64,192,60512,1,0,0:0:0:0:
320,192,60619,1,0,0:0:0:0:
64,192,60726,1,0,0:0:0:0:
448,192,60834,1,0,0:0:0:0:
320,192,60834,1,0,0:0:0:0:
192,192,60941,1,0,0:0:0:0:
64,192,61048,1,0,0:0:0:0:
320,192,61155,1,0,0:0:0:0:
448,192,61155,1,0,0:0:0:0:
192,192,61262,1,0,0:0:0:0:
64,192,61369,1,0,0:0:0:0:
448,192,61476,1,0,0:0:0:0:
192,192,61476,1,0,0:0:0:0:
320,192,61584,1,0,0:0:0:0:
64,192,61691,1,0,0:0:0:0:
448,192,61798,1,0,0:0:0:0:
192,192,61798,1,0,0:0:0:0:
320,192,61905,1,0,0:0:0:0:
192,192,62012,1,0,0:0:0:0:
64,192,62119,1,0,0:0:0:0:
448,192,62119,1,0,0:0:0:0:
320,192,62226,1,0,0:0:0:0:
192,192,62334,1,0,0:0:0:0:
402,192,62441,1,0,0:0:0:0:
329,192,63619,1,0,0:0:0:0:
448,192,63619,1,0,0:0:0:0:
182,192,63726,1,0,0:0:0:0:
64,192,63726,1,0,0:0:0:0:
329,192,63834,1,0,0:0:0:0:
448,192,63834,1,0,0:0:0:0:
182,192,63941,1,0,0:0:0:0:
64,192,63941,1,0,0:0:0:0:
256,192,64155,1,0,0:0:0:0:
109,192,64262,1,0,0:0:0:0:
182,192,64369,1,0,0:0:0:0:
329,192,64476,1,0,0:0:0:0:
64,192,64476,1,0,0:0:0:0:
448,192,64584,1,0,0:0:0:0:
192,192,64691,1,0,0:0:0:0:
475,192,64798,1,0,0:0:0:0:
329,192,64905,1,0,0:0:0:0:
182,192,65012,1,0,0:0:0:0:
64,192,65119,1,0,0:0:0:0:
402,192,65226,1,0,0:0:0:0:
192,192,65334,1,0,0:0:0:0:
320,192,65441,1,0,0:0:0:0:
402,192,65548,1,0,0:0:0:0:
329,192,65655,1,0,0:0:0:0:
64,192,65655,1,0,0:0:0:0:
182,192,65762,1,0,0:0:0:0:
109,192,65869,1,0,0:0:0:0:
402,192,65976,1,0,0:0:0:0:
256,192,66084,1,0,0:0:0:0:
192,192,66191,1,0,0:0:0:0:
320,192,66298,1,0,0:0:0:0:
64,192,66298,1,0,0:0:0:0:
192,192,66405,1,0,0:0:0:0:
448,192,66512,1,0,0:0:0:0:
320,192,66619,1,0,0:0:0:0:
192,192,66726,1,0,0:0:0:0:
320,192,66834,1,0,0:0:0:0:
448,192,66834,1,0,0:0:0:0:
64,192,66941,1,0,0:0:0:0:
192,192,67048,1,0,0:0:0:0:
448,192,67048,1,0,0:0:0:0:
320,192,67155,1,0,0:0:0:0:
192,192,67262,1,0,0:0:0:0:
448,192,67369,1,0,0:0:0:0:
64,192,67369,1,0,0:0:0:0:
192,192,67476,1,0,0:0:0:0:
448,192,67584,1,0,0:0:0:0:
320,192,67691,1,0,0:0:0:0:
192,192,67798,1,0,0:0:0:0:
320,192,67905,1,0,0:0:0:0:
448,192,67905,1,0,0:0:0:0:
64,192,68012,1,0,0:0:0:0:
192,192,68119,1,0,0:0:0:0:
448,192,68119,1,0,0:0:0:0:
320,192,68226,1,0,0:0:0:0:
192,192,68334,1,0,0:0:0:0:
448,192,68334,1,0,0:0:0:0:
256,192,68441,1,0,0:0:0:0:
109,192,68548,1,0,0:0:0:0:
182,192,68655,1,0,0:0:0:0:
329,192,68762,1,0,0:0:0:0:
448,192,68762,1,0,0:0:0:0:
64,192,68869,1,0,0:0:0:0:
192,192,68976,1,0,0:0:0:0:
475,192,69084,1,0,0:0:0:0:
329,192,69191,1,0,0:0:0:0:
64,192,69191,1,0,0:0:0:0:
182,192,69298,1,0,0:0:0:0:
320,192,69405,1,0,0:0:0:0:
402,192,69512,1,0,0:0:0:0:
192,192,69619,1,0,0:0:0:0:
36,192,69727,1,0,0:0:0:0:
402,192,69834,1,0,0:0:0:0:
329,192,69941,1,0,0:0:0:0:
182,192,70048,1,0,0:0:0:0:
109,192,70155,1,0,0:0:0:0:
402,192,70262,1,0,0:0:0:0:
256,192,70370,1,0,0:0:0:0:
192,192,70476,1,0,0:0:0:0:
36,192,70584,1,0,0:0:0:0:
320,192,70584,1,0,0:0:0:0:
192,192,70691,1,0,0:0:0:0:
448,192,70798,1,0,0:0:0:0:
320,192,70905,1,0,0:0:0:0:
192,192,71012,1,0,0:0:0:0:
320,192,71119,1,0,0:0:0:0:
448,192,71119,1,0,0:0:0:0:
64,192,71226,1,0,0:0:0:0:
192,192,71334,1,0,0:0:0:0:
448,192,71334,1,0,0:0:0:0:
320,192,71441,1,0,0:0:0:0:
192,192,71548,1,0,0:0:0:0:
475,192,71655,1,0,0:0:0:0:
64,192,71655,1,0,0:0:0:0:
192,192,71762,1,0,0:0:0:0:
320,192,71869,1,0,0:0:0:0:
448,192,71976,1,0,0:0:0:0:
320,192,72084,1,0,0:0:0:0:
192,192,72191,1,0,0:0:0:0:
448,192,72191,1,0,0:0:0:0:
320,192,72298,1,0,0:0:0:0:
64,192,72298,1,0,0:0:0:0:
192,192,72405,1,0,0:0:0:0:
448,192,72405,1,0,0:0:0:0:
64,192,72512,1,0,0:0:0:0:
448,192,72619,1,0,0:0:0:0:
36,192,72726,1,0,0:0:0:0:
320,192,72726,1,0,0:0:0:0:
192,192,72941,1,0,0:0:0:0:
64,192,72941,1,0,0:0:0:0:
448,192,73048,1,0,0:0:0:0:
256,192,73155,1,0,0:0:0:0:
192,192,73155,1,0,0:0:0:0:
109,192,73369,1,0,0:0:0:0:
320,192,73369,1,0,0:0:0:0:
448,192,73369,1,0,0:0:0:0:
192,192,73584,1,0,0:0:0:0:
448,192,73691,1,0,0:0:0:0:
320,192,73798,1,0,0:0:0:0:
192,192,73798,1,0,0:0:0:0:
64,192,73905,1,0,0:0:0:0:
192,192,74012,1,0,0:0:0:0:
448,192,74119,1,0,0:0:0:0:
320,192,74226,1,0,0:0:0:0:
64,192,74226,1,0,0:0:0:0:
192,192,74334,1,0,0:0:0:0:
64,192,74441,1,0,0:0:0:0:
320,192,74441,1,0,0:0:0:0:
320,192,74655,1,0,0:0:0:0:
192,192,74655,1,0,0:0:0:0:
64,192,74655,1,0,0:0:0:0:
192,192,74869,1,0,0:0:0:0:
448,192,74869,1,0,0:0:0:0:
448,192,75084,1,0,0:0:0:0:
320,192,75084,1,0,0:0:0:0:
64,192,75084,1,0,0:0:0:0:
448,192,75298,1,0,0:0:0:0:
320,192,75405,1,0,0:0:0:0:
192,192,75512,1,0,0:0:0:0:
64,192,75512,1,0,0:0:0:0:
448,192,75619,1,0,0:0:0:0:
320,192,75726,1,0,0:0:0:0:
64,192,75834,1,0,0:0:0:0:
320,192,75941,1,0,0:0:0:0:
192,192,76048,1,0,0:0:0:0:
64,192,76155,1,0,0:0:0:0:
320,192,76155,1,0,0:0:0:0:
192,192,76262,1,0,0:0:0:0:
448,192,76262,1,0,0:0:0:0:
320,192,76369,1,0,0:0:0:0:
64,192,76369,1,0,0:0:0:0:
448,192,76476,1,0,0:0:0:0:
192,192,76476,1,0,0:0:0:0:
320,192,76691,1,0,0:0:0:0:
64,192,76691,1,0,0:0:0:0:
448,192,76798,1,0,0:0:0:0:
64,192,76905,1,0,0:0:0:0:
192,192,76905,1,0,0:0:0:0:
192,192,77012,1,0,0:0:0:0:
448,192,77012,1,0,0:0:0:0:
320,192,77119,1,0,0:0:0:0:
64,192,77119,1,0,0:0:0:0:
182,192,77226,1,0,0:0:0:0:
448,192,77226,1,0,0:0:0:0:
320,192,77334,1,0,0:0:0:0:
64,192,77334,1,0,0:0:0:0:
64,192,77548,1,0,0:0:0:0:
192,192,77548,1,0,0:0:0:0:
448,192,77655,1,0,0:0:0:0:
192,192,77762,1,0,0:0:0:0:
320,192,77762,1,0,0:0:0:0:
64,192,77869,1,0,0:0:0:0:
192,192,77976,1,0,0:0:0:0:
64,192,78084,1,0,0:0:0:0:
448,192,78084,1,0,0:0:0:0:
320,192,78191,1,0,0:0:0:0:
448,192,78298,1,0,0:0:0:0:
320,192,78405,1,0,0:0:0:0:
192,192,78512,1,0,0:0:0:0:
448,192,78512,1,0,0:0:0:0:
64,192,78619,1,0,0:0:0:0:
192,192,78726,1,0,0:0:0:0:
320,192,78834,1,0,0:0:0:0:
192,192,78941,1,0,0:0:0:0:
448,192,78941,1,0,0:0:0:0:
64,192,79048,1,0,0:0:0:0:
192,192,79155,1,0,0:0:0:0:
320,192,79262,1,0,0:0:0:0:
448,192,79369,1,0,0:0:0:0:
64,192,79369,1,0,0:0:0:0:
192,192,79476,1,0,0:0:0:0:
320,192,79584,1,0,0:0:0:0:
36,192,79584,1,0,0:0:0:0:
64,192,79798,1,0,0:0:0:0:
192,192,79799,1,0,0:0:0:0:
448,192,79905,1,0,0:0:0:0:
192,192,80013,1,0,0:0:0:0:
256,192,80013,1,0,0:0:0:0:
448,192,80226,1,0,0:0:0:0:
109,192,80227,1,0,0:0:0:0:
320,192,80227,1,0,0:0:0:0:
192,192,80442,1,0,0:0:0:0:
448,192,80549,1,0,0:0:0:0:
192,192,80655,1,0,0:0:0:0:
320,192,80656,1,0,0:0:0:0:
64,192,80763,1,0,0:0:0:0:
192,192,80870,1,0,0:0:0:0:
448,192,80976,1,0,0:0:0:0:
320,192,81084,1,0,0:0:0:0:
64,192,81084,1,0,0:0:0:0:
192,192,81191,1,0,0:0:0:0:
320,192,81298,1,0,0:0:0:0:
64,192,81405,1,0,0:0:0:0:
192,192,81512,1,0,0:0:0:0:
320,192,81513,1,0,0:0:0:0:
64,192,81619,1,0,0:0:0:0:
448,192,81727,1,0,0:0:0:0:
192,192,81727,1,0,0:0:0:0:
64,192,81941,1,0,0:0:0:0:
320,192,81942,1,0,0:0:0:0:
448,192,81942,1,0,0:0:0:0:
448,192,82156,1,0,0:0:0:0:
64,192,82262,1,0,0:0:0:0:
320,192,82263,1,0,0:0:0:0:
192,192,82370,1,0,0:0:0:0:
448,192,82477,1,0,0:0:0:0:
320,192,82584,1,0,0:0:0:0:
192,192,82691,1,0,0:0:0:0:
64,192,82692,1,0,0:0:0:0:
320,192,82799,1,0,0:0:0:0:
192,192,82906,1,0,0:0:0:0:
448,192,83012,1,0,0:0:0:0:
320,192,83013,1,0,0:0:0:0:
64,192,83013,1,0,0:0:0:0:
448,192,83119,1,0,0:0:0:0:
192,192,83120,1,0,0:0:0:0:
64,192,83227,1,0,0:0:0:0:
320,192,83227,1,0,0:0:0:0:
448,192,83334,1,0,0:0:0:0:
192,192,83334,1,0,0:0:0:0:
320,192,83549,1,0,0:0:0:0:
64,192,83549,1,0,0:0:0:0:
448,192,83655,1,0,0:0:0:0:
64,192,83763,1,0,0:0:0:0:
192,192,83763,1,0,0:0:0:0:
448,192,83870,1,0,0:0:0:0:
192,192,83870,1,0,0:0:0:0:
64,192,83976,1,0,0:0:0:0:
320,192,83977,1,0,0:0:0:0:
182,192,84084,1,0,0:0:0:0:
448,192,84084,1,0,0:0:0:0:
64,192,84192,1,0,0:0:0:0:
320,192,84192,1,0,0:0:0:0:
64,192,84406,1,0,0:0:0:0:
192,192,84406,1,0,0:0:0:0:
448,192,84512,1,0,0:0:0:0:
320,192,84619,1,0,0:0:0:0:
192,192,84620,1,0,0:0:0:0:
64,192,84727,1,0,0:0:0:0:
192,192,84834,1,0,0:0:0:0:
448,192,84941,1,0,0:0:0:0:
64,192,84942,1,0,0:0:0:0:
320,192,85049,1,0,0:0:0:0:
448,192,85156,1,0,0:0:0:0:
320,192,85263,1,0,0:0:0:0:
448,192,85369,1,0,0:0:0:0:
192,192,85370,1,0,0:0:0:0:
64,192,85477,1,0,0:0:0:0:
192,192,85584,1,0,0:0:0:0:
320,192,85692,1,0,0:0:0:0:
448,192,85798,1,0,0:0:0:0:
192,192,85799,1,0,0:0:0:0:
64,192,85906,1,0,0:0:0:0:
192,192,86013,1,0,0:0:0:0:
320,192,86120,1,0,0:0:0:0:
64,192,86226,1,0,0:0:0:0:
448,192,86227,1,0,0:0:0:0:
192,192,86334,1,0,0:0:0:0:
64,192,86441,1,0,0:0:0:0:
448,192,86441,1,0,0:0:0:0:
320,192,86441,1,0,0:0:0:0:
192,192,86548,1,0,0:0:0:0:
320,192,86655,1,0,0:0:0:0:
448,192,86762,1,0,0:0:0:0:
64,192,86762,1,0,0:0:0:0:
320,192,86869,1,0,0:0:0:0:
192,192,86976,1,0,0:0:0:0:
64,192,87084,1,0,0:0:0:0:
448,192,87084,1,0,0:0:0:0:
320,192,87084,1,0,0:0:0:0:
192,192,87191,1,0,0:0:0:0:
320,192,87298,1,0,0:0:0:0:
448,192,87405,1,0,0:0:0:0:
320,192,87512,1,0,0:0:0:0:
192,192,87619,1,0,0:0:0:0:
448,192,87726,1,0,0:0:0:0:
64,192,87834,1,0,0:0:0:0:
320,192,87941,1,0,0:0:0:0:
192,192,88048,1,0,0:0:0:0:
64,192,88155,1,0,0:0:0:0:
320,192,88155,1,0,0:0:0:0:
64,192,88369,1,0,0:0:0:0:
320,192,88369,1,0,0:0:0:0:
192,192,88476,1,0,0:0:0:0:
448,192,88476,1,0,0:0:0:0:
192,192,88691,1,0,0:0:0:0:
448,192,88691,1,0,0:0:0:0:
109,192,88798,1,0,0:0:0:0:
192,192,88798,1,0,0:0:0:0:
64,192,89012,1,0,0:0:0:0:
320,192,89012,1,0,0:0:0:0:
192,192,89119,1,0,0:0:0:0:
320,192,89119,1,0,0:0:0:0:
448,192,89119,1,0,0:0:0:0:
448,192,89441,1,0,0:0:0:0:
64,192,89441,1,0,0:0:0:0:
192,192,89548,1,0,0:0:0:0:
64,192,89655,1,0,0:0:0:0:
448,192,89655,1,0,0:0:0:0:
192,192,89762,1,0,0:0:0:0:
64,192,89869,1,0,0:0:0:0:
448,192,89869,1,0,0:0:0:0:
320,192,89869,1,0,0:0:0:0:
192,192,89976,1,0,0:0:0:0:
320,192,90084,1,0,0:0:0:0:
448,192,90191,1,0,0:0:0:0:
64,192,90191,1,0,0:0:0:0:
320,192,90298,1,0,0:0:0:0:
192,192,90405,1,0,0:0:0:0:
64,192,90512,1,0,0:0:0:0:
448,192,90512,1,0,0:0:0:0:
320,192,90512,1,0,0:0:0:0:
192,192,90619,1,0,0:0:0:0:
320,192,90726,1,0,0:0:0:0:
448,192,90834,1,0,0:0:0:0:
320,192,90941,1,0,0:0:0:0:
192,192,91048,1,0,0:0:0:0:
448,192,91155,1,0,0:0:0:0:
64,192,91262,1,0,0:0:0:0:
320,192,91369,1,0,0:0:0:0:
192,192,91476,1,0,0:0:0:0:
320,192,91584,1,0,0:0:0:0:
64,192,91584,1,0,0:0:0:0:
64,192,91798,1,0,0:0:0:0:
320,192,91798,1,0,0:0:0:0:
402,192,91904,1,0,0:0:0:0:
192,192,91905,1,0,0:0:0:0:
192,192,92119,1,0,0:0:0:0:
448,192,92119,1,0,0:0:0:0:
109,192,92226,1,0,0:0:0:0:
192,192,92226,1,0,0:0:0:0:
448,192,92441,1,0,0:0:0:0:
320,192,92441,1,0,0:0:0:0:
64,192,92548,1,0,0:0:0:0:
448,192,92548,1,0,0:0:0:0:
192,192,92548,1,0,0:0:0:0:
64,192,92976,1,0,0:0:0:0:
448,192,93084,1,0,0:0:0:0:
320,192,93191,1,0,0:0:0:0:
192,192,93298,1,0,0:0:0:0:
448,192,93298,1,0,0:0:0:0:
64,192,93298,1,0,0:0:0:0:
320,192,93405,1,0,0:0:0:0:
64,192,93512,1,0,0:0:0:0:
192,192,93619,1,0,0:0:0:0:
320,192,93726,1,0,0:0:0:0:
192,192,93834,1,0,0:0:0:0:
475,192,93941,1,0,0:0:0:0:
64,192,93941,1,0,0:0:0:0:
320,192,94048,1,0,0:0:0:0:
182,192,94155,1,0,0:0:0:0:
448,192,94155,1,0,0:0:0:0:
64,192,94262,1,0,0:0:0:0:
475,192,94369,1,0,0:0:0:0:
320,192,94369,1,0,0:0:0:0:
192,192,94476,1,0,0:0:0:0:
320,192,94584,1,0,0:0:0:0:
64,192,94584,1,0,0:0:0:0:
192,192,94691,1,0,0:0:0:0:
448,192,94798,1,0,0:0:0:0:
320,192,94798,1,0,0:0:0:0:
192,192,94905,1,0,0:0:0:0:
320,192,95012,1,0,0:0:0:0:
64,192,95012,1,0,0:0:0:0:
192,192,95119,1,0,0:0:0:0:
448,192,95226,1,0,0:0:0:0:
64,192,95226,1,0,0:0:0:0:
192,192,95334,1,0,0:0:0:0:
320,192,95441,1,0,0:0:0:0:
448,192,95441,1,0,0:0:0:0:
192,192,95548,1,0,0:0:0:0:
320,192,95655,1,0,0:0:0:0:
64,192,95655,1,0,0:0:0:0:
192,192,95762,1,0,0:0:0:0:
64,192,95869,1,0,0:0:0:0:
448,192,95869,1,0,0:0:0:0:
192,192,95976,1,0,0:0:0:0:
448,192,96084,1,0,0:0:0:0:
192,192,96191,1,0,0:0:0:0:
64,192,96191,1,0,0:0:0:0:
320,192,96298,1,0,0:0:0:0:
64,192,96405,1,0,0:0:0:0:
320,192,96512,1,0,0:0:0:0:
448,192,96512,1,0,0:0:0:0:
182,192,96619,1,0,0:0:0:0:
64,192,96726,1,0,0:0:0:0:
320,192,96726,1,0,0:0:0:0:
475,192,96833,1,0,0:0:0:0:
192,192,96940,1,0,0:0:0:0:
64,192,96941,1,0,0:0:0:0:
320,192,97048,1,0,0:0:0:0:
192,192,97155,1,0,0:0:0:0:
64,192,97155,1,0,0:0:0:0:
320,192,97262,1,0,0:0:0:0:
64,192,97369,1,0,0:0:0:0:
448,192,97369,1,0,0:0:0:0:
320,192,97476,1,0,0:0:0:0:
192,192,97583,1,0,0:0:0:0:
64,192,97584,1,0,0:0:0:0:
320,192,97691,1,0,0:0:0:0:
192,192,97798,1,0,0:0:0:0:
448,192,97798,1,0,0:0:0:0:
320,192,97905,1,0,0:0:0:0:
64,192,98012,1,0,0:0:0:0:
192,192,98012,1,0,0:0:0:0:
320,192,98119,1,0,0:0:0:0:
192,192,98226,1,0,0:0:0:0:
448,192,98226,1,0,0:0:0:0:
64,192,98333,1,0,0:0:0:0:
320,192,98334,1,0,0:0:0:0:
192,192,98440,1,0,0:0:0:0:
64,192,98548,1,0,0:0:0:0:
448,192,98655,1,0,0:0:0:0:
192,192,98655,1,0,0:0:0:0:
320,192,98762,1,0,0:0:0:0:
192,192,98869,1,0,0:0:0:0:
64,192,98976,1,0,0:0:0:0:
320,192,98976,1,0,0:0:0:0:
448,192,99084,1,0,0:0:0:0:
192,192,99084,1,0,0:0:0:0:
320,192,99191,1,0,0:0:0:0:
64,192,99297,1,0,0:0:0:0:
192,192,99298,1,0,0:0:0:0:
320,192,99405,1,0,0:0:0:0:
192,192,99511,1,0,0:0:0:0:
448,192,99512,1,0,0:0:0:0:
320,192,99619,1,0,0:0:0:0:
192,192,99726,1,0,0:0:0:0:
64,192,99726,1,0,0:0:0:0:
320,192,99834,1,0,0:0:0:0:
64,192,99940,1,0,0:0:0:0:
448,192,99941,1,0,0:0:0:0:
320,192,100047,1,0,0:0:0:0:
192,192,100154,1,0,0:0:0:0:
64,192,100155,1,0,0:0:0:0:
320,192,100262,1,0,0:0:0:0:
192,192,100369,1,0,0:0:0:0:
448,192,100369,1,0,0:0:0:0:
320,192,100476,1,0,0:0:0:0:
64,192,100583,1,0,0:0:0:0:
192,192,100584,1,0,0:0:0:0:
320,192,100690,1,0,0:0:0:0:
192,192,100797,1,0,0:0:0:0:
448,192,100798,1,0,0:0:0:0:
64,192,100904,1,0,0:0:0:0:
320,192,100905,1,0,0:0:0:0:
192,192,101012,1,0,0:0:0:0:
64,192,101119,1,0,0:0:0:0:
320,192,101119,1,0,0:0:0:0:
192,192,101226,1,0,0:0:0:0:
320,192,101334,1,0,0:0:0:0:
448,192,101441,1,0,0:0:0:0:
192,192,101441,1,0,0:0:0:0:
320,192,101548,1,0,0:0:0:0:
64,192,101655,1,0,0:0:0:0:
448,192,101655,1,0,0:0:0:0:
192,192,101655,1,0,0:0:0:0:
320,192,101762,1,0,0:0:0:0:
192,192,101869,1,0,0:0:0:0:
448,192,101869,1,0,0:0:0:0:
64,192,101976,1,0,0:0:0:0:
448,192,102084,1,0,0:0:0:0:
320,192,102084,1,0,0:0:0:0:
192,192,102191,1,0,0:0:0:0:
64,192,102298,1,0,0:0:0:0:
448,192,102298,1,0,0:0:0:0:
320,192,102298,1,0,0:0:0:0:
192,192,102405,1,0,0:0:0:0:
64,192,102512,1,0,0:0:0:0:
448,192,102512,1,0,0:0:0:0:
320,192,102619,1,0,0:0:0:0:
192,192,102726,1,0,0:0:0:0:
64,192,102726,1,0,0:0:0:0:
320,192,102834,1,0,0:0:0:0:
192,192,102941,1,0,0:0:0:0:
64,192,102941,1,0,0:0:0:0:
448,192,102941,1,0,0:0:0:0:
320,192,103048,1,0,0:0:0:0:
64,192,103155,1,0,0:0:0:0:
448,192,103155,1,0,0:0:0:0:
320,192,103262,1,0,0:0:0:0:
192,192,103369,1,0,0:0:0:0:
64,192,103369,1,0,0:0:0:0:
320,192,103476,1,0,0:0:0:0:
448,192,103476,1,0,0:0:0:0:
192,192,103584,1,0,0:0:0:0:
320,192,103691,1,0,0:0:0:0:
192,192,103798,1,0,0:0:0:0:
64,192,103905,1,0,0:0:0:0:
192,192,104012,1,0,0:0:0:0:
320,192,104119,1,0,0:0:0:0:
448,192,104226,1,0,0:0:0:0:
192,192,104226,1,0,0:0:0:0:
64,192,104226,128,0,104762:0:0:0:0:
320,192,104762,1,0,0:0:0:0:
448,192,104762,1,0,0:0:0:0:
192,192,104762,128,0,105298:0:0:0:0:
64,192,105298,1,0,0:0:0:0:
448,192,105298,1,0,0:0:0:0:
320,192,105298,128,0,105834:0:0:0:0:
192,192,105834,128,0,108084:0:0:0:0:
448,192,105834,128,0,108084:0:0:0:0:
64,192,105834,128,0,108084:0:0:0:0:
