osu file format v12

[General]
AudioFilename: IIDX Tricoro.mp3
AudioLeadIn: 3000
PreviewTime: 24918
Countdown: 1
SampleSet: Soft
StackLeniency: 0.7
Mode: 0
LetterboxInBreaks: 1

[Editor]
Bookmarks: 45282,59827,71464,83100,93282,93646,94009,94373,94736,106373
DistanceSpacing: 0.8
BeatDivisor: 4
GridSize: 4

[Metadata]
Title:Dragon to Shoujo to Decoherence
TitleUnicode:龍と少女とデコヒーレンス
Artist:Kuroneko Dungeon
ArtistUnicode:黒猫ダンジョン
Creator:wantuole
Version:Normal
Source:beatmania IIDX 20 tricoro
Tags:Tomosuke
BeatmapID:236112
BeatmapSetID:82390

[Difficulty]
HPDrainRate:4
CircleSize:4
OverallDifficulty:4
ApproachRate:5
SliderMultiplier:1
SliderTickRate:1

[Events]
//Background and Video events
Video,0,"video.avi"
0,0,"bg.jpg",1,1
//Break Periods
2,13482,17900
2,48391,58627
2,71664,81900
2,83300,84809
2,86209,87718
2,89118,90627
//Storyboard Layer 0 (Background)
//Storyboard Layer 1 (Fail)
//Storyboard Layer 2 (Pass)
//Storyboard Layer 3 (Foreground)
//Storyboard Sound Samples
//Background Colour Transformations
3,100,163,162,255

[TimingPoints]
1646,363.636363636364,4,2,1,55,1,0
22009,-100,4,2,1,55,0,0
24918,-100,4,2,1,55,0,1
25009,-100,4,2,1,55,0,0
91827,-200,4,2,1,55,0,0
94736,-100,4,2,1,55,0,1
94827,-100,4,2,1,55,0,0
120827,-100,4,2,1,5,0,0

[Colours]
Combo1 : 255,255,255
Combo2 : 255,135,77
Combo3 : 10,166,211
Combo4 : 236,0,236

[HitObjects]
100,184,1646,2,0,P|156:176|184:128,1,100,2|0,0:0|0:0,0:0:0:0:
204,68,2373,1,0,0:0:0:0:
284,52,2736,1,0,0:0:0:0:
344,104,3100,6,0,P|372:156|376:208,1,100,2|0,0:0|0:0,0:0:0:0:
388,276,3827,1,0,0:0:0:0:
316,316,4191,1,0,0:0:0:0:
248,276,4555,6,0,L|144:296,1,100,2|0,0:0|0:0,0:0:0:0:
72,308,5282,1,0,0:0:0:0:
16,252,5646,1,0,0:0:0:0:
44,180,6009,6,0,L|160:164,1,100,2|0,0:0|0:0,0:0:0:0:
220,152,6736,1,0,0:0:0:0:
216,72,7100,1,0,0:0:0:0:
292,116,7464,6,0,P|356:124|400:148,2,100,4|0|0,0:0|0:0|0:0,0:0:0:0:
244,180,8555,1,0,0:0:0:0:
316,228,8918,6,0,P|332:284|312:340,1,100
244,336,9646,1,0,0:0:0:0:
176,292,10009,1,0,0:0:0:0:
92,284,10373,6,0,L|120:180,1,100,2|0,0:0|0:0,0:0:0:0:
108,112,11100,1,0,0:0:0:0:
164,52,11464,1,0,0:0:0:0:
240,32,11827,5,0,0:0:0:0:
320,48,12191,1,0,0:0:0:0:
372,112,12555,1,0,0:0:0:0:
380,192,12918,1,0,0:0:0:0:
356,268,13282,5,4,0:0:0:0:
256,192,19100,5,4,0:0:0:0:
256,192,20555,5,4,0:0:0:0:
296,200,22009,6,0,P|268:248|208:256,1,100,4|0,0:0|0:0,0:0:0:0:
220,180,22736,2,0,P|248:132|308:124,1,100,4|0,0:0|0:0,0:0:0:0:
256,192,23464,12,0,24555,0:0:0:0:
328,248,24918,6,0,P|348:205|348:153,2,100,4|8|0,0:0|0:0|0:0,0:0:0:0:
256,284,26009,1,8,0:0:0:0:
184,248,26373,6,0,P|163:205|163:153,2,100,0|8|0,0:0|0:0|0:0,0:0:0:0:
120,296,27464,1,8,0:0:0:0:
48,264,27827,6,0,P|64:212|48:160,1,100,0|8,0:0|0:0,0:0:0:0:
32,92,28555,2,0,B|68:60|68:60|132:60,1,100,0|8,0:0|0:0,0:0:0:0:
144,136,29282,6,0,P|180:152|252:128,2,100,0|8|0,0:0|0:0|0:0,0:0:0:0:
196,76,30373,1,8,0:0:0:0:
276,60,30736,6,0,P|332:56|372:92,1,100,0|8,0:0|0:0,0:0:0:0:
308,136,31464,2,0,P|304:192|328:225,1,100,0|8,0:0|0:0,0:0:0:0:
388,172,32191,6,0,L|388:272,1,100,0|8,0:0|0:0,0:0:0:0:
328,324,32918,2,0,P|279:313|231:325,1,100,0|8,0:0|0:0,0:0:0:0:
164,280,33646,6,0,L|164:176,2,100,0|8|0,0:0|0:0|0:0,0:0:0:0:
100,328,34736,1,8,0:0:0:0:
24,280,35100,6,0,P|8:224|28:184,1,100,0|8,0:0|0:0,0:0:0:0:
92,232,35827,2,0,P|108:196|92:140,1,100,0|8,0:0|0:0,0:0:0:0:
20,100,36555,5,4,0:0:0:0:
80,48,36918,1,0,0:0:0:0:
160,48,37282,2,0,L|268:48,1,100,0|8,0:0|0:0,0:0:0:0:
336,24,38009,6,0,P|352:88|336:128,1,100,0|0,0:0|0:0,0:0:0:0:
328,200,38736,2,0,P|376:216|408:268,1,100,0|8,0:0|0:0,0:0:0:0:
328,284,39464,5,0,0:0:0:0:
252,264,39827,1,0,0:0:0:0:
184,308,40191,2,0,P|128:308|80:272,1,100,0|8,0:0|0:0,0:0:0:0:
48,220,40918,6,0,P|48:164|80:112,1,100
124,68,41646,1,0,0:0:0:0:
204,68,42009,1,8,0:0:0:0:
268,116,42373,6,0,P|308:88|368:72,2,100
256,196,43464,1,8,0:0:0:0:
208,260,43827,6,0,P|152:272|108:304,2,100
288,276,44918,1,8,0:0:0:0:
360,240,45282,5,0,0:0:0:0:
400,172,45646,1,8,0:0:0:0:
388,92,46009,1,0,0:0:0:0:
324,40,46373,1,8,0:0:0:0:
312,120,46736,5,0,0:0:0:0:
236,140,47100,1,8,0:0:0:0:
156,128,47464,1,0,0:0:0:0:
100,72,47827,1,8,0:0:0:0:
80,148,48191,5,4,0:0:0:0:
56,84,59827,6,0,P|136:44|200:128,1,200,2|0,0:0|0:0,0:0:0:0:
156,184,60918,1,0,0:0:0:0:
160,264,61282,6,0,P|188:320|228:336,1,100,0|0,0:0|0:0,0:0:0:0:
240,256,62009,2,0,P|300:264|344:232,1,100
408,274,62736,6,0,P|468:198|415:127,1,200,2|0,0:0|0:0,0:0:0:0:
372,60,63827,1,0,0:0:0:0:
296,80,64191,6,0,P|252:68|184:68,1,100
184,144,64918,2,0,P|141:155|76:194,1,100
76,260,65646,6,0,P|152:296|264:260,1,200,2|0,0:0|0:0,0:0:0:0:
248,184,66736,1,0,0:0:0:0:
280,112,67100,6,0,P|324:92|384:112,1,100
332,172,67827,2,0,P|384:188|431:164,1,100
452,248,68555,6,0,P|440:296|388:344,1,100,2|0,0:0|0:0,0:0:0:0:
328,316,69282,1,0,0:0:0:0:
252,344,69646,1,0,0:0:0:0:
176,316,70009,6,0,P|160:256|184:208,1,100
180,144,70736,2,0,P|232:136|296:148,1,100
336,200,71464,5,4,0:0:0:0:
256,192,83100,5,4,0:0:0:0:
256,192,86009,5,4,0:0:0:0:
256,192,88918,5,4,0:0:0:0:
256,192,91827,5,4,0:0:0:0:
256,192,92191,12,0,93827,0:0:0:0:
304,180,94736,5,4,0:0:0:0:
240,228,95100,1,8,0:0:0:0:
160,224,95464,1,0,0:0:0:0:
100,172,95827,1,8,0:0:0:0:
96,92,96191,5,2,0:0:0:0:
88,252,96918,1,0,0:0:0:0:
96,92,97646,6,0,L|204:64,1,100,4|8,0:0|0:0,0:0:0:0:
236,136,98373,2,0,L|344:108,1,100,0|8,0:0|0:0,0:0:0:0:
408,144,99100,5,2,0:0:0:0:
440,300,99827,1,0,0:0:0:0:
408,144,100555,5,4,0:0:0:0:
328,144,100918,1,8,0:0:0:0:
288,216,101282,1,0,0:0:0:0:
208,216,101646,1,8,0:0:0:0:
164,284,102009,5,2,0:0:0:0:
248,148,102736,1,0,0:0:0:0:
164,284,103464,6,0,P|120:248|104:204,1,100,4|8,0:0|0:0,0:0:0:0:
36,168,104191,2,0,P|100:128|140:132,1,100,0|8,0:0|0:0,0:0:0:0:
200,148,104918,5,2,0:0:0:0:
280,140,105282,1,8,0:0:0:0:
352,108,105646,1,0,0:0:0:0:
408,52,106009,1,8,0:0:0:0:
428,128,106373,6,0,P|416:180|432:232,1,100,4|8,0:0|0:0,0:0:0:0:
444,304,107100,2,0,L|340:336,1,100,0|8,0:0|0:0,0:0:0:0:
324,252,107827,5,2,0:0:0:0:
324,252,108191,1,8,0:0:0:0:
256,296,108555,1,0,0:0:0:0:
256,296,108918,1,8,0:0:0:0:
188,252,109282,6,0,P|124:264|84:256,1,100,4|8,0:0|0:0,0:0:0:0:
92,176,110009,2,0,P|80:139|79:78,1,100,0|8,0:0|0:0,0:0:0:0:
164,88,110736,5,2,0:0:0:0:
164,88,111100,1,8,0:0:0:0:
240,64,111464,1,0,0:0:0:0:
240,64,111827,1,8,0:0:0:0:
308,108,112191,6,0,P|357:127|395:172,1,100,0|8,0:0|0:0,0:0:0:0:
452,208,112918,2,0,P|436:252|384:292,1,100,0|8,0:0|0:0,0:0:0:0:
320,264,113646,5,2,0:0:0:0:
320,264,114009,1,8,0:0:0:0:
256,316,114373,1,0,0:0:0:0:
256,316,114736,1,8,0:0:0:0:
196,264,115100,5,4,0:0:0:0:
160,192,115464,1,8,0:0:0:0:
192,120,115827,1,0,0:0:0:0:
256,72,116191,1,8,0:0:0:0:
320,120,116555,5,4,0:0:0:0:
352,192,116918,1,8,0:0:0:0:
316,264,117282,1,0,0:0:0:0:
256,320,117646,1,8,0:0:0:0:
256,192,118009,12,0,120827,0:0:0:0:
256,192,120918,12,0,125282,0:0:0:0:
