osu file format v12

[General]
AudioFilename: IIDX Tricoro.mp3
AudioLeadIn: 3000
PreviewTime: 24918
Countdown: 1
SampleSet: Soft
StackLeniency: 0.7
Mode: 0
LetterboxInBreaks: 1

[Editor]
Bookmarks: 45282,59827,71464,83100,93282,93646,94009,94373,94736,106373
DistanceSpacing: 0.6
BeatDivisor: 4
GridSize: 16

[Metadata]
Title:Dragon to Shoujo to Decoherence
TitleUnicode:龍と少女とデコヒーレンス
Artist:Kuroneko Dungeon
ArtistUnicode:黒猫ダンジョン
Creator:wantuole
Version:Insane
Source:beatmania IIDX 20 tricoro
Tags:Tomosuke
BeatmapID:235302
BeatmapSetID:82390

[Difficulty]
HPDrainRate:5
CircleSize:4
OverallDifficulty:6
ApproachRate:8
SliderMultiplier:1.6
SliderTickRate:1

[Events]
//Background and Video events
Video,0,"video.avi"
0,0,"bg.jpg",1,1
//Break Periods
2,13482,18350
2,48391,59077
2,71664,82350
2,83300,85259
2,86209,88168
2,89118,91077
//Storyboard Layer 0 (Background)
//Storyboard Layer 1 (Fail)
//Storyboard Layer 2 (Pass)
//Storyboard Layer 3 (Foreground)
//Storyboard Sound Samples
//Background Colour Transformations
3,100,163,162,255

[TimingPoints]
1646,363.636363636364,4,2,1,55,1,0
19464,-100,4,2,1,25,0,0
20555,-100,4,2,1,55,0,0
20918,-100,4,2,1,25,0,0
22009,-100,4,2,1,55,0,0
24918,-100,4,2,1,55,0,1
25009,-100,4,2,1,55,0,0
91827,-200,4,2,1,55,0,0
94736,-100,4,2,1,55,0,1
94827,-100,4,2,1,55,0,0
120827,-100,4,2,1,5,0,0

[Colours]
Combo1 : 255,255,255
Combo2 : 255,135,77
Combo3 : 10,166,211
Combo4 : 236,0,236

[HitObjects]
52,108,1646,2,0,P|56:168|44:216,1,80,2|0,0:0|0:0,0:0:0:0:
48,212,1918,1,0,0:0:0:0:
40,236,2009,2,0,B|68:267|68:267|123:284,1,80
240,304,2373,1,2,0:0:0:0:
252,296,2464,1,0,0:0:0:0:
264,288,2555,1,0,0:0:0:0:
276,280,2646,1,0,0:0:0:0:
288,272,2736,2,0,P|284:220|260:168,1,80
320,64,3100,6,0,L|404:48,1,80,2|0,0:0|0:0,0:0:0:0:
428,152,3464,2,0,L|476:144,2,40
368,308,3827,1,0,0:0:0:0:
184,240,4009,1,0,0:0:0:0:
176,216,4100,1,0,0:0:0:0:
172,192,4191,2,0,P|172:148|196:112,1,80
334,142,4555,6,0,L|320:64,1,80,2|0,0:0|0:0,0:0:0:0:
442,230,4918,2,0,L|428:152,1,80,0|0,0:0|0:0,0:0:0:0:
352,232,5282,1,2,0:0:0:0:
332,244,5373,1,0,0:0:0:0:
316,260,5464,1,0,0:0:0:0:
304,280,5555,1,0,0:0:0:0:
296,304,5646,2,0,P|252:308|188:280,1,80
120,248,6009,6,0,L|26:273,1,80,2|0,0:0|0:0,0:0:0:0:
49,171,6373,2,0,L|136:149,1,80,0|0,0:0|0:0,0:0:0:0:
32,64,6736,1,2,0:0:0:0:
56,68,6827,1,0,0:0:0:0:
80,68,6918,1,0,0:0:0:0:
104,68,7009,1,0,0:0:0:0:
128,68,7100,1,0,0:0:0:0:
152,64,7191,1,0,0:0:0:0:
176,56,7282,1,0,0:0:0:0:
256,112,7464,5,4,0:0:0:0:
356,256,7827,2,0,L|440:216,1,80,8|0,0:0|0:0,0:0:0:0:
348,120,8191,1,2,0:0:0:0:
340,144,8282,1,0,0:0:0:0:
332,168,8373,1,0,0:0:0:0:
188,232,8555,2,0,L|280:232,1,80,8|0,0:0|0:0,0:0:0:0:
48,304,8918,6,0,L|140:304,1,80,2|0,0:0|0:0,0:0:0:0:
220,320,9282,1,8,0:0:0:0:
100,200,9464,1,0,0:0:0:0:
188,232,9646,1,0,0:0:0:0:
192,216,9736,1,0,0:0:0:0:
192,200,9827,2,0,P|180:140|152:120,1,80,0|8,0:0|0:0,0:0:0:0:
76,104,10191,1,0,0:0:0:0:
140,32,10373,6,0,P|188:28|228:36,1,80,2|0,0:0|0:0,0:0:0:0:
288,100,10736,2,0,P|319:105|367:101,1,80,8|0,0:0|0:0,0:0:0:0:
456,60,11100,1,0,0:0:0:0:
452,156,11282,1,0,0:0:0:0:
444,180,11373,1,0,0:0:0:0:
436,204,11464,2,0,P|444:256|484:300,1,80,8|0,0:0|0:0,0:0:0:0:
324,328,11827,6,0,L|220:344,1,80,2|0,0:0|0:0,0:0:0:0:
356,232,12191,2,0,L|252:248,1,80,8|0,0:0|0:0,0:0:0:0:
176,280,12555,1,0,0:0:0:0:
160,300,12646,1,0,0:0:0:0:
144,320,12736,1,0,0:0:0:0:
136,192,12918,1,8,0:0:0:0:
120,212,13009,1,0,0:0:0:0:
104,232,13099,1,0,0:0:0:0:
84,104,13282,5,4,0:0:0:0:
428,280,19100,5,4,0:0:0:0:
428,280,19464,1,0,0:0:0:0:
428,104,20555,5,4,0:0:0:0:
428,104,20919,1,0,0:0:0:0:
272,192,22009,5,4,0:0:0:0:
264,96,22191,2,0,L|304:68,4,40,0|0|8|0|0,0:0|0:0|0:0|0:0|0:0,0:0:0:0:
180,140,22736,5,4,0:0:0:0:
172,236,22918,2,0,L|132:264,4,40,0|0|8|0|0,0:0|0:0|0:0|0:0|0:0,0:0:0:0:
96,292,23464,5,4,0:0:0:0:
184,328,23646,1,0,0:0:0:0:
264,276,23827,1,4,0:0:0:0:
356,304,24009,1,0,0:0:0:0:
424,236,24191,1,0,0:0:0:0:
428,212,24282,1,0,0:0:0:0:
432,188,24373,1,0,0:0:0:0:
436,164,24464,1,0,0:0:0:0:
440,140,24555,1,4,0:0:0:0:
440,140,24918,5,4,0:0:0:0:
416,132,25009,1,0,0:0:0:0:
392,128,25100,1,0,0:0:0:0:
368,128,25191,1,0,0:0:0:0:
344,136,25282,2,0,P|320:180|320:228,1,80,8|0,0:0|0:0,0:0:0:0:
248,272,25646,2,0,P|248:312|228:356,2,80,0|0|8,0:0|0:0|0:0,0:0:0:0:
236,184,26191,1,0,0:0:0:0:
160,296,26373,6,0,P|120:316|56:312,1,80
56,304,26646,1,0,0:0:0:0:
60,272,26736,2,0,P|64:232|52:188,1,80,8|0,0:0|0:0,0:0:0:0:
32,72,27100,1,0,0:0:0:0:
112,124,27282,1,0,0:0:0:0:
136,121,27373,1,0,0:0:0:0:
160,119,27464,1,8,0:0:0:0:
184,116,27555,1,0,0:0:0:0:
200,100,27646,1,0,0:0:0:0:
296,56,27827,5,0,0:0:0:0:
372,128,28009,1,0,0:0:0:0:
392,116,28100,1,0,0:0:0:0:
412,104,28191,2,0,L|404:216,1,80,8|0,0:0|0:0,0:0:0:0:
424,356,28555,2,0,L|432:244,1,80
312,204,28918,1,8,0:0:0:0:
306,225,29009,1,0,0:0:0:0:
305,248,29100,1,0,0:0:0:0:
308,270,29191,1,0,0:0:0:0:
313,294,29282,6,0,L|200:304,1,80
176,360,29646,1,8,0:0:0:0:
108,208,29827,1,0,0:0:0:0:
80,288,30009,1,0,0:0:0:0:
104,292,30100,1,0,0:0:0:0:
128,288,30191,1,0,0:0:0:0:
152,280,30282,1,0,0:0:0:0:
172,264,30373,2,0,P|188:196|172:168,1,80,8|0,0:0|0:0,0:0:0:0:
120,120,30736,5,0,0:0:0:0:
192,48,30918,1,0,0:0:0:0:
216,48,31009,1,0,0:0:0:0:
240,48,31100,2,0,P|251:96|239:143,1,80,8|0,0:0|0:0,0:0:0:0:
208,208,31464,2,0,L|259:238,2,40
244,308,31827,1,8,0:0:0:0:
260,326,31918,1,0,0:0:0:0:
283,335,32009,1,0,0:0:0:0:
344,264,32191,6,0,P|384:284|448:280,1,80
444,284,32464,1,0,0:0:0:0:
460,268,32554,2,0,L|468:184,1,80,8|0,0:0|0:0,0:0:0:0:
468,60,32918,2,0,P|424:56|372:72,1,80
368,76,33191,1,0,0:0:0:0:
352,92,33282,1,8,0:0:0:0:
268,140,33464,1,0,0:0:0:0:
224,64,33645,5,0,0:0:0:0:
140,104,33827,1,0,0:0:0:0:
116,104,33918,1,0,0:0:0:0:
92,96,34009,2,0,L|4:152,1,80,8|0,0:0|0:0,0:0:0:0:
64,296,34373,2,0,L|70:216,1,80
176,312,34736,1,8,0:0:0:0:
200,320,34827,1,0,0:0:0:0:
224,328,34918,1,0,0:0:0:0:
172,112,35100,6,0,L|165:191,1,80,0|0,0:0|0:0,0:0:0:0:
288,224,35464,1,8,0:0:0:0:
264,232,35555,1,0,0:0:0:0:
244,240,35645,1,0,0:0:0:0:
408,212,35827,1,0,0:0:0:0:
385,204,35918,1,0,0:0:0:0:
366,188,36009,1,0,0:0:0:0:
350,170,36100,1,0,0:0:0:0:
340,146,36191,2,0,P|342:78|358:54,1,80,8|0,0:0|0:0,0:0:0:0:
432,112,36555,5,4,0:0:0:0:
408,212,36736,1,0,0:0:0:0:
413,236,36827,1,0,0:0:0:0:
418,261,36918,2,0,L|344:308,1,80,8|0,0:0|0:0,0:0:0:0:
208,212,37282,2,0,L|288:224,1,80,0|0,0:0|0:0,0:0:0:0:
172,324,37646,1,8,0:0:0:0:
196,320,37736,1,0,0:0:0:0:
220,312,37827,1,0,0:0:0:0:
68,328,38009,6,0,P|72:284|68:244,1,80
36,168,38373,1,8,0:0:0:0:
88,96,38555,1,0,0:0:0:0:
200,124,38736,1,0,0:0:0:0:
180,112,38827,1,0,0:0:0:0:
180,88,38918,1,0,0:0:0:0:
176,64,39009,1,0,0:0:0:0:
168,40,39100,1,8,0:0:0:0:
268,56,39282,1,0,0:0:0:0:
292,152,39464,6,0,L|405:142,1,80
408,76,39828,1,8,0:0:0:0:
384,300,40009,1,0,0:0:0:0:
412,224,40191,1,0,0:0:0:0:
388,220,40282,1,0,0:0:0:0:
364,224,40373,1,0,0:0:0:0:
340,220,40464,1,0,0:0:0:0:
316,228,40555,2,0,L|236:240,1,80,8|0,0:0|0:0,0:0:0:0:
42,333,40918,5,0,0:0:0:0:
139,342,41100,1,0,0:0:0:0:
147,318,41191,1,0,0:0:0:0:
147,294,41282,2,0,P|135:245|147:198,1,80,8|0,0:0|0:0,0:0:0:0:
56,166,41646,1,0,0:0:0:0:
77,61,41827,1,0,0:0:0:0:
109,59,41918,1,0,0:0:0:0:
140,54,42009,1,8,0:0:0:0:
171,58,42100,1,0,0:0:0:0:
201,67,42191,1,0,0:0:0:0:
268,156,42373,6,0,P|302:158|342:178,1,80
360,195,42646,1,0,0:0:0:0:
368,217,42736,2,0,L|360:301,1,80,8|0,0:0|0:0,0:0:0:0:
256,352,43100,2,0,L|264:268,1,80
252,250,43373,1,0,0:0:0:0:
238,230,43464,1,8,0:0:0:0:
128,276,43646,1,0,0:0:0:0:
156,168,43827,5,0,0:0:0:0:
100,244,44009,1,0,0:0:0:0:
77,238,44100,1,0,0:0:0:0:
53,230,44191,2,0,L|49:134,1,80,8|0,0:0|0:0,0:0:0:0:
96,16,44555,2,0,L|120:96,1,80
248,104,44918,1,8,0:0:0:0:
224,96,45009,1,0,0:0:0:0:
200,88,45100,1,0,0:0:0:0:
276,111,45282,6,0,L|316:104,3,40
411,183,45646,2,0,L|372:176,3,40
264,251,46009,2,0,L|304:244,3,40
399,323,46373,2,0,L|360:316,3,40
136,304,46736,5,0,0:0:0:0:
104,312,46827,2,0,L|40:328,2,40
88,224,47100,1,8,0:0:0:0:
59,207,47191,2,0,L|2:173,2,40
116,132,47464,1,0,0:0:0:0:
108,100,47555,2,0,L|92:36,2,40
188,72,47827,1,8,0:0:0:0:
204,43,47918,2,0,L|237:-13,2,40
256,132,48191,5,4,0:0:0:0:
312,112,59827,6,0,L|428:116,1,80,2|0,0:0|0:0,0:0:0:0:
391,114,60191,2,0,P|392:196|384:228,1,80
360,284,60555,2,0,L|300:300,2,40,2|0|0,0:0|0:0|0:0,0:0:0:0:
240,272,60918,2,0,L|180:288,2,40
72,188,61282,6,0,L|168:208,1,80,2|0,0:0|0:0,0:0:0:0:
152,120,61646,2,0,L|248:140,1,80,0|0,0:0|0:0,0:0:0:0:
324,176,62009,2,0,L|376:168,2,40,2|0|0,0:0|0:0|0:0,0:0:0:0:
420,96,62373,2,0,L|459:102,2,40
448,240,62736,6,0,P|452:308|440:352,1,80,2|0,0:0|0:0,0:0:0:0:
324,176,63100,2,0,P|320:108|332:64,1,80
356,264,63464,2,0,P|288:268|244:256,1,80,2|0,0:0|0:0,0:0:0:0:
156,344,63827,2,0,P|224:340|268:352,1,80
200,212,64191,5,2,0:0:0:0:
256,108,64373,1,0,0:0:0:0:
276,100,64464,1,0,0:0:0:0:
300,92,64555,1,0,0:0:0:0:
172,84,64736,1,0,0:0:0:0:
64,76,64918,2,0,P|76:116|108:152,1,80,2|0,0:0|0:0,0:0:0:0:
99,145,65282,2,0,P|72:184|64:240,1,80
96,316,65646,6,0,L|192:304,1,80,0|0,0:0|0:0,0:0:0:0:
200,300,65918,1,0,0:0:0:0:
224,296,66009,2,0,P|228:236|212:184,1,80,8|0,0:0|0:0,0:0:0:0:
196,128,66373,1,0,0:0:0:0:
236,40,66555,1,0,0:0:0:0:
368,200,66736,1,8,0:0:0:0:
336,116,66918,1,0,0:0:0:0:
336,300,67100,6,0,L|436:308,1,80
440,300,67373,1,0,0:0:0:0:
448,276,67464,2,0,L|456:184,1,80,8|0,0:0|0:0,0:0:0:0:
368,72,67827,1,0,0:0:0:0:
463,86,68009,1,0,0:0:0:0:
260,212,68190,1,8,0:0:0:0:
333,160,68372,1,0,0:0:0:0:
168,176,68555,6,0,L|76:184,1,80,2|0,0:0|0:0,0:0:0:0:
64,184,68827,1,0,0:0:0:0:
56,208,68918,2,0,L|52:296,1,80,8|0,0:0|0:0,0:0:0:0:
128,348,69282,1,0,0:0:0:0:
160,252,69464,1,0,0:0:0:0:
288,312,69646,1,8,0:0:0:0:
256,192,69828,1,0,0:0:0:0:
404,348,70009,6,0,L|416:252,1,80
408,244,70282,1,0,0:0:0:0:
384,236,70373,2,0,P|324:232|268:248,1,80,8|0,0:0|0:0,0:0:0:0:
136,276,70736,2,0,P|196:280|252:264,1,80
240,112,71100,2,0,L|225:33,1,80,8|0,0:0|0:0,0:0:0:0:
256,192,71464,5,4,0:0:0:0:
256,192,83100,5,4,0:0:0:0:
256,192,86009,5,4,0:0:0:0:
256,192,88918,5,4,0:0:0:0:
128,132,91827,6,0,L|160:144,15,20
160,224,93282,2,0,L|128:232,3,20,2|0|0|0,0:0|0:0|0:0|0:0,0:0:0:0:
140,304,93646,2,0,L|108:312,3,20,8|0|0|0,0:0|0:0|0:0|0:0,0:0:0:0:
224,324,94009,2,0,L|256:316,3,20,2|0|0|0,0:0|0:0|0:0|0:0,0:0:0:0:
244,244,94373,2,0,L|276:236,3,20,8|0|0|0,0:0|0:0|0:0|0:0,0:0:0:0:
292,276,94736,6,0,L|364:260,3,40,4|0|0|0,0:0|0:0|0:0|0:0,0:0:0:0:
392,316,95100,2,0,L|464:300,2,40,8|0|0,0:0|0:0|0:0,0:0:0:0:
444,196,95464,5,4,0:0:0:0:
452,164,95555,2,0,L|468:112,2,40
356,116,95827,1,8,0:0:0:0:
348,84,95918,2,0,L|332:32,2,40
252,60,96191,5,2,0:0:0:0:
168,104,96373,1,0,0:0:0:0:
168,200,96555,1,8,0:0:0:0:
252,244,96736,1,0,0:0:0:0:
336,200,96918,5,2,0:0:0:0:
428,112,97100,1,0,0:0:0:0:
488,224,97282,1,8,0:0:0:0:
396,312,97464,1,0,0:0:0:0:
252,340,97646,6,0,L|196:316,3,40,4|0|0|0,0:0|0:0|0:0|0:0,0:0:0:0:
140,336,98009,2,0,L|84:312,2,40,8|0|0,0:0|0:0|0:0,0:0:0:0:
44,240,98373,5,4,0:0:0:0:
48,216,98464,1,0,0:0:0:0:
52,192,98555,1,0,0:0:0:0:
56,168,98646,1,0,0:0:0:0:
80,164,98736,5,8,0:0:0:0:
76,140,98827,1,0,0:0:0:0:
72,116,98918,1,0,0:0:0:0:
68,92,99009,1,0,0:0:0:0:
96,56,99100,6,0,L|160:64,3,40,2|0|0|0,0:0|0:0|0:0|0:0,0:0:0:0:
208,100,99464,2,0,L|272:92,2,40,8|0|0,0:0|0:0|0:0,0:0:0:0:
320,108,99827,5,2,0:0:0:0:
388,196,100009,1,0,0:0:0:0:
340,296,100191,1,8,0:0:0:0:
272,208,100373,1,0,0:0:0:0:
148,192,100555,6,0,L|84:208,3,40,4|0|0|0,0:0|0:0|0:0|0:0,0:0:0:0:
88,284,100918,2,0,L|24:300,2,40,8|0|0,0:0|0:0|0:0,0:0:0:0:
168,356,101282,5,4,0:0:0:0:
168,324,101373,1,0,0:0:0:0:
180,296,101464,1,0,0:0:0:0:
200,272,101555,1,0,0:0:0:0:
228,260,101646,2,0,L|268:316,3,40,8|0|0|0,0:0|0:0|0:0|0:0,0:0:0:0:
192,156,102009,5,2,0:0:0:0:
88,128,102191,1,0,0:0:0:0:
20,200,102373,1,8,0:0:0:0:
120,228,102555,1,0,0:0:0:0:
152,84,102736,5,2,0:0:0:0:
8,124,102918,1,0,0:0:0:0:
52,264,103100,1,8,0:0:0:0:
192,228,103282,1,0,0:0:0:0:
276,108,103464,6,0,L|240:136,3,40,4|0|0|0,0:0|0:0|0:0|0:0,0:0:0:0:
356,168,103827,2,0,L|351:207,3,40,8|0|0|0,0:0|0:0|0:0|0:0,0:0:0:0:
444,136,104191,2,0,L|466:170,3,40,4|0|0|0,0:0|0:0|0:0|0:0,0:0:0:0:
456,32,104555,2,0,L|508:28,3,40,8|0|0|0,0:0|0:0|0:0|0:0,0:0:0:0:
404,40,104918,5,2,0:0:0:0:
388,68,105009,1,0,0:0:0:0:
376,96,105100,1,0,0:0:0:0:
372,128,105191,1,0,0:0:0:0:
372,160,105282,1,8,0:0:0:0:
376,192,105373,1,0,0:0:0:0:
388,224,105464,1,0,0:0:0:0:
404,252,105555,1,0,0:0:0:0:
412,264,105646,5,2,0:0:0:0:
420,248,105736,1,0,0:0:0:0:
424,232,105827,1,0,0:0:0:0:
424,216,105918,1,0,0:0:0:0:
424,200,106009,1,8,0:0:0:0:
424,184,106100,1,0,0:0:0:0:
424,168,106191,1,0,0:0:0:0:
420,152,106282,1,0,0:0:0:0:
412,136,106373,6,0,P|332:136|260:96,1,160,4|8,0:0|0:0,0:0:0:0:
188,36,106918,1,0,0:0:0:0:
32,56,107100,2,0,P|116:129|128:185,1,160,0|8,0:0|0:0,0:0:0:0:
132,264,107646,1,0,0:0:0:0:
236,300,107827,6,0,L|268:352,2,40,2|0|0,0:0|0:0|0:0,0:0:0:0:
344,300,108191,2,0,L|376:352,2,40,2|0|0,0:0|0:0|0:0,0:0:0:0:
448,296,108555,2,0,L|480:348,2,40,2|0|0,0:0|0:0|0:0,0:0:0:0:
436,272,108827,1,0,0:0:0:0:
432,244,108918,1,8,0:0:0:0:
432,216,109009,1,0,0:0:0:0:
424,188,109100,1,0,0:0:0:0:
408,164,109191,1,0,0:0:0:0:
392,140,109282,6,0,L|280:160,2,80,4|0|8,0:0|0:0|0:0,0:0:0:0:
452,64,109827,1,0,0:0:0:0:
312,48,110009,2,0,L|200:68,2,80,0|0|8,0:0|0:0|0:0,0:0:0:0:
256,136,110555,1,0,0:0:0:0:
132,100,110736,6,0,L|92:136,2,40,2|0|0,0:0|0:0|0:0,0:0:0:0:
144,228,111100,2,0,L|92:211,2,40,2|0|0,0:0|0:0|0:0,0:0:0:0:
40,312,111464,2,0,L|28:259,2,40,2|0|0,0:0|0:0|0:0,0:0:0:0:
64,320,111736,1,0,0:0:0:0:
88,324,111827,1,8,0:0:0:0:
112,324,111918,1,0,0:0:0:0:
136,324,112009,1,0,0:0:0:0:
160,320,112100,1,0,0:0:0:0:
184,312,112191,6,0,L|248:336,3,40,4|0|0|0,0:0|0:0|0:0|0:0,0:0:0:0:
318,295,112555,2,0,L|355:309,3,40,8|0|0|0,0:0|0:0|0:0|0:0,0:0:0:0:
421,228,112918,2,0,L|485:220,3,40
379,125,113282,2,0,L|311:132,3,40,8|0|0|0,0:0|0:0|0:0|0:0,0:0:0:0:
484,76,113646,5,2,0:0:0:0:
472,68,113736,2,0,L|424:32,1,40
300,32,114009,1,2,0:0:0:0:
316,44,114100,2,0,L|348:68,1,40,0|0,0:0|0:0,0:0:0:0:
212,104,114373,1,2,0:0:0:0:
196,92,114464,2,0,L|148:56,2,40
72,88,114736,1,8,0:0:0:0:
56,76,114827,2,0,L|24:52,2,40
40,92,115100,5,0,0:0:0:0:
28,112,115191,1,0,0:0:0:0:
24,136,115282,1,0,0:0:0:0:
32,160,115373,1,0,0:0:0:0:
52,176,115464,1,8,0:0:0:0:
72,192,115555,1,0,0:0:0:0:
84,212,115646,1,0,0:0:0:0:
88,236,115736,1,0,0:0:0:0:
84,260,115827,5,0,0:0:0:0:
88,284,115918,1,0,0:0:0:0:
100,304,116009,1,0,0:0:0:0:
120,320,116100,1,0,0:0:0:0:
144,328,116191,1,8,0:0:0:0:
168,324,116282,1,0,0:0:0:0:
188,312,116373,1,0,0:0:0:0:
204,292,116464,1,0,0:0:0:0:
216,272,116555,5,8,0:0:0:0:
236,260,116646,1,0,0:0:0:0:
260,264,116736,1,0,0:0:0:0:
280,276,116827,1,0,0:0:0:0:
292,296,116918,1,8,0:0:0:0:
308,312,117009,1,0,0:0:0:0:
332,320,117100,1,0,0:0:0:0:
356,320,117191,1,0,0:0:0:0:
376,308,117282,5,8,0:0:0:0:
392,288,117373,1,0,0:0:0:0:
400,268,117464,1,0,0:0:0:0:
400,244,117555,1,0,0:0:0:0:
396,220,117646,1,8,0:0:0:0:
380,200,117737,1,0,0:0:0:0:
368,180,117828,1,0,0:0:0:0:
368,156,117918,1,0,0:0:0:0:
384,136,118009,5,4,0:0:0:0:
256,192,118100,12,0,120827,0:0:0:0:
256,192,120918,12,0,125282,0:0:0:0:
