osu file format v12

[General]
AudioFilename: IIDX Tricoro.mp3
AudioLeadIn: 3000
PreviewTime: 24918
Countdown: 1
SampleSet: Soft
StackLeniency: 0.7
Mode: 0
LetterboxInBreaks: 1

[Editor]
Bookmarks: 45282,59827,71464,83100,93282,93646,94009,94373,94736,106373
DistanceSpacing: 0.8
BeatDivisor: 4
GridSize: 4

[Metadata]
Title:Dragon to Shoujo to Decoherence
TitleUnicode:龍と少女とデコヒーレンス
Artist:Kuroneko Dungeon
ArtistUnicode:黒猫ダンジョン
Creator:wantuole
Version:Hard
Source:beatmania IIDX 20 tricoro
Tags:Tomosuke
BeatmapID:235638
BeatmapSetID:82390

[Difficulty]
HPDrainRate:5
CircleSize:4
OverallDifficulty:5
ApproachRate:6
SliderMultiplier:1.4
SliderTickRate:1

[Events]
//Background and Video events
Video,0,"video.avi"
0,0,"bg.jpg",1,1
//Break Periods
2,13482,18050
2,48391,58777
2,71664,82050
2,83300,84959
2,86209,87868
2,89118,90777
//Storyboard Layer 0 (Background)
//Storyboard Layer 1 (Fail)
//Storyboard Layer 2 (Pass)
//Storyboard Layer 3 (Foreground)
//Storyboard Sound Samples
//Background Colour Transformations
3,100,163,162,255

[TimingPoints]
1646,363.636363636364,4,2,1,55,1,0
22009,-100,4,2,1,55,0,0
24918,-100,4,2,1,55,0,1
25009,-100,4,2,1,55,0,0
91827,-200,4,2,1,55,0,0
94736,-100,4,2,1,55,0,1
94827,-100,4,2,1,55,0,0
120827,-100,4,2,1,5,0,0

[Colours]
Combo1 : 255,255,255
Combo2 : 255,135,77
Combo3 : 10,166,211
Combo4 : 236,0,236

[HitObjects]
76,88,1646,2,0,P|56:164|81:240,1,140,2|0,0:0|0:0,0:0:0:0:
176,312,2373,2,0,P|220:312|276:296,1,70,0|0,0:0|0:0,0:0:0:0:
296,256,2736,2,0,P|280:216|288:160,1,70
304,120,3100,6,0,L|452:92,1,140,2|0,0:0|0:0,0:0:0:0:
444,236,3827,2,0,L|500:228,2,35
380,324,4191,2,0,L|392:372,2,35
296,256,4555,6,0,P|208:244|136:272,1,140,2|0,0:0|0:0,0:0:0:0:
20,240,5282,2,0,L|44:152,1,70
108,164,5646,2,0,L|132:76,1,70
188,60,6009,6,0,P|256:64|336:44,1,140,2|0,0:0|0:0,0:0:0:0:
328,188,6736,2,0,P|368:184|412:212,1,70
428,256,7099,1,0,0:0:0:0:
396,320,7281,1,0,0:0:0:0:
328,300,7464,6,0,P|251:280|193:294,1,140,4|0,0:0|0:0,0:0:0:0:
64,244,8191,2,0,P|89:239|133:239,1,70
156,164,8554,2,0,P|155:137|139:97,1,70
188,40,8918,6,0,L|344:68,1,140,2|0,0:0|0:0,0:0:0:0:
369,156,9645,2,0,L|404:152,2,35
424,240,10009,2,0,L|458:235,2,35
368,328,10373,6,0,P|320:342|232:330,1,140,2|0,0:0|0:0,0:0:0:0:
132,232,11100,2,0,L|152:156,1,70
80,156,11464,2,0,L|98:88,1,70
156,48,11827,6,0,P|225:32|293:36,1,140,2|0,0:0|0:0,0:0:0:0:
256,172,12554,2,0,P|296:168|322:179,1,70
364,240,12917,1,0,0:0:0:0:
328,304,13099,1,0,0:0:0:0:
256,304,13282,5,4,0:0:0:0:
256,192,19100,5,4,0:0:0:0:
256,192,20555,5,4,0:0:0:0:
304,264,22009,5,4,0:0:0:0:
184,240,22736,1,4,0:0:0:0:
208,120,23464,5,4,0:0:0:0:
208,120,23646,1,0,0:0:0:0:
328,144,23827,1,4,0:0:0:0:
328,144,24009,1,0,0:0:0:0:
448,104,24191,2,0,L|424:48,4,35,4|0|0|0|4,0:0|0:0|0:0|0:0|0:0,0:0:0:0:
448,216,24918,6,0,L|432:312,1,70,4|0,0:0|0:0,0:0:0:0:
424,320,25191,1,0,0:0:0:0:
388,320,25282,2,0,P|336:316|304:296,1,70,8|0,0:0|0:0,0:0:0:0:
192,227,25646,2,0,P|208:220|260:216,1,70
219,316,26009,2,0,P|204:324|152:328,1,70,8|0,0:0|0:0,0:0:0:0:
100,224,26373,6,0,L|24:196,1,70
28,176,26646,1,0,0:0:0:0:
28,152,26736,1,8,0:0:0:0:
100,100,26918,1,0,0:0:0:0:
164,32,27100,2,0,L|260:40,1,70
272,132,27464,2,0,L|196:123,1,70,8|0,0:0|0:0,0:0:0:0:
332,72,27827,6,0,P|376:76|424:64,1,70
424,68,28100,1,0,0:0:0:0:
448,60,28191,1,8,0:0:0:0:
464,160,28373,1,0,0:0:0:0:
412,240,28555,2,0,L|492:248,1,70
432,328,28918,2,0,L|332:336,1,70,8|0,0:0|0:0,0:0:0:0:
288,224,29282,6,0,L|280:272,2,35,0|0|0,0:0|0:0|0:0,0:0:0:0:
172,264,29646,2,0,L|200:308,2,35,8|0|0,0:0|0:0|0:0,0:0:0:0:
112,356,30009,2,0,L|32:336,1,70
40,316,30282,1,0,0:0:0:0:
36,292,30373,2,0,P|52:232|44:196,1,70,8|0,0:0|0:0,0:0:0:0:
56,112,30736,6,0,P|88:100|140:116,1,70
144,116,31009,1,0,0:0:0:0:
168,128,31100,1,8,0:0:0:0:
260,160,31282,1,0,0:0:0:0:
304,76,31464,1,0,0:0:0:0:
328,68,31555,1,0,0:0:0:0:
352,64,31646,2,0,L|348:160,1,70,0|8,0:0|0:0,0:0:0:0:
344,216,32009,1,0,0:0:0:0:
428,248,32191,6,0,P|394:297|366:314,1,70
363,312,32464,1,0,0:0:0:0:
340,312,32555,2,0,P|283:292|260:269,1,70,8|0,0:0|0:0,0:0:0:0:
256,200,32918,2,0,L|160:184,1,70
160,272,33282,2,0,L|72:292,1,70,8|0,0:0|0:0,0:0:0:0:
56,196,33646,5,0,0:0:0:0:
56,196,33827,2,0,P|52:132|64:108,1,70,0|8,0:0|0:0,0:0:0:0:
88,56,34191,1,0,0:0:0:0:
168,56,34373,2,0,L|244:72,1,70,0|0,0:0|0:0,0:0:0:0:
236,148,34736,2,0,L|312:136,1,70,8|0,0:0|0:0,0:0:0:0:
448,104,35100,6,0,L|432:200,1,70,0|0,0:0|0:0,0:0:0:0:
416,196,35373,1,0,0:0:0:0:
396,216,35464,2,0,L|376:312,1,70,8|0,0:0|0:0,0:0:0:0:
288,316,35828,2,0,P|236:320|204:340,1,70
60,324,36191,2,0,P|112:320|127:312,1,70,8|0,0:0|0:0,0:0:0:0:
168,232,36555,6,0,L|76:224,1,70,4|0,0:0|0:0,0:0:0:0:
84,208,36828,1,0,0:0:0:0:
72,188,36918,1,8,0:0:0:0:
80,88,37100,1,0,0:0:0:0:
164,32,37282,2,0,L|260:40,1,70
272,132,37646,2,0,L|196:123,1,70,8|0,0:0|0:0,0:0:0:0:
332,72,38009,6,0,P|376:76|424:64,1,70
424,68,38282,1,0,0:0:0:0:
448,60,38373,1,8,0:0:0:0:
464,160,38555,1,0,0:0:0:0:
408,248,38737,2,0,L|380:172,1,70
304,324,39100,2,0,L|328:240,1,70,8|0,0:0|0:0,0:0:0:0:
276,176,39464,6,0,L|216:172,2,35,0|0|0,0:0|0:0|0:0,0:0:0:0:
160,88,39828,2,0,L|172:140,2,35,8|0|0,0:0|0:0|0:0,0:0:0:0:
156,216,40191,2,0,L|96:284,1,70
92,284,40464,1,0,0:0:0:0:
80,264,40555,2,0,L|52:176,1,70,8|0,0:0|0:0,0:0:0:0:
56,104,40918,6,0,P|88:92|140:108,1,70
144,112,41191,1,0,0:0:0:0:
168,120,41282,1,8,0:0:0:0:
216,44,41464,1,0,0:0:0:0:
304,76,41646,1,0,0:0:0:0:
324,64,41737,1,0,0:0:0:0:
348,56,41828,2,0,P|384:48|432:60,1,70,0|8,0:0|0:0,0:0:0:0:
376,136,42191,1,0,0:0:0:0:
404,216,42373,6,0,P|368:224|320:212,1,70,0|0,0:0|0:0,0:0:0:0:
320,240,42646,1,0,0:0:0:0:
300,256,42737,2,0,P|300:292|284:336,1,70,8|0,0:0|0:0,0:0:0:0:
196,308,43100,2,0,L|100:292,1,70
168,216,43464,2,0,L|72:200,1,70,8|0,0:0|0:0,0:0:0:0:
44,112,43828,5,0,0:0:0:0:
44,112,44009,2,0,P|40:48|52:24,1,70,0|8,0:0|0:0,0:0:0:0:
120,80,44373,1,0,0:0:0:0:
192,28,44555,2,0,L|268:44,1,70,0|0,0:0|0:0,0:0:0:0:
256,124,44918,2,0,L|332:112,1,70,8|0,0:0|0:0,0:0:0:0:
388,56,45282,6,0,P|408:32|444:25,1,70
448,112,45646,2,0,P|464:136|475:175,1,70,8|0,0:0|0:0,0:0:0:0:
388,168,46009,2,0,P|356:196|330:204,1,70
328,116,46373,2,0,P|304:84|302:55,1,70,8|0,0:0|0:0,0:0:0:0:
188,88,46736,6,0,L|256:136,1,70
168,232,47100,2,0,L|240:200,1,70,8|0,0:0|0:0,0:0:0:0:
296,312,47464,2,0,L|296:240,1,70
420,232,47827,2,0,L|344:188,1,70,8|0,0:0|0:0,0:0:0:0:
328,116,48191,5,4,0:0:0:0:
352,48,59827,6,0,L|396:40,2,35,2|0|0,0:0|0:0|0:0,0:0:0:0:
404,112,60191,2,0,L|448:115,2,35,0|0|0,0:0|0:0|0:0,0:0:0:0:
416,192,60555,2,0,L|458:207,2,35,0|0|0,0:0|0:0|0:0,0:0:0:0:
376,264,60918,2,0,L|412:289,2,35,0|0|0,0:0|0:0|0:0,0:0:0:0:
308,297,61282,6,0,L|212:317,1,70,0|0,0:0|0:0,0:0:0:0:
240,312,61646,2,0,L|168:289,1,70
173,291,62009,2,0,L|84:317,1,70
106,311,62373,2,0,L|32:273,1,70
64,200,62736,6,0,P|80:160|76:120,1,70,2|0,0:0|0:0,0:0:0:0:
84,60,63100,1,0,0:0:0:0:
152,104,63282,1,0,0:0:0:0:
228,144,63464,2,0,L|236:64,1,70
308,116,63827,1,0,0:0:0:0:
384,80,64009,1,0,0:0:0:0:
416,160,64191,6,0,P|464:160|512:144,1,70,2|0,0:0|0:0,0:0:0:0:
384,236,64555,2,0,P|384:284|400:332,1,70,0|0,0:0|0:0,0:0:0:0:
304,256,64918,2,0,P|256:256|208:240,1,70
152,316,65282,2,0,P|152:268|168:220,1,70,0|0,0:0|0:0,0:0:0:0:
88,176,65646,6,0,L|40:160,2,35,2|0|0,0:0|0:0|0:0,0:0:0:0:
72,88,66009,2,0,L|24:72,2,35
144,44,66373,2,0,L|240:76,1,70
240,144,66736,2,0,L|318:122,1,70
380,60,67100,5,2,0:0:0:0:
436,124,67282,1,0,0:0:0:0:
448,128,67373,1,0,0:0:0:0:
460,132,67464,2,0,P|464:176|452:220,1,70
364,204,67827,2,0,L|384:280,1,70
288,336,68191,2,0,L|300:260,1,70
208,160,68555,6,0,L|224:240,1,70,2|0,0:0|0:0,0:0:0:0:
152,256,68918,2,0,L|168:336,1,70,0|0,0:0|0:0,0:0:0:0:
64,272,69282,2,0,L|48:192,1,70
120,176,69645,2,0,L|104:96,1,70,0|0,0:0|0:0,0:0:0:0:
192,88,70009,6,0,L|244:60,2,35,2|0|0,0:0|0:0|0:0,0:0:0:0:
276,156,70373,2,0,L|292:116,2,35
376,152,70736,2,0,L|360:112,2,35
460,80,71100,2,0,L|408:52,2,35
324,48,71464,5,4,0:0:0:0:
256,192,83100,5,4,0:0:0:0:
256,192,86009,5,4,0:0:0:0:
256,192,88918,5,4,0:0:0:0:
244,188,91827,6,0,L|268:200,30,17.5,4|0|0|0|0|0|0|0|0|0|0|0|0|0|0|0|2|0|0|0|8|0|0|0|2|0|0|0|8|0|0,0:0|0:0|0:0|0:0|0:0|0:0|0:0|0:0|0:0|0:0|0:0|0:0|0:0|0:0|0:0|0:0|0:0|0:0|0:0|0:0|0:0|0:0|0:0|0:0|0:0|0:0|0:0|0:0|0:0|0:0|0:0,0:0:0:0:
228,156,94736,6,0,P|192:152|144:152,1,70,4|0,0:0|0:0,0:0:0:0:
136,164,95009,1,0,0:0:0:0:
112,184,95100,2,0,L|28:172,1,70,8|0,0:0|0:0,0:0:0:0:
64,64,95464,2,0,L|136:72,1,70
172,64,95736,1,0,0:0:0:0:
216,56,95827,2,0,L|300:48,1,70,8|0,0:0|0:0,0:0:0:0:
376,76,96191,5,0,0:0:0:0:
392,72,96282,1,0,0:0:0:0:
408,68,96373,1,0,0:0:0:0:
348,160,96555,2,0,L|392:236,1,70,8|0,0:0|0:0,0:0:0:0:
248,112,96918,5,0,0:0:0:0:
264,108,97009,1,0,0:0:0:0:
280,104,97100,1,0,0:0:0:0:
220,196,97282,2,0,L|264:272,1,70,8|0,0:0|0:0,0:0:0:0:
176,336,97646,6,0,L|236:344,2,35
92,268,98009,2,0,L|36:260,2,35,8|0|0,0:0|0:0|0:0,0:0:0:0:
24,176,98373,2,0,L|96:160,1,70
108,144,98646,1,0,0:0:0:0:
120,120,98736,2,0,P|112:84|124:32,1,70,8|0,0:0|0:0,0:0:0:0:
232,76,99100,6,0,L|308:64,1,70
456,112,99464,2,0,L|389:90,1,70,8|0,0:0|0:0,0:0:0:0:
320,188,99827,2,0,L|396:176,1,70
498,265,100191,2,0,L|432:244,1,70,8|0,0:0|0:0,0:0:0:0:
376,296,100555,6,0,L|280:316,1,70
232,344,100918,2,0,B|204:316|204:316|148:328,1,70,8|0,0:0|0:0,0:0:0:0:
104,296,101282,2,0,L|44:284,2,35
68,204,101646,2,0,L|8:192,2,35,8|0|0,0:0|0:0|0:0,0:0:0:0:
160,216,102009,6,0,L|192:152,1,70
248,80,102373,2,0,L|272:162,1,70,8|0,0:0|0:0,0:0:0:0:
304,252,102736,2,0,L|336:188,1,70
380,112,103100,2,0,L|464:112,1,70,8|0,0:0|0:0,0:0:0:0:
416,204,103464,6,0,P|424:248|412:284,1,70
404,292,103736,1,0,0:0:0:0:
384,308,103827,1,8,0:0:0:0:
296,348,104009,1,0,0:0:0:0:
228,288,104191,2,0,L|156:272,1,70
136,268,104464,1,0,0:0:0:0:
112,264,104555,1,8,0:0:0:0:
28,240,104736,1,0,0:0:0:0:
48,148,104918,6,0,L|136:116,1,70
152,40,105282,2,0,L|240:72,1,70,8|0,0:0|0:0,0:0:0:0:
308,24,105646,2,0,L|340:112,1,70
416,128,106010,2,0,L|384:216,1,70,8|0,0:0|0:0,0:0:0:0:
452,312,106373,6,0,P|412:296|368:308,1,70
360,312,106646,1,0,0:0:0:0:
332,324,106736,2,0,L|248:312,1,70,8|0,0:0|0:0,0:0:0:0:
128,272,107101,2,0,L|196:260,1,70
320,192,107464,2,0,L|248:184,1,70,8|0,0:0|0:0,0:0:0:0:
56,132,107827,6,0,L|117:112,1,35
208,60,108191,2,0,L|252:76,1,35
376,108,108555,2,0,L|464:88,2,70
320,192,109100,1,0,0:0:0:0:
400,280,109283,6,0,L|434:284,2,35
304,328,109646,2,0,L|269:323,2,35,8|0|0,0:0|0:0|0:0,0:0:0:0:
128,288,110010,2,0,L|200:272,1,70
56,216,110373,2,0,L|52:140,1,70,8|0,0:0|0:0,0:0:0:0:
128,56,110736,6,0,L|184:48,1,35
228,104,111100,2,0,L|272:112,1,35,8|0,0:0|0:0,0:0:0:0:
324,52,111464,2,0,L|416:36,2,70,0|0|8,0:0|0:0|0:0,0:0:0:0:
408,120,112009,1,0,0:0:0:0:
376,208,112192,6,0,L|396:292,1,70
388,300,112464,1,0,0:0:0:0:
372,316,112555,2,0,P|340:332|292:340,1,70,8|0,0:0|0:0,0:0:0:0:
236,296,112919,2,0,L|176:284,2,35
128,340,113283,2,0,L|68:328,2,35,8|0|0,0:0|0:0|0:0,0:0:0:0:
100,216,113646,6,0,L|124:160,1,35
176,80,114010,2,0,L|192:144,1,35,8|0,0:0|0:0,0:0:0:0:
248,204,114373,2,0,P|272:172|280:140,1,70
320,56,114737,2,0,L|376:120,1,70,8|0,0:0|0:0,0:0:0:0:
448,104,115100,6,0,L|468:56,2,35,8|0|0,0:0|0:0|0:0,0:0:0:0:
448,252,115464,2,0,L|484:300,2,35,8|0|0,0:0|0:0|0:0,0:0:0:0:
332,176,115827,6,0,L|352:128,2,35,8|0|0,0:0|0:0|0:0,0:0:0:0:
328,312,116191,2,0,L|364:360,2,35,8|0|0,0:0|0:0|0:0,0:0:0:0:
216,256,116555,6,0,P|216:216|200:180,1,70,8|0,0:0|0:0,0:0:0:0:
196,160,116827,1,0,0:0:0:0:
184,136,116918,2,0,L|108:132,1,70,8|0,0:0|0:0,0:0:0:0:
56,212,117283,2,0,P|56:260|76:304,1,70,8|0,0:0|0:0,0:0:0:0:
76,304,117555,1,0,0:0:0:0:
96,324,117647,2,0,L|184:332,1,70,8|0,0:0|0:0,0:0:0:0:
256,192,118009,12,0,120827,0:0:0:0:
256,192,120918,12,0,125282,0:0:0:0:
