osu file format v12

[General]
AudioFilename: IIDX Tricoro.mp3
AudioLeadIn: 3000
PreviewTime: 24918
Countdown: 1
SampleSet: Soft
StackLeniency: 0.7
Mode: 0
LetterboxInBreaks: 1

[Editor]
Bookmarks: 45282,59827,83100,93282,93646,94009,94373,94736
DistanceSpacing: 0.6
BeatDivisor: 4
GridSize: 4

[Metadata]
Title:Dragon to Shoujo to Decoherence
TitleUnicode:龍と少女とデコヒーレンス
Artist:Kuroneko Dungeon
ArtistUnicode:黒猫ダンジョン
Creator:wantuole
Version:Extra
Source:beatmania IIDX 20 tricoro
Tags:Tomosuke
BeatmapID:228066
BeatmapSetID:82390

[Difficulty]
HPDrainRate:7
CircleSize:4
OverallDifficulty:8
ApproachRate:9
SliderMultiplier:2.1
SliderTickRate:2

[Events]
//Background and Video events
Video,0,"video.avi"
0,0,"bg.jpg",1,1
//Break Periods
2,13482,18500
2,48391,59227
2,71664,82500
2,83300,85409
2,86209,88318
2,89118,91227
//Storyboard Layer 0 (Background)
//Storyboard Layer 1 (Fail)
//Storyboard Layer 2 (Pass)
//Storyboard Layer 3 (Foreground)
//Storyboard Sound Samples
//Background Colour Transformations
3,100,163,162,255

[TimingPoints]
1646,363.636363636364,4,2,1,55,1,0
24918,-100,4,2,1,55,0,1
25009,-100,4,2,1,55,0,0
91918,-200,4,2,1,55,0,0
93282,-100,4,2,1,55,0,0
94736,-100,4,2,1,55,0,1
94827,-100,4,2,1,55,0,0
120827,-100,4,2,1,55,0,0

[Colours]
Combo1 : 255,255,255
Combo2 : 255,135,77
Combo3 : 10,166,211
Combo4 : 236,0,236

[HitObjects]
80,64,1646,1,2,0:0:0:0:
64,96,1736,1,0,0:0:0:0:
48,128,1827,1,0,0:0:0:0:
32,240,2009,1,2,0:0:0:0:
108,212,2100,2,0,P|108:276|44:308,1,105
200,352,2373,5,2,0:0:0:0:
232,324,2464,1,0,0:0:0:0:
252,288,2555,1,0,0:0:0:0:
252,244,2646,1,0,0:0:0:0:
228,208,2736,1,2,0:0:0:0:
212,168,2827,1,0,0:0:0:0:
212,124,2918,1,0,0:0:0:0:
408,112,3100,6,0,P|448:176|416:232,1,105,2|0,0:0|0:0,0:0:0:0:
380,244,3373,1,0,0:0:0:0:
328,188,3464,2,0,B|296:132|320:72|320:72|248:64,1,157.5,2|0,0:0|0:0,0:0:0:0:
212,108,3827,5,2,0:0:0:0:
164,120,3918,1,0,0:0:0:0:
124,112,4009,1,0,0:0:0:0:
88,92,4100,1,0,0:0:0:0:
52,112,4191,1,2,0:0:0:0:
40,156,4282,1,0,0:0:0:0:
48,196,4373,1,0,0:0:0:0:
60,304,4555,6,0,B|88:336|88:336|156:328|208:280,1,157.5,2|0,0:0|0:0,0:0:0:0:
136,236,4918,1,2,0:0:0:0:
196,188,5009,2,0,P|232:172|312:168,1,105
276,268,5282,5,2,0:0:0:0:
312,280,5373,1,0,0:0:0:0:
356,276,5464,1,0,0:0:0:0:
392,252,5555,1,0,0:0:0:0:
392,208,5646,1,2,0:0:0:0:
384,168,5736,1,0,0:0:0:0:
376,128,5827,1,0,0:0:0:0:
320,60,6009,5,2,0:0:0:0:
280,56,6100,1,0,0:0:0:0:
240,60,6191,1,0,0:0:0:0:
220,96,6282,1,0,0:0:0:0:
188,124,6373,1,2,0:0:0:0:
152,144,6464,2,0,P|88:168|36:152,1,105
72,92,6736,5,2,0:0:0:0:
96,124,6827,1,0,0:0:0:0:
108,164,6918,1,0,0:0:0:0:
116,204,7009,1,0,0:0:0:0:
96,240,7100,1,2,0:0:0:0:
132,260,7191,1,0,0:0:0:0:
176,260,7282,1,0,0:0:0:0:
328,300,7464,6,0,P|380:252|372:176,1,105,4|0,0:0|0:0,0:0:0:0:
352,148,7736,1,0,0:0:0:0:
272,108,7827,2,0,P|259:161|310:217,1,105
288,32,8191,5,2,0:0:0:0:
256,32,8282,1,0,0:0:0:0:
224,32,8373,1,0,0:0:0:0:
36,124,8555,1,2,0:0:0:0:
84,120,8646,1,0,0:0:0:0:
128,128,8737,1,0,0:0:0:0:
196,352,8918,6,0,P|167:300|168:228,1,105,2|0,0:0|0:0,0:0:0:0:
224,196,9191,1,0,0:0:0:0:
296,240,9282,2,0,L|308:332,2,52.5,2|0|0,0:0|0:0|0:0,0:0:0:0:
428,148,9646,1,2,0:0:0:0:
408,180,9736,1,0,0:0:0:0:
400,216,9827,1,0,0:0:0:0:
304,108,10009,2,0,B|392:94,2,52.5,2|0|0,0:0|0:0|0:0,0:0:0:0:
176,216,10373,6,0,B|124:188|124:188|108:96,1,105,2|0,0:0|0:0,0:0:0:0:
40,116,10646,1,0,0:0:0:0:
24,192,10736,2,0,L|40:300,1,105,2|0,0:0|0:0,0:0:0:0:
156,332,11100,5,2,0:0:0:0:
188,304,11191,1,0,0:0:0:0:
228,288,11282,1,0,0:0:0:0:
268,284,11373,1,0,0:0:0:0:
308,296,11464,1,2,0:0:0:0:
348,292,11555,1,0,0:0:0:0:
384,268,11646,1,0,0:0:0:0:
456,104,11827,6,0,P|384:136|340:144,1,105,2|0,0:0|0:0,0:0:0:0:
280,152,12100,1,0,0:0:0:0:
212,104,12191,2,0,L|208:48,2,52.5,2|0|0,0:0|0:0|0:0,0:0:0:0:
104,152,12555,6,0,B|64:156|64:156|48:204|-4:248,1,105,2|0,0:0|0:0,0:0:0:0:
28,260,12827,1,0,0:0:0:0:
44,300,12918,1,0,0:0:0:0:
76,328,13009,1,0,0:0:0:0:
120,344,13100,1,0,0:0:0:0:
164,344,13191,1,0,0:0:0:0:
244,296,13282,5,4,0:0:0:0:
256,192,19100,5,4,0:0:0:0:
356,232,19464,1,0,0:0:0:0:
356,232,19827,1,0,0:0:0:0:
356,232,20191,1,0,0:0:0:0:
340,336,20555,5,4,0:0:0:0:
240,292,20918,1,0,0:0:0:0:
240,292,21281,1,0,0:0:0:0:
240,292,21645,1,0,0:0:0:0:
172,336,22009,5,4,0:0:0:0:
148,216,22100,2,0,L|212:196,6,52.5,0|0|0|8|0|0|0,0:0|0:0|0:0|0:0|0:0|0:0|0:0,0:0:0:0:
24,168,22736,5,4,0:0:0:0:
48,288,22827,2,0,L|144:288,6,52.5,0|0|0|8|0|0|0,0:0|0:0|0:0|0:0|0:0|0:0|0:0,0:0:0:0:
144,100,23464,6,0,L|180:24,1,52.5,0|0,0:0|0:0,0:0:0:0:
272,164,23646,2,0,L|224:94,1,52.5,0|0,0:0|0:0,0:0:0:0:
376,56,23827,2,0,L|292:62,1,52.5,8|0,0:0|0:0,0:0:0:0:
384,160,24009,2,0,L|416:232,1,52.5,0|0,0:0|0:0,0:0:0:0:
352,296,24191,5,2,0:0:0:0:
332,296,24282,1,0,0:0:0:0:
312,296,24373,1,0,0:0:0:0:
292,296,24464,1,0,0:0:0:0:
272,296,24555,1,8,0:0:0:0:
188,296,24918,5,2,0:0:0:0:
148,292,25009,1,0,0:0:0:0:
108,276,25100,1,0,0:0:0:0:
76,248,25191,1,0,0:0:0:0:
56,212,25282,2,0,P|60:172|72:124,3,52.5,8|0|0|0,0:0|0:0|0:0|0:0,0:0:0:0:
144,128,25646,2,0,L|153:179,1,52.5,2|0,0:0|0:0,0:0:0:0:
236,112,25827,2,0,L|256:64,1,52.5
328,136,26009,2,0,P|330:148|334:188,3,52.5,8|0|0|0,0:0|0:0|0:0|0:0,0:0:0:0:
376,56,26373,5,2,0:0:0:0:
412,80,26464,1,0,0:0:0:0:
452,96,26555,1,0,0:0:0:0:
492,100,26646,1,0,0:0:0:0:
476,140,26736,2,0,L|452:200,3,52.5,8|0|0|0,0:0|0:0|0:0|0:0,0:0:0:0:
396,268,27100,2,0,L|412:332,1,52.5,2|0,0:0|0:0,0:0:0:0:
272,248,27282,2,0,L|320:288,1,52.5
172,320,27464,2,0,L|244:324,3,52.5,8|0|0|0,0:0|0:0|0:0|0:0,0:0:0:0:
84,312,27827,5,2,0:0:0:0:
48,292,27918,1,0,0:0:0:0:
28,256,28009,1,0,0:0:0:0:
28,212,28100,1,0,0:0:0:0:
40,172,28191,2,0,L|52:116,3,52.5,8|0|0|0,0:0|0:0|0:0|0:0,0:0:0:0:
144,88,28555,1,2,0:0:0:0:
164,124,28646,1,0,0:0:0:0:
200,148,28736,1,0,0:0:0:0:
240,156,28827,1,0,0:0:0:0:
280,152,28918,2,0,L|308:104,3,52.5,8|0|0|0,0:0|0:0|0:0|0:0,0:0:0:0:
424,104,29282,6,0,L|396:152,3,52.5,2|0|0|0,0:0|0:0|0:0|0:0,0:0:0:0:
476,224,29646,2,0,L|449:269,3,52.5,8|0|0|0,0:0|0:0|0:0|0:0,0:0:0:0:
308,296,30009,1,2,0:0:0:0:
308,296,30100,2,0,B|340:248|340:248|272:280|208:280,1,157.5,0|8,0:0|0:0,0:0:0:0:
204,284,30464,1,0,0:0:0:0:
164,288,30555,1,0,0:0:0:0:
124,284,30646,1,0,0:0:0:0:
52,208,30736,6,0,L|44:132,1,52.5,2|0,0:0|0:0,0:0:0:0:
176,156,30918,2,0,L|92:108,1,52.5
192,52,31100,2,0,P|228:56|288:52,3,52.5,8|0|0|0,0:0|0:0|0:0|0:0,0:0:0:0:
360,116,31464,2,0,L|351:65,1,52.5,2|0,0:0|0:0,0:0:0:0:
264,200,31645,2,0,L|284:152,1,52.5
348,296,31827,2,0,P|346:284|342:244,3,52.5,8|0|0|0,0:0|0:0|0:0|0:0,0:0:0:0:
240,352,32191,5,2,0:0:0:0:
204,328,32282,1,0,0:0:0:0:
164,312,32373,1,0,0:0:0:0:
124,308,32464,1,0,0:0:0:0:
84,312,32554,2,0,L|64:244,3,52.5,8|0|0|0,0:0|0:0|0:0|0:0,0:0:0:0:
88,112,32918,2,0,L|100:162,1,52.5,2|0,0:0|0:0,0:0:0:0:
192,160,33100,2,0,L|232:193,1,52.5
288,108,33282,2,0,L|340:110,3,52.5,8|0|0|0,0:0|0:0|0:0|0:0,0:0:0:0:
428,72,33645,5,2,0:0:0:0:
464,92,33736,1,0,0:0:0:0:
484,128,33827,1,0,0:0:0:0:
484,172,33918,1,0,0:0:0:0:
472,212,34009,2,0,L|460:268,3,52.5,8|0|0|0,0:0|0:0|0:0|0:0,0:0:0:0:
368,296,34373,1,2,0:0:0:0:
348,260,34464,1,0,0:0:0:0:
312,236,34554,1,0,0:0:0:0:
272,228,34645,1,0,0:0:0:0:
232,232,34736,2,0,L|204:280,3,52.5,8|0|0|0,0:0|0:0|0:0|0:0,0:0:0:0:
88,280,35100,6,0,L|116:232,3,52.5,2|0|0|0,0:0|0:0|0:0|0:0,0:0:0:0:
63,115,35464,2,0,L|36:160,3,52.5,8|0|0|0,0:0|0:0|0:0|0:0,0:0:0:0:
168,132,35827,1,2,0:0:0:0:
188,120,35918,2,0,B|225:96|296:96|296:96|280:120|272:148,1,157.5,0|8,0:0|0:0,0:0:0:0:
260,164,36282,1,0,0:0:0:0:
252,196,36373,1,0,0:0:0:0:
252,228,36464,1,0,0:0:0:0:
364,208,36555,6,0,L|464:180,1,52.5,4|0,0:0|0:0,0:0:0:0:
432,168,36736,1,0,0:0:0:0:
448,140,36827,1,0,0:0:0:0:
460,100,36918,2,0,L|432:36,3,52.5,8|0|0|0,0:0|0:0|0:0|0:0,0:0:0:0:
332,64,37282,2,0,L|248:52,1,52.5,2|0,0:0|0:0,0:0:0:0:
220,176,37464,2,0,L|248:124,1,52.5
108,172,37646,2,0,L|132:240,3,52.5,8|0|0|0,0:0|0:0|0:0|0:0,0:0:0:0:
168,324,38009,5,2,0:0:0:0:
208,336,38100,1,0,0:0:0:0:
248,340,38191,1,0,0:0:0:0:
292,340,38282,1,0,0:0:0:0:
332,324,38373,2,0,P|360:300|368:268,3,52.5,8|0|0|0,0:0|0:0|0:0|0:0,0:0:0:0:
312,228,38736,1,2,0:0:0:0:
348,204,38827,1,0,0:0:0:0:
388,196,38918,1,0,0:0:0:0:
400,156,39009,1,0,0:0:0:0:
420,120,39100,2,0,P|436:84|472:68,3,52.5,8|0|0|0,0:0|0:0|0:0|0:0,0:0:0:0:
292,56,39464,6,0,L|284:120,1,52.5,2|0,0:0|0:0,0:0:0:0:
160,104,39646,2,0,L|200:168,1,52.5
136,236,39827,2,0,L|220:260,3,52.5,8|0|0|0,0:0|0:0|0:0|0:0,0:0:0:0:
280,168,40191,2,0,L|292:88,1,52.5,2|0,0:0|0:0,0:0:0:0:
348,256,40373,2,0,L|360:176,1,52.5
412,352,40555,2,0,L|424:272,3,52.5,8|0|0|0,0:0|0:0|0:0|0:0,0:0:0:0:
268,344,40918,5,2,0:0:0:0:
228,328,41009,1,0,0:0:0:0:
184,328,41100,1,0,0:0:0:0:
144,336,41191,1,0,0:0:0:0:
104,344,41282,2,0,L|64:284,3,52.5,8|0|0|0,0:0|0:0|0:0|0:0,0:0:0:0:
72,200,41646,1,2,0:0:0:0:
112,200,41736,1,0,0:0:0:0:
152,192,41827,1,0,0:0:0:0:
192,176,41918,1,0,0:0:0:0:
224,148,42009,2,0,L|200:92,3,52.5,8|0|0|0,0:0|0:0|0:0|0:0,0:0:0:0:
336,76,42373,6,0,L|412:76,1,52.5,2|0,0:0|0:0,0:0:0:0:
432,252,42555,2,0,L|460:184,1,52.5
324,200,42736,2,0,L|252:248,3,52.5,8|0|0|0,0:0|0:0|0:0|0:0,0:0:0:0:
340,304,43100,2,0,L|380:364,1,52.5,2|0,0:0|0:0,0:0:0:0:
196,296,43282,2,0,L|236:356,1,52.5
72,200,43464,2,0,L|112:260,3,52.5,8|0|0|0,0:0|0:0|0:0|0:0,0:0:0:0:
72,88,43827,5,2,0:0:0:0:
116,88,43918,1,0,0:0:0:0:
156,76,44009,1,0,0:0:0:0:
196,88,44100,1,0,0:0:0:0:
232,68,44191,2,0,L|304:108,3,52.5,8|0|0|0,0:0|0:0|0:0|0:0,0:0:0:0:
156,180,44555,5,2,0:0:0:0:
192,200,44646,1,0,0:0:0:0:
232,188,44737,1,0,0:0:0:0:
272,200,44828,1,0,0:0:0:0:
308,180,44919,2,0,L|376:160,3,52.5,8|0|0|0,0:0|0:0|0:0|0:0,0:0:0:0:
360,72,45282,5,2,0:0:0:0:
384,92,45373,1,0,0:0:0:0:
400,120,45464,1,0,0:0:0:0:
408,152,45555,1,0,0:0:0:0:
412,184,45646,1,0,0:0:0:0:
408,216,45736,1,0,0:0:0:0:
396,244,45827,1,0,0:0:0:0:
380,272,45918,1,0,0:0:0:0:
360,292,46009,6,0,L|296:296,1,52.5,0|0,0:0|0:0,0:0:0:0:
164,352,46191,2,0,L|228:328,1,52.5
212,248,46373,6,0,L|192:172,1,52.5,8|0,0:0|0:0,0:0:0:0:
97,124,46555,2,0,L|110:174,1,52.5
164,40,46736,6,0,L|220:24,3,52.5,2|0|0|0,0:0|0:0|0:0|0:0,0:0:0:0:
352,128,47100,2,0,L|296:112,3,52.5,2|0|0|0,0:0|0:0|0:0|0:0,0:0:0:0:
160,196,47464,6,0,L|216:180,3,52.5,2|0|0|0,0:0|0:0|0:0|0:0,0:0:0:0:
356,288,47828,2,0,L|300:272,3,52.5,8|0|0|0,0:0|0:0|0:0|0:0,0:0:0:0:
196,336,48191,5,4,0:0:0:0:
328,80,59827,5,2,0:0:0:0:
352,84,59918,1,0,0:0:0:0:
376,96,60009,1,0,0:0:0:0:
332,176,60191,1,0,0:0:0:0:
352,192,60282,1,0,0:0:0:0:
364,216,60373,1,0,0:0:0:0:
264,248,60555,1,0,0:0:0:0:
264,276,60646,1,0,0:0:0:0:
252,300,60736,1,0,0:0:0:0:
148,256,60918,1,0,0:0:0:0:
124,264,61009,1,0,0:0:0:0:
96,260,61100,1,0,0:0:0:0:
136,148,61282,5,2,0:0:0:0:
112,144,61373,2,0,L|48:128,1,52.5
236,152,61646,1,0,0:0:0:0:
244,128,61736,2,0,L|264:64,1,52.5
396,152,62009,1,0,0:0:0:0:
388,128,62100,2,0,L|364:48,1,52.5
424,244,62373,1,0,0:0:0:0:
400,256,62464,2,0,L|312:296,1,52.5
212,264,62736,6,0,L|172:316,2,52.5,2|0|0,0:0|0:0|0:0,0:0:0:0:
64,220,63100,2,0,L|64:308,2,52.5,0|0|0,0:0|0:0|0:0,0:0:0:0:
160,168,63464,2,0,L|132:104,2,52.5,0|0|0,0:0|0:0|0:0,0:0:0:0:
272,120,63827,2,0,L|272:52,2,52.5,0|0|0,0:0|0:0|0:0,0:0:0:0:
424,112,64191,5,2,0:0:0:0:
428,140,64282,1,0,0:0:0:0:
424,164,64373,1,0,0:0:0:0:
388,280,64555,1,0,0:0:0:0:
388,308,64646,1,0,0:0:0:0:
400,332,64736,1,0,0:0:0:0:
340,204,64918,1,0,0:0:0:0:
316,208,65009,1,0,0:0:0:0:
296,224,65100,1,0,0:0:0:0:
248,308,65282,1,0,0:0:0:0:
60,328,65464,1,0,0:0:0:0:
168,272,65646,6,0,P|120:240|96:184,1,105,2|0,0:0|0:0,0:0:0:0:
88,160,65918,1,0,0:0:0:0:
184,184,66009,2,0,P|185:126|220:76,1,105,8|0,0:0|0:0,0:0:0:0:
393,296,66373,2,0,P|418:244|411:183,1,105,0|0,0:0|0:0,0:0:0:0:
336,228,66736,2,0,P|305:178|250:152,1,105,8|0,0:0|0:0,0:0:0:0:
248,248,67100,5,2,0:0:0:0:
204,320,67282,1,0,0:0:0:0:
180,332,67373,1,0,0:0:0:0:
152,336,67464,1,8,0:0:0:0:
52,308,67646,1,0,0:0:0:0:
128,136,67827,2,0,P|136:188|124:252,1,105
40,212,68191,2,0,P|32:164|44:96,1,105,8|0,0:0|0:0,0:0:0:0:
128,136,68555,6,0,P|210:102|278:44,1,157.5,2|0,0:0|0:0,0:0:0:0:
267,32,68918,1,8,0:0:0:0:
368,16,69100,1,0,0:0:0:0:
412,104,69282,2,0,P|440:154|471:189,1,105
368,232,69646,2,0,P|339:181|308:146,1,105,8|0,0:0|0:0,0:0:0:0:
148,148,70009,5,2,0:0:0:0:
108,144,70100,1,0,0:0:0:0:
68,152,70191,1,0,0:0:0:0:
216,232,70373,5,8,0:0:0:0:
176,228,70464,1,0,0:0:0:0:
136,236,70555,1,0,0:0:0:0:
104,344,70736,1,0,0:0:0:0:
216,328,70918,1,0,0:0:0:0:
256,320,71009,1,0,0:0:0:0:
288,296,71100,1,8,0:0:0:0:
312,260,71191,1,0,0:0:0:0:
356,260,71282,1,0,0:0:0:0:
396,248,71373,1,0,0:0:0:0:
428,224,71464,5,4,0:0:0:0:
92,84,83100,5,4,0:0:0:0:
420,300,86009,5,4,0:0:0:0:
256,192,88918,5,4,0:0:0:0:
232,168,91827,5,4,0:0:0:0:
288,260,91918,2,0,L|336:256,14,26.25
360,248,93282,2,0,P|372:200|344:120,1,105,2|0,0:0|0:0,0:0:0:0:
225,64,93646,2,0,P|216:116|232:168,1,105,8|0,0:0|0:0,0:0:0:0:
328,332,94009,2,0,P|392:336|448:304,1,105,2|0,0:0|0:0,0:0:0:0:
396,100,94373,2,0,P|332:96|276:128,1,105,8|0,0:0|0:0,0:0:0:0:
204,272,94736,5,4,0:0:0:0:
172,276,94827,1,0,0:0:0:0:
140,276,94918,1,0,0:0:0:0:
108,268,95009,1,0,0:0:0:0:
80,252,95100,2,0,L|84:180,3,52.5,8|0|0|0,0:0|0:0|0:0|0:0,0:0:0:0:
168,164,95464,1,0,0:0:0:0:
180,136,95555,1,0,0:0:0:0:
192,108,95646,1,0,0:0:0:0:
204,80,95736,1,0,0:0:0:0:
216,52,95827,2,0,L|280:20,3,52.5,8|0|0|0,0:0|0:0|0:0|0:0,0:0:0:0:
324,96,96191,6,0,L|380:68,1,52.5,2|0,0:0|0:0,0:0:0:0:
392,168,96373,2,0,L|460:152,1,52.5
428,248,96555,2,0,L|492:240,1,52.5,8|0,0:0|0:0,0:0:0:0:
344,292,96736,2,0,L|392:316,1,52.5
248,320,96918,2,0,L|280:372,3,52.5,0|0|0|0,0:0|0:0|0:0|0:0,0:0:0:0:
184,328,97282,2,0,P|96:336|36:276,1,157.5
36,192,97646,5,4,0:0:0:0:
44,160,97736,1,0,0:0:0:0:
44,128,97827,1,0,0:0:0:0:
80,124,97918,1,0,0:0:0:0:
112,124,98009,1,8,0:0:0:0:
144,132,98100,1,0,0:0:0:0:
176,140,98191,1,0,0:0:0:0:
204,156,98282,1,0,0:0:0:0:
184,180,98373,5,0,0:0:0:0:
184,212,98464,1,0,0:0:0:0:
172,240,98555,1,0,0:0:0:0:
204,248,98646,1,0,0:0:0:0:
236,248,98736,1,8,0:0:0:0:
264,240,98827,1,0,0:0:0:0:
292,228,98918,1,0,0:0:0:0:
308,204,99009,1,0,0:0:0:0:
328,176,99100,6,0,L|424:200,3,52.5,2|0|0|0,0:0|0:0|0:0|0:0,0:0:0:0:
472,160,99464,2,0,L|460:216,3,52.5,8|0|0|0,0:0|0:0|0:0|0:0,0:0:0:0:
436,64,99827,2,0,L|532:88,3,52.5
336,40,100191,2,0,L|312:108,3,52.5,8|0|0|0,0:0|0:0|0:0|0:0,0:0:0:0:
380,160,100555,6,0,P|372:196|388:244,1,52.5,4|0,0:0|0:0,0:0:0:0:
440,280,100736,2,0,P|418:317|368:344,1,52.5,0|0,0:0|0:0,0:0:0:0:
384,336,100918,1,8,0:0:0:0:
352,344,101009,1,0,0:0:0:0:
320,344,101100,1,0,0:0:0:0:
288,340,101191,1,0,0:0:0:0:
256,332,101282,2,0,L|176:284,3,52.5
77,251,101646,2,0,L|124:228,3,52.5,8|0|0|0,0:0|0:0|0:0|0:0,0:0:0:0:
136,132,102009,6,0,L|196:100,1,52.5,2|0,0:0|0:0,0:0:0:0:
228,168,102191,2,0,L|308:180,1,52.5
196,256,102373,2,0,L|160:296,1,52.5,8|0,0:0|0:0,0:0:0:0:
76,252,102555,2,0,L|-24:252,1,52.5
36,176,102736,1,0,0:0:0:0:
44,144,102827,1,0,0:0:0:0:
52,116,102918,1,0,0:0:0:0:
60,84,103009,1,0,0:0:0:0:
80,60,103100,1,8,0:0:0:0:
232,84,103282,1,0,0:0:0:0:
152,120,103464,6,0,P|136:171|160:240,1,105,4|0,0:0|0:0,0:0:0:0:
168,244,103736,1,0,0:0:0:0:
192,264,103827,1,8,0:0:0:0:
252,336,104009,1,0,0:0:0:0:
332,284,104191,2,0,P|404:248|424:192,1,105,0|0,0:0|0:0,0:0:0:0:
428,196,104464,1,0,0:0:0:0:
440,168,104555,1,8,0:0:0:0:
456,140,104646,1,0,0:0:0:0:
448,108,104736,1,0,0:0:0:0:
436,80,104827,1,0,0:0:0:0:
416,56,104918,5,4,0:0:0:0:
388,68,105009,1,0,0:0:0:0:
356,68,105100,1,0,0:0:0:0:
324,60,105191,1,0,0:0:0:0:
292,56,105282,1,8,0:0:0:0:
260,56,105373,1,0,0:0:0:0:
232,68,105464,1,0,0:0:0:0:
200,64,105555,1,0,0:0:0:0:
168,60,105646,5,4,0:0:0:0:
148,60,105736,1,0,0:0:0:0:
128,64,105827,1,0,0:0:0:0:
112,76,105918,1,0,0:0:0:0:
100,92,106009,1,8,0:0:0:0:
96,112,106100,1,0,0:0:0:0:
96,132,106191,1,0,0:0:0:0:
104,152,106282,1,0,0:0:0:0:
116,172,106373,5,4,0:0:0:0:
100,200,106463,1,0,0:0:0:0:
84,228,106554,1,0,0:0:0:0:
68,256,106645,1,0,0:0:0:0:
56,284,106736,1,8,0:0:0:0:
88,288,106827,1,0,0:0:0:0:
120,288,106918,1,0,0:0:0:0:
152,288,107009,1,0,0:0:0:0:
164,260,107100,5,0,0:0:0:0:
180,232,107191,1,0,0:0:0:0:
208,216,107282,1,0,0:0:0:0:
240,216,107373,1,0,0:0:0:0:
268,228,107463,1,8,0:0:0:0:
300,228,107554,1,0,0:0:0:0:
332,220,107645,1,0,0:0:0:0:
356,200,107736,1,0,0:0:0:0:
380,180,107827,6,0,L|476:204,3,52.5
472,296,108191,2,0,L|421:283,3,52.5,10|0|0|0,0:0|0:0|0:0|0:0,0:0:0:0:
312,280,108554,2,0,L|296:216,3,52.5
288,144,108918,2,0,L|220:124,3,52.5,8|0|0|0,0:0|0:0|0:0|0:0,0:0:0:0:
192,72,109282,6,0,L|112:120,1,52.5,4|0,0:0|0:0,0:0:0:0:
76,80,109463,2,0,L|56:164,1,52.5,0|0,0:0|0:0,0:0:0:0:
48,200,109645,1,8,0:0:0:0:
80,204,109736,1,0,0:0:0:0:
108,220,109827,1,0,0:0:0:0:
128,244,109918,1,0,0:0:0:0:
136,276,110009,2,0,L|64:312,3,52.5
204,336,110373,2,0,L|250:312,3,52.5,8|0|0|0,0:0|0:0|0:0|0:0,0:0:0:0:
312,240,110736,6,0,L|296:172,1,52.5
344,96,110918,2,0,L|424:108,1,52.5
248,40,111100,2,0,L|212:80,1,52.5,8|0,0:0|0:0,0:0:0:0:
208,168,111282,2,0,L|108:168,1,52.5
48,148,111463,1,0,0:0:0:0:
40,116,111554,1,0,0:0:0:0:
56,88,111645,1,0,0:0:0:0:
72,60,111736,1,0,0:0:0:0:
92,36,111827,1,8,0:0:0:0:
104,228,112009,1,0,0:0:0:0:
48,320,112191,6,0,P|99:335|168:311,1,105,4|0,0:0|0:0,0:0:0:0:
172,304,112463,1,0,0:0:0:0:
192,280,112554,1,8,0:0:0:0:
216,256,112646,1,0,0:0:0:0:
244,248,112736,1,0,0:0:0:0:
276,248,112827,1,0,0:0:0:0:
352,308,112918,2,0,B|404:288|404:288|444:216,1,105,0|0,0:0|0:0,0:0:0:0:
420,216,113191,1,0,0:0:0:0:
424,184,113282,1,8,0:0:0:0:
436,156,113373,1,0,0:0:0:0:
448,128,113463,1,0,0:0:0:0:
460,100,113554,1,0,0:0:0:0:
416,56,113645,5,4,0:0:0:0:
396,64,113736,1,0,0:0:0:0:
376,68,113827,1,2,0:0:0:0:
356,64,113918,1,0,0:0:0:0:
336,72,114009,1,8,0:0:0:0:
316,72,114100,1,0,0:0:0:0:
296,72,114191,1,0,0:0:0:0:
276,72,114282,1,0,0:0:0:0:
256,80,114373,5,4,0:0:0:0:
236,84,114463,1,0,0:0:0:0:
216,76,114554,1,2,0:0:0:0:
196,72,114645,1,0,0:0:0:0:
176,72,114736,1,8,0:0:0:0:
156,76,114827,1,0,0:0:0:0:
136,84,114918,1,0,0:0:0:0:
120,96,115009,1,0,0:0:0:0:
64,184,115100,6,0,L|84:248,1,52.5,4|0,0:0|0:0,0:0:0:0:
108,244,115282,2,0,L|133:314,1,52.5,0|0,0:0|0:0,0:0:0:0:
224,304,115464,6,0,L|296:256,1,52.5,8|0,0:0|0:0,0:0:0:0:
292,296,115646,2,0,L|364:248,1,52.5,0|0,0:0|0:0,0:0:0:0:
448,248,115827,6,0,L|404:218,1,52.5,0|0,0:0|0:0,0:0:0:0:
408,188,116009,2,0,L|364:158,1,52.5,0|0,0:0|0:0,0:0:0:0:
364,60,116191,6,0,L|311:69,1,52.5,8|0,0:0|0:0,0:0:0:0:
304,100,116373,2,0,L|251:109,1,52.5,0|0,0:0|0:0,0:0:0:0:
112,176,116555,6,0,L|189:214,1,52.5,12|0,0:0|0:0,0:0:0:0:
224,176,116737,2,0,L|181:206,1,52.5,0|0,0:0|0:0,0:0:0:0:
128,236,116918,6,0,L|205:274,1,52.5,8|0,0:0|0:0,0:0:0:0:
240,236,117100,2,0,L|197:266,1,52.5,0|0,0:0|0:0,0:0:0:0:
96,356,117282,6,0,L|168:308,1,52.5,8|0,0:0|0:0,0:0:0:0:
216,352,117464,2,0,L|259:322,1,52.5,0|0,0:0|0:0,0:0:0:0:
288,208,117646,6,0,L|360:160,1,52.5,8|0,0:0|0:0,0:0:0:0:
448,196,117828,2,0,L|404:225,1,52.5,0|0,0:0|0:0,0:0:0:0:
256,192,118009,12,0,120827,0:0:0:0:
256,192,120918,12,0,125282,0:0:0:0:
