osu file format v12

[General]
AudioFilename: IIDX Tricoro.mp3
AudioLeadIn: 3000
PreviewTime: 24918
Countdown: 1
SampleSet: Soft
StackLeniency: 0.7
Mode: 0
LetterboxInBreaks: 1

[Editor]
DistanceSpacing: 1.2
BeatDivisor: 4
GridSize: 4

[Metadata]
Title:Dragon to Shoujo to Decoherence
TitleUnicode:龍と少女とデコヒーレンス
Artist:Kuroneko Dungeon
ArtistUnicode:黒猫ダンジョン
Creator:wantuole
Version:Easy
Source:beatmania IIDX 20 tricoro
Tags:Tomosuke
BeatmapID:236431
BeatmapSetID:82390

[Difficulty]
HPDrainRate:2
CircleSize:3
OverallDifficulty:2
ApproachRate:3
SliderMultiplier:0.700000005960464
SliderTickRate:1

[Events]
//Background and Video events
Video,0,"video.avi"
0,0,"bg.jpg",1,1
//Break Periods
2,13482,17660
2,48391,58387
2,71663,81660
2,83300,84569
2,86209,87478
2,89118,90387
//Storyboard Layer 0 (Background)
//Storyboard Layer 1 (Fail)
//Storyboard Layer 2 (Pass)
//Storyboard Layer 3 (Foreground)
//Storyboard Sound Samples
//Background Colour Transformations
3,100,163,162,255

[TimingPoints]
1646,363.636363636364,4,2,1,55,1,0
22009,-100,4,2,1,55,0,0
24918,-100,4,2,1,55,0,1
25009,-100,4,2,1,55,0,0
25191,-100,4,2,2,55,0,0
25373,-100,4,2,1,55,0,0
26646,-100,4,2,2,55,0,0
26827,-100,4,2,1,55,0,0
28100,-100,4,2,2,55,0,0
28282,-100,4,2,1,5,0,0
28464,-100,4,2,1,55,0,0
29555,-100,4,2,2,55,0,0
29736,-100,4,2,1,55,0,0
31009,-100,4,2,2,55,0,0
31191,-100,4,2,1,55,0,0
33191,-100,4,2,2,55,0,0
33373,-100,4,2,1,55,0,0
35373,-100,4,2,2,55,0,0
35555,-100,4,2,1,55,0,0
38282,-100,4,2,2,55,0,0
38464,-100,4,2,1,55,0,0
39736,-100,4,2,2,55,0,0
39918,-100,4,2,1,55,0,0
42646,-100,4,2,2,55,0,0
42827,-100,4,2,1,55,0,0
45555,-100,4,2,2,55,0,0
45736,-100,4,2,1,55,0,0
47009,-100,4,2,2,55,0,0
47191,-100,4,2,1,55,0,0
91827,-200,4,2,1,55,0,0
94736,-100,4,2,1,55,0,1
94827,-100,4,2,1,55,0,0
95009,-100,4,2,2,55,0,0
95191,-100,4,2,1,55,0,0
96464,-100,4,2,2,55,0,0
96646,-100,4,2,1,55,0,0
97918,-100,4,2,2,55,0,0
98100,-100,4,2,1,55,0,0
99373,-100,4,2,2,55,0,0
99555,-100,4,2,1,55,0,0
100827,-100,4,2,2,55,0,0
101009,-100,4,2,1,55,0,0
106646,-100,4,2,2,55,0,0
106827,-100,4,2,1,55,0,0
108100,-100,4,2,2,55,0,0
108282,-100,4,2,1,55,0,0
112464,-100,4,2,2,55,0,0
112646,-100,4,2,1,55,0,0
113918,-100,4,2,2,55,0,0
114100,-100,4,2,1,55,0,0
115373,-100,4,2,2,55,0,0
115555,-100,4,2,1,55,0,0
116827,-100,4,2,2,55,0,0
117009,-100,4,2,1,55,0,0
120827,-100,4,2,1,5,0,0

[Colours]
Combo1 : 255,255,255
Combo2 : 255,135,77
Combo3 : 10,166,211
Combo4 : 236,0,236

[HitObjects]
108,324,1646,2,0,P|68:220|120:140,1,210.000001788139,2|0,0:0|0:0,0:0:0:0:
108,60,3100,2,0,L|252:60,1,140.000001192093
412,44,4555,6,0,P|452:148|400:228,1,210.000001788139,2|0,0:0|0:0,0:0:0:0:
372,304,6009,2,0,P|300:284|228:308,1,140.000001192093
88,224,7464,6,0,P|88:272|109:326,2,105.00000089407,4|0|0,0:0|0:0|0:0,0:0:0:0:
140,160,8918,2,0,P|204:136|288:136,1,140.000001192093
360,128,10009,1,0,0:0:0:0:
424,184,10373,6,0,L|448:264,1,70.0000005960464,2|0,0:0|0:0,0:0:0:0:
368,288,11100,2,0,P|308:304|216:300,1,140.000001192093
148,292,12191,2,0,L|116:356,2,70.0000005960464
92,228,13282,5,4,0:0:0:0:
256,192,19100,5,4,0:0:0:0:
256,192,20555,1,4,0:0:0:0:
256,192,22009,5,4,0:0:0:0:
340,337,22736,1,4,0:0:0:0:
172,336,23464,1,4,0:0:0:0:
172,252,23827,1,0,0:0:0:0:
172,168,24191,1,0,0:0:0:0:
40,272,24918,6,0,P|96:192|32:108,1,210.000001788139,4|8,0:0|0:0,0:0:0:0:
96,48,26373,2,0,B|200:72|200:72|312:44,1,210.000001788139,0|8,0:0|0:0,0:0:0:0:
344,120,27827,6,0,P|304:160|288:216,2,105.00000089407
428,132,29282,2,0,P|460:244|392:292,1,210.000001788139,0|8,0:0|0:0,0:0:0:0:
312,280,30736,6,0,P|236:280|168:308,1,140.000001192093,0|0,0:0|0:0,0:0:0:0:
92,284,31827,1,8,0:0:0:0:
56,208,32191,2,0,L|68:132,1,70.0000005960464,0|8,0:0|0:0,0:0:0:0:
124,76,32918,2,0,P|196:72|272:100,1,140.000001192093
344,96,34009,6,0,L|424:96,2,70.0000005960464,8|0|8,0:0|0:0|0:0,0:0:0:0:
300,168,35100,2,0,P|228:228|272:328,1,210.000001788139,0|8,0:0|0:0,0:0:0:0:
348,340,36555,5,4,0:0:0:0:
404,280,36918,2,0,L|488:280,2,70.0000005960464,8|0|8,0:0|0:0|0:0,0:0:0:0:
404,196,38009,2,0,P|331:121|222:77,1,210.000001788139,0|8,0:0|0:0,0:0:0:0:
224,164,39464,6,0,P|236:232|212:300,1,140.000001192093
136,328,40555,1,8,0:0:0:0:
68,280,40918,2,0,L|0:316,2,70.0000005960464,0|8|0,0:0|0:0|0:0,0:0:0:0:
40,200,42009,1,8,0:0:0:0:
48,116,42373,6,0,P|128:64|256:56,1,210.000001788139,0|8,0:0|0:0,0:0:0:0:
320,76,43827,2,0,L|400:96,2,70.0000005960464,0|8|0,0:0|0:0|0:0,0:0:0:0:
260,136,44918,1,8,0:0:0:0:
180,156,45282,6,0,P|148:260|204:340,1,210.000001788139,0|8,0:0|0:0,3:0:0:0:
284,344,46736,2,0,B|368:280|368:280|360:160,1,210.000001788139,0|8,0:0|0:0,0:0:0:0:
352,92,48191,5,4,0:0:0:0:
304,120,59827,6,0,L|384:104,3,70.0000005960464,2|0|0|0,0:0|0:0|0:0|0:0,0:0:0:0:
392,188,61282,2,0,L|472:172,3,70.0000005960464,0|0|0|0,0:0|0:0|0:0|0:0,0:0:0:0:
464,260,62736,6,0,P|392:304|256:304,1,210.000001788139,2|0,0:0|0:0,0:0:0:0:
268,224,64191,2,0,P|145:228|73:272,1,210.000001788139
28,200,65646,6,0,P|36:132|80:60,1,140.000001192093,2|0,0:0|0:0,0:0:0:0:
152,56,66736,1,0,0:0:0:0:
224,100,67100,2,0,L|304:92,3,70.0000005960464
376,80,68555,6,0,P|376:200|304:252,1,210.000001788139,2|0,0:0|0:0,0:0:0:0:
256,316,70009,2,0,L|180:296,1,70.0000005960464
108,316,70736,2,0,P|88:240|100:172,1,140.000001192093,0|4,0:0|0:0,0:0:0:0:
256,192,83100,5,4,0:0:0:0:
256,192,86009,5,4,0:0:0:0:
256,192,88918,5,4,0:0:0:0:
256,192,91827,12,0,93827,0:0:0:0:
304,120,94736,6,0,B|356:208|356:208|304:308,1,210.000001788139,4|8,0:0|0:0,0:0:0:0:
224,284,96191,2,0,P|148:296|84:276,1,140.000001192093
52,204,97282,1,8,0:0:0:0:
72,124,97646,6,0,B|184:108|184:108|272:164,1,210.000001788139,0|8,0:0|0:0,0:0:0:0:
336,112,99100,2,0,P|392:128|464:184,1,140.000001192093
472,260,100191,1,8,0:0:0:0:
404,308,100555,6,0,P|328:328|264:328,1,140.000001192093
200,276,101646,1,8,0:0:0:0:
116,300,102009,2,0,L|72:236,1,70.0000005960464,0|8,0:0|0:0,0:0:0:0:
92,160,102736,2,0,L|48:96,1,70.0000005960464,0|8,0:0|0:0,0:0:0:0:
128,64,103464,6,0,L|200:92,3,70.0000005960464,0|8|0|8,0:0|0:0|0:0|0:0,0:0:0:0:
264,48,104918,2,0,L|336:76,3,70.0000005960464,0|8|0|8,0:0|0:0|0:0|0:0,0:0:0:0:
412,72,106373,6,0,P|400:144|424:212,1,140.000001192093,4|0,0:0|0:0,0:0:0:0:
440,288,107464,1,8,0:0:0:0:
360,312,107827,2,0,P|288:300|212:324,1,140.000001192093
140,332,108918,1,8,0:0:0:0:
56,316,109282,5,0,0:0:0:0:
52,232,109646,2,0,P|36:168|52:88,1,140.000001192093,8|8,0:0|0:0,0:0:0:0:
132,84,110736,2,0,L|212:68,1,70.0000005960464,0|8,0:0|0:0,0:0:0:0:
248,140,111464,2,0,L|332:120,1,70.0000005960464,0|8,0:0|0:0,0:0:0:0:
400,120,112191,6,0,B|396:224|396:224|348:320,1,210.000001788139,0|8,0:0|0:0,0:0:0:0:
264,300,113646,2,0,P|188:312|124:292,1,140.000001192093
92,220,114736,1,8,0:0:0:0:
112,140,115100,6,0,B|224:124|224:124|312:180,1,210.000001788139,8|8,0:0|0:0,0:0:0:0:
380,136,116554,2,0,P|394:192|344:252,1,140.000001192093
264,272,117645,1,8,0:0:0:0:
256,192,118009,12,0,120827,0:0:0:0:
256,192,120918,12,0,125282,0:0:0:0:
