osu file format v12

[General]
AudioFilename: 少年ノアとΦの邂逅.mp3
AudioLeadIn: 0
PreviewTime: 81243
Countdown: 0
SampleSet: Soft
StackLeniency: 0.7
Mode: 1
LetterboxInBreaks: 0
WidescreenStoryboard: 0

[Editor]
DistanceSpacing: 0.1
BeatDivisor: 4
GridSize: 8

[Metadata]
Title:Reunion of Noah and the World
TitleUnicode:少年ノアとΦの邂逅
Artist:Kuroneko Antique feat. GUMI
ArtistUnicode:黒猫アンティーク feat. GUMI
Creator:Shino
Version:Oni
Source:
Tags:taiko cosmo bousoup shounen noah to sekai no kaikou
BeatmapID:288170
BeatmapSetID:110647

[Difficulty]
HPDrainRate:5
CircleSize:5
OverallDifficulty:6
ApproachRate:5
SliderMultiplier:1.4
SliderTickRate:1

[Events]
//Background and Video events
0,0,"36789326_big_p1.jpg",0,0
//Break Periods
//Storyboard Layer 0 (Background)
//Storyboard Layer 1 (Fail)
//Storyboard Layer 2 (Pass)
//Storyboard Layer 3 (Foreground)
//Storyboard Sound Samples
//Background Colour Transformations
3,100,163,162,255

[TimingPoints]
3705,461.538461538462,4,2,0,20,1,0
11089,-100,4,2,0,100,0,1
25858,-100,4,2,0,100,0,0
77320,-100,4,2,0,20,0,0
81128,-100,4,2,0,100,0,0
81243,-100,4,2,0,100,0,1
96012,-100,4,2,0,100,0,0
188205,-100,4,2,0,20,0,0
217743,-100,4,2,0,100,0,0
217858,-100,4,2,0,100,0,1
232628,-100,4,2,0,100,0,0

[HitObjects]
88,88,3705,5,8,0:0:0:0:
88,88,3935,1,0,0:0:0:0:
88,88,4051,1,0,0:0:0:0:
88,88,4166,1,8,0:0:0:0:
88,88,4397,1,0,0:0:0:0:
88,88,4512,1,0,0:0:0:0:
88,88,4628,1,8,0:0:0:0:
88,88,4858,1,0,0:0:0:0:
88,88,4974,1,8,0:0:0:0:
88,88,5089,1,0,0:0:0:0:
88,88,5205,1,0,0:0:0:0:
88,88,5320,1,8,0:0:0:0:
88,88,5551,1,8,0:0:0:0:
88,88,5781,1,0,0:0:0:0:
88,88,5897,1,0,0:0:0:0:
88,88,6012,1,8,0:0:0:0:
88,88,6243,1,0,0:0:0:0:
88,88,6358,1,0,0:0:0:0:
88,88,6474,1,8,0:0:0:0:
88,88,6705,1,8,0:0:0:0:
88,88,6935,1,0,0:0:0:0:
88,88,7397,5,8,0:0:0:0:
88,88,7627,1,0,0:0:0:0:
88,88,7743,1,0,0:0:0:0:
88,88,7858,1,8,0:0:0:0:
88,88,8089,1,0,0:0:0:0:
88,88,8205,1,0,0:0:0:0:
88,88,8320,1,8,0:0:0:0:
88,88,8550,1,0,0:0:0:0:
88,88,8666,1,8,0:0:0:0:
88,88,8781,1,0,0:0:0:0:
88,88,8897,1,0,0:0:0:0:
88,88,9012,1,8,0:0:0:0:
88,88,9243,1,8,0:0:0:0:
88,88,9473,1,0,0:0:0:0:
88,88,9589,1,0,0:0:0:0:
88,88,9704,1,8,0:0:0:0:
88,88,9935,1,0,0:0:0:0:
88,88,10050,1,0,0:0:0:0:
88,88,10166,1,8,0:0:0:0:
88,88,10397,1,8,0:0:0:0:
88,88,10628,1,8,0:0:0:0:
88,88,11089,5,4,0:0:0:0:
88,88,11319,1,0,0:0:0:0:
88,88,11435,1,8,0:0:0:0:
88,88,11550,1,0,0:0:0:0:
88,88,11781,1,8,0:0:0:0:
88,88,12012,1,0,0:0:0:0:
88,88,12128,1,0,0:0:0:0:
88,88,12243,1,8,0:0:0:0:
88,88,12473,1,0,0:0:0:0:
88,88,12589,1,0,0:0:0:0:
88,88,12704,1,8,0:0:0:0:
88,88,12820,1,8,0:0:0:0:
88,88,12935,1,0,0:0:0:0:
88,88,13166,1,8,0:0:0:0:
88,88,13396,1,0,0:0:0:0:
88,88,13627,1,8,0:0:0:0:
88,88,13742,1,8,0:0:0:0:
88,88,13858,1,8,0:0:0:0:
88,88,14089,1,8,0:0:0:0:
88,88,14319,1,4,0:0:0:0:
88,88,14781,5,4,0:0:0:0:
88,88,15011,1,0,0:0:0:0:
88,88,15127,1,8,0:0:0:0:
88,88,15242,1,0,0:0:0:0:
88,88,15473,1,8,0:0:0:0:
88,88,15704,1,0,0:0:0:0:
88,88,15820,1,0,0:0:0:0:
88,88,15935,1,8,0:0:0:0:
88,88,16165,1,0,0:0:0:0:
88,88,16396,1,8,0:0:0:0:
88,88,16627,1,4,0:0:0:0:
88,88,17088,1,4,0:0:0:0:
88,88,17550,1,4,0:0:0:0:
88,88,17781,1,0,0:0:0:0:
88,88,18012,1,4,0:0:0:0:
88,88,18474,5,4,0:0:0:0:
88,88,18704,1,0,0:0:0:0:
88,88,18820,1,8,0:0:0:0:
88,88,18935,1,0,0:0:0:0:
88,88,19166,1,8,0:0:0:0:
88,88,19397,1,0,0:0:0:0:
88,88,19513,1,0,0:0:0:0:
88,88,19628,1,8,0:0:0:0:
88,88,19858,1,0,0:0:0:0:
88,88,19974,1,0,0:0:0:0:
88,88,20089,1,8,0:0:0:0:
88,88,20205,1,8,0:0:0:0:
88,88,20320,1,0,0:0:0:0:
88,88,20551,1,8,0:0:0:0:
88,88,20781,1,0,0:0:0:0:
88,88,21012,1,8,0:0:0:0:
88,88,21127,1,8,0:0:0:0:
88,88,21243,1,8,0:0:0:0:
88,88,21474,1,8,0:0:0:0:
88,88,21704,1,4,0:0:0:0:
88,88,22166,5,4,0:0:0:0:
88,88,22396,1,0,0:0:0:0:
88,88,22512,1,8,0:0:0:0:
88,88,22627,1,0,0:0:0:0:
88,88,22858,1,8,0:0:0:0:
88,88,23089,1,0,0:0:0:0:
88,88,23205,1,0,0:0:0:0:
88,88,23320,1,8,0:0:0:0:
88,88,23550,1,0,0:0:0:0:
88,88,23781,1,8,0:0:0:0:
88,88,24012,1,4,0:0:0:0:
88,88,24473,1,4,0:0:0:0:
88,88,24935,1,4,0:0:0:0:
88,88,25166,1,0,0:0:0:0:
88,88,25397,1,4,0:0:0:0:
88,88,25858,5,4,0:0:0:0:
88,88,26205,1,8,0:0:0:0:
88,88,26320,1,0,0:0:0:0:
88,88,26551,1,8,0:0:0:0:
88,88,26781,1,0,0:0:0:0:
88,88,26897,1,0,0:0:0:0:
88,88,27012,1,8,0:0:0:0:
88,88,27243,1,0,0:0:0:0:
88,88,27474,1,0,0:0:0:0:
88,88,27705,1,8,0:0:0:0:
88,88,28166,1,8,0:0:0:0:
88,88,28397,1,8,0:0:0:0:
88,88,28512,1,8,0:0:0:0:
88,88,28628,1,0,0:0:0:0:
88,88,28858,1,8,0:0:0:0:
88,88,29089,1,4,0:0:0:0:
88,88,29551,5,4,0:0:0:0:
88,88,29897,1,8,0:0:0:0:
88,88,30012,1,0,0:0:0:0:
88,88,30243,1,8,0:0:0:0:
88,88,30473,1,0,0:0:0:0:
88,88,30589,1,0,0:0:0:0:
88,88,30704,1,8,0:0:0:0:
88,88,30935,1,0,0:0:0:0:
88,88,31166,1,0,0:0:0:0:
88,88,31397,1,8,0:0:0:0:
88,88,31858,1,0,0:0:0:0:
88,88,32012,1,0,0:0:0:0:
88,88,32166,1,0,0:0:0:0:
88,88,32320,1,8,0:0:0:0:
88,88,32781,1,12,0:0:0:0:
88,88,33243,5,4,0:0:0:0:
88,88,33705,1,0,0:0:0:0:
88,88,33935,1,0,0:0:0:0:
88,88,34051,1,0,0:0:0:0:
88,88,34166,1,8,0:0:0:0:
88,88,34397,1,0,0:0:0:0:
88,88,34512,1,8,0:0:0:0:
88,88,34743,1,0,0:0:0:0:
88,88,34858,1,8,0:0:0:0:
88,88,35089,1,0,0:0:0:0:
88,88,35320,1,8,0:0:0:0:
88,88,35435,1,8,0:0:0:0:
88,88,35551,1,0,0:0:0:0:
88,88,35781,1,8,0:0:0:0:
88,88,35896,1,8,0:0:0:0:
88,88,36012,1,8,0:0:0:0:
88,88,36243,1,8,0:0:0:0:
88,88,36474,1,0,0:0:0:0:
88,88,36935,5,8,0:0:0:0:
88,88,37397,1,8,0:0:0:0:
88,88,37627,1,0,0:0:0:0:
88,88,37743,1,0,0:0:0:0:
88,88,37858,1,8,0:0:0:0:
88,88,38089,1,0,0:0:0:0:
88,88,38204,1,8,0:0:0:0:
88,88,38435,1,0,0:0:0:0:
88,88,38550,1,8,0:0:0:0:
88,88,38781,1,0,0:0:0:0:
88,88,39012,1,8,0:0:0:0:
88,88,39127,1,8,0:0:0:0:
88,88,39243,1,0,0:0:0:0:
88,88,39473,1,8,0:0:0:0:
88,88,39588,1,8,0:0:0:0:
88,88,39704,1,8,0:0:0:0:
88,88,39935,1,8,0:0:0:0:
88,88,40166,1,0,0:0:0:0:
88,88,40628,5,0,0:0:0:0:
88,88,41090,1,0,0:0:0:0:
88,88,41320,1,0,0:0:0:0:
88,88,41436,1,0,0:0:0:0:
88,88,41551,1,8,0:0:0:0:
88,88,41782,1,0,0:0:0:0:
88,88,41897,1,8,0:0:0:0:
88,88,42128,1,0,0:0:0:0:
88,88,42243,1,8,0:0:0:0:
88,88,42474,1,0,0:0:0:0:
88,88,42705,1,8,0:0:0:0:
88,88,42820,1,8,0:0:0:0:
88,88,42936,1,0,0:0:0:0:
88,88,43166,1,8,0:0:0:0:
88,88,43281,1,8,0:0:0:0:
88,88,43397,1,8,0:0:0:0:
88,88,43628,1,8,0:0:0:0:
88,88,43859,1,0,0:0:0:0:
88,88,44320,5,8,0:0:0:0:
88,88,44782,1,8,0:0:0:0:
88,88,45012,1,0,0:0:0:0:
88,88,45128,1,0,0:0:0:0:
88,88,45243,1,8,0:0:0:0:
88,88,45474,1,0,0:0:0:0:
88,88,45589,1,8,0:0:0:0:
88,88,45820,1,0,0:0:0:0:
88,88,45935,1,8,0:0:0:0:
88,88,46166,1,0,0:0:0:0:
88,88,46397,1,8,0:0:0:0:
88,88,46512,1,8,0:0:0:0:
88,88,46628,1,0,0:0:0:0:
88,88,46858,1,8,0:0:0:0:
88,88,46973,1,8,0:0:0:0:
88,88,47089,1,8,0:0:0:0:
88,88,47320,1,8,0:0:0:0:
88,88,47551,1,4,0:0:0:0:
88,88,48012,5,4,0:0:0:0:
88,88,48243,1,8,0:0:0:0:
88,88,48358,1,8,0:0:0:0:
88,88,48474,1,0,0:0:0:0:
88,88,48705,1,8,0:0:0:0:
88,88,48935,1,8,0:0:0:0:
88,88,49051,1,8,0:0:0:0:
88,88,49281,1,8,0:0:0:0:
88,88,49397,1,8,0:0:0:0:
88,88,49628,1,8,0:0:0:0:
88,88,49858,1,0,0:0:0:0:
88,88,50089,1,8,0:0:0:0:
88,88,50205,1,8,0:0:0:0:
88,88,50320,1,0,0:0:0:0:
88,88,50551,1,0,0:0:0:0:
88,88,50666,1,0,0:0:0:0:
88,88,50781,1,8,0:0:0:0:
88,88,51012,1,8,0:0:0:0:
88,88,51243,1,0,0:0:0:0:
88,88,51474,1,4,0:0:0:0:
88,88,51705,5,4,0:0:0:0:
88,88,51936,1,8,0:0:0:0:
88,88,52051,1,8,0:0:0:0:
88,88,52167,1,0,0:0:0:0:
88,88,52398,1,8,0:0:0:0:
88,88,52628,1,8,0:0:0:0:
88,88,52744,1,8,0:0:0:0:
88,88,52974,1,8,0:0:0:0:
88,88,53090,1,8,0:0:0:0:
88,88,53321,1,8,0:0:0:0:
88,88,53551,1,4,0:0:0:0:
88,88,53782,1,8,0:0:0:0:
88,88,53898,1,8,0:0:0:0:
88,88,54013,1,0,0:0:0:0:
88,88,54244,1,0,0:0:0:0:
88,88,54359,1,0,0:0:0:0:
88,88,54474,1,8,0:0:0:0:
88,88,54705,1,4,0:0:0:0:
88,88,55166,1,4,0:0:0:0:
88,88,55397,5,4,0:0:0:0:
88,88,55628,1,8,0:0:0:0:
88,88,55743,1,8,0:0:0:0:
88,88,55859,1,0,0:0:0:0:
88,88,56090,1,8,0:0:0:0:
88,88,56320,1,8,0:0:0:0:
88,88,56436,1,8,0:0:0:0:
88,88,56666,1,8,0:0:0:0:
88,88,56782,1,8,0:0:0:0:
88,88,57013,1,8,0:0:0:0:
88,88,57243,1,0,0:0:0:0:
88,88,57474,1,8,0:0:0:0:
88,88,57590,1,8,0:0:0:0:
88,88,57705,1,0,0:0:0:0:
88,88,57936,1,0,0:0:0:0:
88,88,58051,1,0,0:0:0:0:
88,88,58166,1,8,0:0:0:0:
88,88,58397,1,8,0:0:0:0:
88,88,58628,1,0,0:0:0:0:
88,88,58859,1,4,0:0:0:0:
88,88,59089,5,4,0:0:0:0:
88,88,59320,1,8,0:0:0:0:
88,88,59435,1,8,0:0:0:0:
88,88,59551,1,0,0:0:0:0:
88,88,59782,1,8,0:0:0:0:
88,88,60012,1,8,0:0:0:0:
88,88,60243,1,0,0:0:0:0:
88,88,60474,1,4,0:0:0:0:
88,88,60705,1,8,0:0:0:0:
88,88,60935,1,4,0:0:0:0:
88,88,61166,1,8,0:0:0:0:
88,88,61282,1,8,0:0:0:0:
88,88,61397,1,0,0:0:0:0:
88,88,61628,1,0,0:0:0:0:
88,88,61743,1,0,0:0:0:0:
88,88,61858,1,8,0:0:0:0:
88,88,62089,1,8,0:0:0:0:
88,88,62320,1,4,0:0:0:0:
88,88,62781,5,4,0:0:0:0:
88,88,63243,1,8,0:0:0:0:
88,88,63474,1,4,0:0:0:0:
88,88,63935,1,8,0:0:0:0:
88,88,64166,1,4,0:0:0:0:
88,88,64628,1,0,0:0:0:0:
88,88,64858,1,4,0:0:0:0:
88,88,65089,1,0,0:0:0:0:
88,88,65320,1,0,0:0:0:0:
88,88,65435,1,0,0:0:0:0:
88,88,65551,1,8,0:0:0:0:
88,88,65781,1,8,0:0:0:0:
88,88,66012,1,4,0:0:0:0:
88,88,66474,5,4,0:0:0:0:
88,88,66935,1,8,0:0:0:0:
88,88,67166,1,8,0:0:0:0:
88,88,67281,1,8,0:0:0:0:
88,88,67397,1,0,0:0:0:0:
88,88,67628,1,0,0:0:0:0:
88,88,67858,1,8,0:0:0:0:
88,88,68089,1,8,0:0:0:0:
88,88,68320,1,0,0:0:0:0:
88,88,68474,1,0,0:0:0:0:
88,88,68628,1,0,0:0:0:0:
88,88,68781,1,8,0:0:0:0:
88,88,68935,1,8,0:0:0:0:
88,88,69089,1,8,0:0:0:0:
88,88,69243,1,0,0:0:0:0:
88,88,69397,1,0,0:0:0:0:
88,88,69551,1,0,0:0:0:0:
88,88,69705,1,8,0:0:0:0:
88,88,69820,1,8,0:0:0:0:
88,88,69936,1,8,0:0:0:0:
88,88,70051,1,8,0:0:0:0:
88,88,70166,5,0,0:0:0:0:
88,88,70512,1,8,0:0:0:0:
88,88,70628,1,0,0:0:0:0:
88,88,70858,1,8,0:0:0:0:
88,88,71089,1,0,0:0:0:0:
88,88,71205,1,0,0:0:0:0:
88,88,71320,1,8,0:0:0:0:
88,88,71551,1,0,0:0:0:0:
88,88,71781,1,8,0:0:0:0:
88,88,72012,1,8,0:0:0:0:
88,88,72243,1,0,0:0:0:0:
88,88,72358,1,0,0:0:0:0:
88,88,72474,1,8,0:0:0:0:
88,88,72705,1,8,0:0:0:0:
88,88,72820,1,8,0:0:0:0:
88,88,72935,1,0,0:0:0:0:
88,88,73166,1,8,0:0:0:0:
88,88,73397,1,4,0:0:0:0:
88,88,73858,5,4,0:0:0:0:
88,88,74089,1,8,0:0:0:0:
88,88,74205,1,8,0:0:0:0:
88,88,74320,1,0,0:0:0:0:
88,88,74551,1,8,0:0:0:0:
88,88,74666,1,0,0:0:0:0:
88,88,74781,1,8,0:0:0:0:
88,88,75012,1,8,0:0:0:0:
88,88,75243,1,0,0:0:0:0:
88,88,75705,1,12,0:0:0:0:
88,88,76166,1,12,0:0:0:0:
88,88,76628,1,12,0:0:0:0:
88,88,77089,1,12,0:0:0:0:
88,88,77551,5,8,0:0:0:0:
88,88,77781,1,8,0:0:0:0:
88,88,78012,1,0,0:0:0:0:
88,88,78243,1,8,0:0:0:0:
88,88,78474,1,0,0:0:0:0:
88,88,78705,1,8,0:0:0:0:
88,88,78935,1,0,0:0:0:0:
88,88,79166,1,0,0:0:0:0:
88,88,79397,1,8,0:0:0:0:
88,88,79858,1,8,0:0:0:0:
88,88,80320,1,8,0:0:0:0:
88,88,80781,1,8,0:0:0:0:
88,88,81243,5,4,0:0:0:0:
88,88,81473,1,0,0:0:0:0:
88,88,81589,1,8,0:0:0:0:
88,88,81704,1,0,0:0:0:0:
88,88,81935,1,8,0:0:0:0:
88,88,82166,1,0,0:0:0:0:
88,88,82282,1,0,0:0:0:0:
88,88,82397,1,8,0:0:0:0:
88,88,82627,1,0,0:0:0:0:
88,88,82743,1,0,0:0:0:0:
88,88,82858,1,8,0:0:0:0:
88,88,82974,1,8,0:0:0:0:
88,88,83089,1,0,0:0:0:0:
88,88,83320,1,8,0:0:0:0:
88,88,83550,1,0,0:0:0:0:
88,88,83781,1,8,0:0:0:0:
88,88,83896,1,8,0:0:0:0:
88,88,84012,1,8,0:0:0:0:
88,88,84243,1,8,0:0:0:0:
88,88,84473,1,4,0:0:0:0:
88,88,84935,5,4,0:0:0:0:
88,88,85165,1,0,0:0:0:0:
88,88,85281,1,8,0:0:0:0:
88,88,85396,1,0,0:0:0:0:
88,88,85627,1,8,0:0:0:0:
88,88,85858,1,0,0:0:0:0:
88,88,85974,1,0,0:0:0:0:
88,88,86089,1,8,0:0:0:0:
88,88,86319,1,0,0:0:0:0:
88,88,86550,1,8,0:0:0:0:
88,88,86781,1,4,0:0:0:0:
88,88,87242,1,4,0:0:0:0:
88,88,87704,1,4,0:0:0:0:
88,88,87935,1,0,0:0:0:0:
88,88,88166,1,4,0:0:0:0:
88,88,88628,5,4,0:0:0:0:
88,88,88858,1,0,0:0:0:0:
88,88,88974,1,8,0:0:0:0:
88,88,89089,1,0,0:0:0:0:
88,88,89320,1,8,0:0:0:0:
88,88,89551,1,0,0:0:0:0:
88,88,89667,1,0,0:0:0:0:
88,88,89782,1,8,0:0:0:0:
88,88,90012,1,0,0:0:0:0:
88,88,90128,1,0,0:0:0:0:
88,88,90243,1,8,0:0:0:0:
88,88,90359,1,8,0:0:0:0:
88,88,90474,1,0,0:0:0:0:
88,88,90705,1,8,0:0:0:0:
88,88,90935,1,0,0:0:0:0:
88,88,91166,1,8,0:0:0:0:
88,88,91281,1,8,0:0:0:0:
88,88,91397,1,8,0:0:0:0:
88,88,91628,1,8,0:0:0:0:
88,88,91858,1,4,0:0:0:0:
88,88,92320,5,4,0:0:0:0:
88,88,92550,1,0,0:0:0:0:
88,88,92666,1,8,0:0:0:0:
88,88,92781,1,0,0:0:0:0:
88,88,93012,1,8,0:0:0:0:
88,88,93243,1,0,0:0:0:0:
88,88,93359,1,0,0:0:0:0:
88,88,93474,1,8,0:0:0:0:
88,88,93704,1,0,0:0:0:0:
88,88,93935,1,8,0:0:0:0:
88,88,94166,1,4,0:0:0:0:
88,88,94627,1,4,0:0:0:0:
88,88,95089,1,4,0:0:0:0:
88,88,95320,1,0,0:0:0:0:
88,88,95551,1,4,0:0:0:0:
88,88,96012,5,4,0:0:0:0:
88,88,96243,1,8,0:0:0:0:
88,88,96358,1,8,0:0:0:0:
88,88,96474,1,0,0:0:0:0:
88,88,96705,1,8,0:0:0:0:
88,88,96935,1,0,0:0:0:0:
88,88,97051,1,0,0:0:0:0:
88,88,97166,1,8,0:0:0:0:
88,88,97397,1,0,0:0:0:0:
88,88,97858,1,8,0:0:0:0:
88,88,98089,1,0,0:0:0:0:
88,88,98205,1,0,0:0:0:0:
88,88,98320,1,8,0:0:0:0:
88,88,98551,1,0,0:0:0:0:
88,88,98666,1,0,0:0:0:0:
88,88,98781,1,8,0:0:0:0:
88,88,99012,1,8,0:0:0:0:
88,88,99243,1,4,0:0:0:0:
88,88,99705,5,4,0:0:0:0:
88,88,99936,1,8,0:0:0:0:
88,88,100051,1,8,0:0:0:0:
88,88,100167,1,0,0:0:0:0:
88,88,100398,1,8,0:0:0:0:
88,88,100628,1,0,0:0:0:0:
88,88,100744,1,0,0:0:0:0:
88,88,100859,1,8,0:0:0:0:
88,88,101090,1,0,0:0:0:0:
88,88,101551,1,12,0:0:0:0:
88,88,102013,1,12,0:0:0:0:
88,88,102474,1,12,0:0:0:0:
88,88,102705,1,8,0:0:0:0:
88,88,102936,1,12,0:0:0:0:
88,88,103397,5,0,0:0:0:0:
88,88,103628,1,8,0:0:0:0:
88,88,103743,1,8,0:0:0:0:
88,88,103858,1,8,0:0:0:0:
88,88,104089,1,8,0:0:0:0:
88,88,104205,1,8,0:0:0:0:
88,88,104320,1,0,0:0:0:0:
88,88,104551,1,8,0:0:0:0:
88,88,104666,1,8,0:0:0:0:
88,88,104781,1,8,0:0:0:0:
88,88,105012,1,8,0:0:0:0:
88,88,105243,1,0,0:0:0:0:
88,88,105474,1,8,0:0:0:0:
88,88,105589,1,8,0:0:0:0:
88,88,105704,1,8,0:0:0:0:
88,88,105935,1,8,0:0:0:0:
88,88,106051,1,8,0:0:0:0:
88,88,106166,1,0,0:0:0:0:
88,88,106397,1,8,0:0:0:0:
88,88,106627,1,4,0:0:0:0:
88,88,107089,5,4,0:0:0:0:
88,88,107320,1,8,0:0:0:0:
88,88,107435,1,8,0:0:0:0:
88,88,107551,1,0,0:0:0:0:
88,88,107782,1,8,0:0:0:0:
88,88,108012,1,0,0:0:0:0:
88,88,108128,1,0,0:0:0:0:
88,88,108243,1,8,0:0:0:0:
88,88,108474,1,0,0:0:0:0:
88,88,108935,1,4,0:0:0:0:
88,88,109397,1,4,0:0:0:0:
88,88,109858,1,4,0:0:0:0:
88,88,110320,1,4,0:0:0:0:
88,88,110781,5,0,0:0:0:0:
88,88,110897,1,0,0:0:0:0:
88,88,111012,1,8,0:0:0:0:
88,88,111128,1,8,0:0:0:0:
88,88,111243,1,0,0:0:0:0:
88,88,111359,1,0,0:0:0:0:
88,88,111474,1,8,0:0:0:0:
88,88,111590,1,8,0:0:0:0:
88,88,111705,1,0,0:0:0:0:
88,88,111820,1,0,0:0:0:0:
88,88,111935,1,8,0:0:0:0:
88,88,112166,1,0,0:0:0:0:
88,88,112628,1,8,0:0:0:0:
88,88,112743,1,8,0:0:0:0:
88,88,112858,1,0,0:0:0:0:
88,88,112974,1,0,0:0:0:0:
88,88,113089,1,8,0:0:0:0:
88,88,113204,1,8,0:0:0:0:
88,88,113319,1,0,0:0:0:0:
88,88,113435,1,0,0:0:0:0:
88,88,113551,1,8,0:0:0:0:
88,88,113666,1,8,0:0:0:0:
88,88,113781,1,0,0:0:0:0:
88,88,114012,1,12,0:0:0:0:
88,88,114474,5,4,0:0:0:0:
88,88,114705,1,0,0:0:0:0:
88,88,114820,1,8,0:0:0:0:
88,88,114935,1,0,0:0:0:0:
88,88,115166,1,8,0:0:0:0:
88,88,115397,1,0,0:0:0:0:
88,88,115512,1,0,0:0:0:0:
88,88,115628,1,8,0:0:0:0:
88,88,115858,1,0,0:0:0:0:
88,88,115974,1,0,0:0:0:0:
88,88,116089,1,0,0:0:0:0:
88,88,116320,1,8,0:0:0:0:
88,88,116551,1,0,0:0:0:0:
88,88,116781,1,8,0:0:0:0:
88,88,116935,1,8,0:0:0:0:
88,88,117089,1,8,0:0:0:0:
88,88,117243,1,8,0:0:0:0:
88,88,117474,1,8,0:0:0:0:
88,88,117705,1,4,0:0:0:0:
88,88,118166,5,4,0:0:0:0:
88,88,118397,1,0,0:0:0:0:
88,88,118512,1,0,0:0:0:0:
88,88,118628,1,8,0:0:0:0:
88,88,118858,1,0,0:0:0:0:
88,88,119089,1,8,0:0:0:0:
88,88,119320,1,0,0:0:0:0:
88,88,119435,1,8,0:0:0:0:
88,88,119666,1,0,0:0:0:0:
88,88,119781,1,8,0:0:0:0:
88,88,120012,1,8,0:0:0:0:
88,88,120243,1,0,0:0:0:0:
88,88,120358,1,0,0:0:0:0:
88,88,120474,1,8,0:0:0:0:
88,88,120705,1,0,0:0:0:0:
88,88,120820,1,0,0:0:0:0:
88,88,120935,1,8,0:0:0:0:
88,88,121166,1,8,0:0:0:0:
88,88,121397,1,0,0:0:0:0:
88,88,121628,1,4,0:0:0:0:
88,88,121858,5,4,0:0:0:0:
88,88,122089,1,0,0:0:0:0:
88,88,122204,1,0,0:0:0:0:
88,88,122320,1,8,0:0:0:0:
88,88,122550,1,0,0:0:0:0:
88,88,122781,1,4,0:0:0:0:
88,88,123012,1,8,0:0:0:0:
88,88,123128,1,0,0:0:0:0:
88,88,123243,1,0,0:0:0:0:
88,88,123474,1,8,0:0:0:0:
88,88,123705,1,4,0:0:0:0:
88,88,124166,1,4,0:0:0:0:
88,88,124628,1,4,0:0:0:0:
88,88,125089,1,8,0:0:0:0:
88,88,125551,5,4,0:0:0:0:
88,88,125781,1,4,0:0:0:0:
88,88,126012,1,8,0:0:0:0:
88,88,126243,1,0,0:0:0:0:
88,88,126358,1,0,0:0:0:0:
88,88,126474,1,8,0:0:0:0:
88,88,126705,1,0,0:0:0:0:
88,88,126820,1,8,0:0:0:0:
88,88,127051,1,0,0:0:0:0:
88,88,127166,1,8,0:0:0:0:
88,88,127397,1,4,0:0:0:0:
88,88,127628,1,4,0:0:0:0:
88,88,127858,1,8,0:0:0:0:
88,88,128089,1,0,0:0:0:0:
88,88,128205,1,8,0:0:0:0:
88,88,128320,1,8,0:0:0:0:
88,88,128551,1,8,0:0:0:0:
88,88,128781,1,8,0:0:0:0:
88,88,129012,1,4,0:0:0:0:
88,88,129243,5,4,0:0:0:0:
88,88,129473,1,4,0:0:0:0:
88,88,129704,1,8,0:0:0:0:
88,88,129935,1,0,0:0:0:0:
88,88,130050,1,0,0:0:0:0:
88,88,130166,1,8,0:0:0:0:
88,88,130397,1,0,0:0:0:0:
88,88,130512,1,8,0:0:0:0:
88,88,130743,1,0,0:0:0:0:
88,88,130858,1,8,0:0:0:0:
88,88,131089,1,0,0:0:0:0:
88,88,131243,1,0,0:0:0:0:
88,88,131397,1,0,0:0:0:0:
88,88,131550,1,8,0:0:0:0:
88,88,131704,1,8,0:0:0:0:
88,88,131858,1,8,0:0:0:0:
88,88,132012,1,0,0:0:0:0:
88,88,132166,1,0,0:0:0:0:
88,88,132320,1,0,0:0:0:0:
88,88,132474,1,8,0:0:0:0:
88,88,132628,1,8,0:0:0:0:
88,88,132781,1,8,0:0:0:0:
88,88,132935,5,4,0:0:0:0:
88,88,133166,1,8,0:0:0:0:
88,88,133397,1,0,0:0:0:0:
88,88,133628,1,8,0:0:0:0:
88,88,133743,1,8,0:0:0:0:
88,88,133858,1,0,0:0:0:0:
88,88,134089,1,8,0:0:0:0:
88,88,134205,1,0,0:0:0:0:
88,88,134435,1,0,0:0:0:0:
88,88,134551,1,8,0:0:0:0:
88,88,134781,1,0,0:0:0:0:
88,88,135012,1,8,0:0:0:0:
88,88,135128,1,8,0:0:0:0:
88,88,135243,1,0,0:0:0:0:
88,88,135474,1,0,0:0:0:0:
88,88,135589,1,0,0:0:0:0:
88,88,135705,1,8,0:0:0:0:
88,88,135935,1,8,0:0:0:0:
88,88,136166,1,0,0:0:0:0:
88,88,136397,1,4,0:0:0:0:
88,88,136628,5,4,0:0:0:0:
88,88,136858,1,8,0:0:0:0:
88,88,137089,1,0,0:0:0:0:
88,88,137320,1,8,0:0:0:0:
88,88,137435,1,8,0:0:0:0:
88,88,137550,1,0,0:0:0:0:
88,88,137781,1,8,0:0:0:0:
88,88,138012,1,4,0:0:0:0:
88,88,138474,1,4,0:0:0:0:
88,88,138705,1,8,0:0:0:0:
88,88,138821,1,8,0:0:0:0:
88,88,138936,1,0,0:0:0:0:
88,88,139167,1,0,0:0:0:0:
88,88,139282,1,0,0:0:0:0:
88,88,139398,1,8,0:0:0:0:
88,88,139628,1,8,0:0:0:0:
88,88,139859,1,4,0:0:0:0:
88,88,140320,5,4,0:0:0:0:
88,88,140782,1,8,0:0:0:0:
88,88,141013,1,4,0:0:0:0:
88,88,141474,1,8,0:0:0:0:
88,88,141705,1,4,0:0:0:0:
88,88,142167,1,0,0:0:0:0:
88,88,142397,1,4,0:0:0:0:
88,88,142628,1,0,0:0:0:0:
88,88,142859,1,0,0:0:0:0:
88,88,142974,1,0,0:0:0:0:
88,88,143090,1,8,0:0:0:0:
88,88,143320,1,8,0:0:0:0:
88,88,143551,1,4,0:0:0:0:
88,88,144013,5,4,0:0:0:0:
88,88,144474,1,8,0:0:0:0:
88,88,144705,1,8,0:0:0:0:
88,88,144820,1,8,0:0:0:0:
88,88,144936,1,0,0:0:0:0:
88,88,145167,1,0,0:0:0:0:
88,88,145397,1,8,0:0:0:0:
88,88,145628,1,8,0:0:0:0:
88,88,145859,1,0,0:0:0:0:
88,88,146013,1,0,0:0:0:0:
88,88,146167,1,0,0:0:0:0:
88,88,146320,1,8,0:0:0:0:
88,88,146474,1,8,0:0:0:0:
88,88,146628,1,8,0:0:0:0:
88,88,146782,1,0,0:0:0:0:
88,88,146936,1,0,0:0:0:0:
88,88,147090,1,0,0:0:0:0:
88,88,147244,1,8,0:0:0:0:
88,88,147359,1,8,0:0:0:0:
88,88,147475,1,8,0:0:0:0:
88,88,147590,1,8,0:0:0:0:
88,88,147705,5,0,0:0:0:0:
88,88,148051,1,8,0:0:0:0:
88,88,148167,1,0,0:0:0:0:
88,88,148397,1,8,0:0:0:0:
88,88,148628,1,0,0:0:0:0:
88,88,148744,1,0,0:0:0:0:
88,88,148859,1,8,0:0:0:0:
88,88,149090,1,0,0:0:0:0:
88,88,149320,1,8,0:0:0:0:
88,88,149551,1,8,0:0:0:0:
88,88,149782,1,0,0:0:0:0:
88,88,149897,1,0,0:0:0:0:
88,88,150013,1,8,0:0:0:0:
88,88,150244,1,8,0:0:0:0:
88,88,150359,1,8,0:0:0:0:
88,88,150474,1,0,0:0:0:0:
88,88,150705,1,8,0:0:0:0:
88,88,150936,1,4,0:0:0:0:
88,88,151397,5,4,0:0:0:0:
88,88,151628,1,8,0:0:0:0:
88,88,151744,1,8,0:0:0:0:
88,88,151859,1,0,0:0:0:0:
88,88,152090,1,8,0:0:0:0:
88,88,152205,1,0,0:0:0:0:
88,88,152320,1,8,0:0:0:0:
88,88,152551,1,8,0:0:0:0:
88,88,152782,1,0,0:0:0:0:
88,88,153244,1,12,0:0:0:0:
88,88,153705,1,12,0:0:0:0:
88,88,154167,5,12,0:0:0:0:
88,88,154628,1,12,0:0:0:0:
256,192,155089,12,0,158781,0:0:0:0:
256,192,162474,12,0,165705,0:0:0:0:
256,192,166166,12,0,169397,0:0:0:0:
88,88,169858,5,4,0:0:0:0:
88,88,170089,1,0,0:0:0:0:
88,88,170205,1,0,0:0:0:0:
88,88,170320,1,8,0:0:0:0:
88,88,170551,1,0,0:0:0:0:
88,88,170666,1,0,0:0:0:0:
88,88,170781,1,8,0:0:0:0:
88,88,171012,1,0,0:0:0:0:
88,88,171243,1,0,0:0:0:0:
88,88,171397,1,0,0:0:0:0:
88,88,171551,1,0,0:0:0:0:
88,88,171705,1,0,0:0:0:0:
88,88,171935,1,0,0:0:0:0:
88,88,172051,1,0,0:0:0:0:
88,88,172166,1,8,0:0:0:0:
88,88,172397,1,0,0:0:0:0:
88,88,172512,1,0,0:0:0:0:
88,88,172627,1,8,0:0:0:0:
88,88,172858,1,8,0:0:0:0:
88,88,173089,1,8,0:0:0:0:
88,88,173243,1,8,0:0:0:0:
88,88,173397,1,8,0:0:0:0:
88,88,173551,5,8,0:0:0:0:
88,88,173781,1,8,0:0:0:0:
88,88,173897,1,8,0:0:0:0:
88,88,174012,1,0,0:0:0:0:
88,88,174243,1,8,0:0:0:0:
88,88,174473,1,0,0:0:0:0:
88,88,174705,1,0,0:0:0:0:
88,88,174935,1,8,0:0:0:0:
88,88,175166,1,0,0:0:0:0:
88,88,175397,1,8,0:0:0:0:
88,88,175628,1,0,0:0:0:0:
88,88,175743,1,0,0:0:0:0:
88,88,175858,1,8,0:0:0:0:
88,88,176089,1,8,0:0:0:0:
88,88,176205,1,8,0:0:0:0:
88,88,176320,1,0,0:0:0:0:
88,88,176551,1,0,0:0:0:0:
88,88,176781,1,8,0:0:0:0:
88,88,177012,1,8,0:0:0:0:
88,88,177243,5,4,0:0:0:0:
88,88,177474,1,0,0:0:0:0:
88,88,177590,1,8,0:0:0:0:
88,88,177705,1,8,0:0:0:0:
88,88,177936,1,0,0:0:0:0:
88,88,178051,1,8,0:0:0:0:
88,88,178166,1,8,0:0:0:0:
88,88,178397,1,0,0:0:0:0:
88,88,178628,1,8,0:0:0:0:
88,88,178782,1,8,0:0:0:0:
88,88,178936,1,8,0:0:0:0:
88,88,179090,1,8,0:0:0:0:
88,88,179320,1,0,0:0:0:0:
88,88,179436,1,0,0:0:0:0:
88,88,179551,1,8,0:0:0:0:
88,88,179782,1,0,0:0:0:0:
88,88,179897,1,0,0:0:0:0:
88,88,180012,1,8,0:0:0:0:
88,88,180243,1,8,0:0:0:0:
88,88,180474,1,0,0:0:0:0:
88,88,180628,1,0,0:0:0:0:
88,88,180782,1,0,0:0:0:0:
88,88,180935,5,4,0:0:0:0:
88,88,181397,1,0,0:0:0:0:
88,88,181551,1,0,0:0:0:0:
88,88,181705,1,0,0:0:0:0:
88,88,181858,1,8,0:0:0:0:
88,88,182320,1,8,0:0:0:0:
88,88,182474,1,8,0:0:0:0:
88,88,182628,1,8,0:0:0:0:
88,88,182781,1,4,0:0:0:0:
88,88,183243,1,0,0:0:0:0:
88,88,183397,1,0,0:0:0:0:
88,88,183551,1,0,0:0:0:0:
88,88,183704,1,8,0:0:0:0:
88,88,184166,1,8,0:0:0:0:
88,88,184320,1,8,0:0:0:0:
88,88,184474,1,8,0:0:0:0:
88,88,184627,1,4,0:0:0:0:
88,88,185089,1,0,0:0:0:0:
88,88,185243,1,0,0:0:0:0:
88,88,185397,1,0,0:0:0:0:
88,88,185550,1,4,0:0:0:0:
88,88,186012,1,0,0:0:0:0:
88,88,186166,1,0,0:0:0:0:
88,88,186320,1,0,0:0:0:0:
88,88,186473,1,12,0:0:0:0:
88,88,186935,1,12,0:0:0:0:
88,88,187397,1,12,0:0:0:0:
88,88,187858,1,12,0:0:0:0:
88,88,188320,5,8,0:0:0:0:
88,88,188550,1,0,0:0:0:0:
88,88,188666,1,0,0:0:0:0:
88,88,188781,1,8,0:0:0:0:
88,88,189012,1,0,0:0:0:0:
88,88,189127,1,0,0:0:0:0:
88,88,189243,1,8,0:0:0:0:
88,88,189473,1,0,0:0:0:0:
88,88,189589,1,8,0:0:0:0:
88,88,189820,1,0,0:0:0:0:
88,88,189935,1,8,0:0:0:0:
88,88,190166,1,8,0:0:0:0:
88,88,190396,1,0,0:0:0:0:
88,88,190512,1,0,0:0:0:0:
88,88,190627,1,8,0:0:0:0:
88,88,190858,1,0,0:0:0:0:
88,88,190973,1,0,0:0:0:0:
88,88,191089,1,8,0:0:0:0:
88,88,191320,1,8,0:0:0:0:
88,88,191550,1,0,0:0:0:0:
88,88,192012,5,8,0:0:0:0:
88,88,192242,1,0,0:0:0:0:
88,88,192358,1,8,0:0:0:0:
88,88,192473,1,8,0:0:0:0:
88,88,192704,1,0,0:0:0:0:
88,88,192819,1,8,0:0:0:0:
88,88,192935,1,8,0:0:0:0:
88,88,193165,1,0,0:0:0:0:
88,88,193281,1,8,0:0:0:0:
88,88,193396,1,8,0:0:0:0:
88,88,193512,1,0,0:0:0:0:
88,88,193627,1,8,0:0:0:0:
88,88,193858,1,8,0:0:0:0:
88,88,194088,1,0,0:0:0:0:
88,88,194204,1,8,0:0:0:0:
88,88,194319,1,8,0:0:0:0:
88,88,194550,1,0,0:0:0:0:
88,88,194665,1,8,0:0:0:0:
88,88,194781,1,8,0:0:0:0:
88,88,195012,1,8,0:0:0:0:
88,88,195242,1,0,0:0:0:0:
88,88,195705,5,8,0:0:0:0:
88,88,195935,1,0,0:0:0:0:
88,88,196051,1,0,0:0:0:0:
88,88,196166,1,8,0:0:0:0:
88,88,196397,1,0,0:0:0:0:
88,88,196512,1,0,0:0:0:0:
88,88,196628,1,8,0:0:0:0:
88,88,196858,1,0,0:0:0:0:
88,88,196974,1,8,0:0:0:0:
88,88,197205,1,0,0:0:0:0:
88,88,197320,1,8,0:0:0:0:
88,88,197551,1,8,0:0:0:0:
88,88,197781,1,0,0:0:0:0:
88,88,197897,1,0,0:0:0:0:
88,88,198012,1,8,0:0:0:0:
88,88,198243,1,0,0:0:0:0:
88,88,198358,1,0,0:0:0:0:
88,88,198474,1,8,0:0:0:0:
88,88,198705,1,8,0:0:0:0:
88,88,198935,1,0,0:0:0:0:
88,88,199397,5,8,0:0:0:0:
88,88,199627,1,0,0:0:0:0:
88,88,199743,1,8,0:0:0:0:
88,88,199858,1,8,0:0:0:0:
88,88,200089,1,0,0:0:0:0:
88,88,200204,1,8,0:0:0:0:
88,88,200320,1,8,0:0:0:0:
88,88,200550,1,0,0:0:0:0:
88,88,200666,1,8,0:0:0:0:
88,88,200781,1,8,0:0:0:0:
88,88,200897,1,0,0:0:0:0:
88,88,201012,1,8,0:0:0:0:
88,88,201243,1,8,0:0:0:0:
88,88,201473,1,0,0:0:0:0:
88,88,201589,1,8,0:0:0:0:
88,88,201704,1,8,0:0:0:0:
88,88,201935,1,0,0:0:0:0:
88,88,202050,1,8,0:0:0:0:
88,88,202166,1,8,0:0:0:0:
88,88,202397,1,8,0:0:0:0:
88,88,202627,1,0,0:0:0:0:
88,88,203089,5,8,0:0:0:0:
88,88,203319,1,0,0:0:0:0:
88,88,203397,1,0,0:0:0:0:
88,88,203474,1,0,0:0:0:0:
88,88,203550,1,8,0:0:0:0:
88,88,203781,1,0,0:0:0:0:
88,88,203859,1,0,0:0:0:0:
88,88,203936,1,0,0:0:0:0:
88,88,204012,1,8,0:0:0:0:
88,88,204242,1,0,0:0:0:0:
88,88,204358,1,8,0:0:0:0:
88,88,204589,1,0,0:0:0:0:
88,88,204704,1,8,0:0:0:0:
88,88,204935,1,8,0:0:0:0:
88,88,205166,1,0,0:0:0:0:
88,88,205244,1,0,0:0:0:0:
88,88,205321,1,0,0:0:0:0:
88,88,205397,1,8,0:0:0:0:
88,88,205628,1,0,0:0:0:0:
88,88,205706,1,0,0:0:0:0:
88,88,205783,1,0,0:0:0:0:
88,88,205859,1,8,0:0:0:0:
88,88,206089,1,8,0:0:0:0:
88,88,206319,1,0,0:0:0:0:
88,88,206781,5,8,0:0:0:0:
88,88,207011,1,8,0:0:0:0:
88,88,207089,1,8,0:0:0:0:
88,88,207166,1,8,0:0:0:0:
88,88,207242,1,8,0:0:0:0:
88,88,207473,1,8,0:0:0:0:
88,88,207551,1,8,0:0:0:0:
88,88,207628,1,8,0:0:0:0:
88,88,207704,1,8,0:0:0:0:
88,88,207934,1,0,0:0:0:0:
88,88,208050,1,8,0:0:0:0:
88,88,208165,1,8,0:0:0:0:
88,88,208281,1,0,0:0:0:0:
88,88,208396,1,8,0:0:0:0:
88,88,208627,1,8,0:0:0:0:
88,88,208857,1,8,0:0:0:0:
88,88,208935,1,8,0:0:0:0:
88,88,209012,1,8,0:0:0:0:
88,88,209088,1,8,0:0:0:0:
88,88,209319,1,8,0:0:0:0:
88,88,209397,1,8,0:0:0:0:
88,88,209474,1,8,0:0:0:0:
88,88,209550,1,8,0:0:0:0:
88,88,209781,1,8,0:0:0:0:
88,88,210011,1,0,0:0:0:0:
88,88,210474,5,8,0:0:0:0:
88,88,210704,1,0,0:0:0:0:
88,88,210782,1,0,0:0:0:0:
88,88,210859,1,0,0:0:0:0:
88,88,210935,1,8,0:0:0:0:
88,88,211166,1,0,0:0:0:0:
88,88,211244,1,0,0:0:0:0:
88,88,211321,1,0,0:0:0:0:
88,88,211397,1,8,0:0:0:0:
88,88,211627,1,0,0:0:0:0:
88,88,211743,1,8,0:0:0:0:
88,88,211974,1,0,0:0:0:0:
88,88,212089,1,8,0:0:0:0:
88,88,212320,1,8,0:0:0:0:
88,88,212551,1,0,0:0:0:0:
88,88,212629,1,0,0:0:0:0:
88,88,212706,1,0,0:0:0:0:
88,88,212782,1,8,0:0:0:0:
88,88,213013,1,0,0:0:0:0:
88,88,213091,1,0,0:0:0:0:
88,88,213168,1,0,0:0:0:0:
88,88,213244,1,8,0:0:0:0:
88,88,213474,1,8,0:0:0:0:
88,88,213704,1,0,0:0:0:0:
88,88,214166,5,0,0:0:0:0:
88,88,214320,1,0,0:0:0:0:
88,88,214474,1,0,0:0:0:0:
88,88,214628,1,8,0:0:0:0:
88,88,214782,1,8,0:0:0:0:
88,88,214936,1,8,0:0:0:0:
88,88,215089,1,0,0:0:0:0:
88,88,215205,1,0,0:0:0:0:
88,88,215320,1,8,0:0:0:0:
88,88,215435,1,8,0:0:0:0:
88,88,215551,1,0,0:0:0:0:
88,88,215666,1,0,0:0:0:0:
88,88,215781,1,8,0:0:0:0:
88,88,215897,1,8,0:0:0:0:
88,88,216012,1,8,0:0:0:0:
88,88,217397,5,8,0:0:0:0:
88,88,217858,5,4,0:0:0:0:
88,88,218088,1,0,0:0:0:0:
88,88,218204,1,8,0:0:0:0:
88,88,218319,1,0,0:0:0:0:
88,88,218550,1,8,0:0:0:0:
88,88,218781,1,0,0:0:0:0:
88,88,218897,1,0,0:0:0:0:
88,88,219012,1,8,0:0:0:0:
88,88,219242,1,0,0:0:0:0:
88,88,219358,1,0,0:0:0:0:
88,88,219473,1,8,0:0:0:0:
88,88,219589,1,8,0:0:0:0:
88,88,219704,1,0,0:0:0:0:
88,88,219935,1,8,0:0:0:0:
88,88,220165,1,0,0:0:0:0:
88,88,220396,1,8,0:0:0:0:
88,88,220511,1,8,0:0:0:0:
88,88,220627,1,8,0:0:0:0:
88,88,220858,1,8,0:0:0:0:
88,88,221088,1,4,0:0:0:0:
88,88,221550,5,4,0:0:0:0:
88,88,221780,1,0,0:0:0:0:
88,88,221896,1,8,0:0:0:0:
88,88,222011,1,0,0:0:0:0:
88,88,222242,1,8,0:0:0:0:
88,88,222473,1,0,0:0:0:0:
88,88,222589,1,0,0:0:0:0:
88,88,222704,1,8,0:0:0:0:
88,88,222934,1,0,0:0:0:0:
88,88,223165,1,8,0:0:0:0:
88,88,223396,1,4,0:0:0:0:
88,88,223857,1,4,0:0:0:0:
88,88,224319,1,4,0:0:0:0:
88,88,224550,1,0,0:0:0:0:
88,88,224781,1,4,0:0:0:0:
88,88,225243,5,4,0:0:0:0:
88,88,225473,1,0,0:0:0:0:
88,88,225589,1,8,0:0:0:0:
88,88,225704,1,0,0:0:0:0:
88,88,225935,1,8,0:0:0:0:
88,88,226166,1,0,0:0:0:0:
88,88,226282,1,0,0:0:0:0:
88,88,226397,1,8,0:0:0:0:
88,88,226627,1,0,0:0:0:0:
88,88,226743,1,0,0:0:0:0:
88,88,226858,1,8,0:0:0:0:
88,88,226974,1,8,0:0:0:0:
88,88,227089,1,0,0:0:0:0:
88,88,227320,1,8,0:0:0:0:
88,88,227550,1,0,0:0:0:0:
88,88,227781,1,8,0:0:0:0:
88,88,227896,1,8,0:0:0:0:
88,88,228012,1,8,0:0:0:0:
88,88,228243,1,8,0:0:0:0:
88,88,228473,1,4,0:0:0:0:
88,88,228935,5,4,0:0:0:0:
88,88,229165,1,0,0:0:0:0:
88,88,229281,1,8,0:0:0:0:
88,88,229396,1,0,0:0:0:0:
88,88,229627,1,8,0:0:0:0:
88,88,229858,1,0,0:0:0:0:
88,88,229974,1,0,0:0:0:0:
88,88,230089,1,8,0:0:0:0:
88,88,230319,1,0,0:0:0:0:
88,88,230550,1,8,0:0:0:0:
88,88,230781,1,4,0:0:0:0:
88,88,231242,1,4,0:0:0:0:
88,88,231704,1,4,0:0:0:0:
88,88,231935,1,0,0:0:0:0:
88,88,232166,1,4,0:0:0:0:
88,88,232628,5,4,0:0:0:0:
88,88,232858,1,8,0:0:0:0:
88,88,232973,1,8,0:0:0:0:
88,88,233089,1,0,0:0:0:0:
88,88,233320,1,8,0:0:0:0:
88,88,233550,1,0,0:0:0:0:
88,88,233666,1,0,0:0:0:0:
88,88,233781,1,8,0:0:0:0:
88,88,234012,1,0,0:0:0:0:
88,88,234473,1,8,0:0:0:0:
88,88,234704,1,0,0:0:0:0:
88,88,234820,1,0,0:0:0:0:
88,88,234935,1,8,0:0:0:0:
88,88,235166,1,0,0:0:0:0:
88,88,235281,1,0,0:0:0:0:
88,88,235396,1,8,0:0:0:0:
88,88,235627,1,8,0:0:0:0:
88,88,235858,1,4,0:0:0:0:
88,88,236320,5,4,0:0:0:0:
88,88,236551,1,8,0:0:0:0:
88,88,236666,1,8,0:0:0:0:
88,88,236782,1,0,0:0:0:0:
88,88,237013,1,8,0:0:0:0:
88,88,237243,1,0,0:0:0:0:
88,88,237359,1,0,0:0:0:0:
88,88,237474,1,8,0:0:0:0:
88,88,237705,1,0,0:0:0:0:
88,88,238166,1,12,0:0:0:0:
88,88,238628,1,12,0:0:0:0:
88,88,239089,1,12,0:0:0:0:
88,88,239320,1,8,0:0:0:0:
88,88,239551,1,12,0:0:0:0:
88,88,240012,5,0,0:0:0:0:
88,88,240243,1,8,0:0:0:0:
88,88,240358,1,8,0:0:0:0:
88,88,240473,1,8,0:0:0:0:
88,88,240704,1,8,0:0:0:0:
88,88,240820,1,8,0:0:0:0:
88,88,240935,1,0,0:0:0:0:
88,88,241166,1,8,0:0:0:0:
88,88,241281,1,8,0:0:0:0:
88,88,241396,1,8,0:0:0:0:
88,88,241627,1,8,0:0:0:0:
88,88,241858,1,0,0:0:0:0:
88,88,242089,1,8,0:0:0:0:
88,88,242204,1,8,0:0:0:0:
88,88,242319,1,8,0:0:0:0:
88,88,242550,1,8,0:0:0:0:
88,88,242666,1,8,0:0:0:0:
88,88,242781,1,0,0:0:0:0:
88,88,243012,1,8,0:0:0:0:
88,88,243242,1,4,0:0:0:0:
88,88,243704,5,4,0:0:0:0:
88,88,243935,1,8,0:0:0:0:
88,88,244050,1,8,0:0:0:0:
88,88,244166,1,0,0:0:0:0:
88,88,244397,1,8,0:0:0:0:
88,88,244627,1,0,0:0:0:0:
88,88,244743,1,0,0:0:0:0:
88,88,244858,1,8,0:0:0:0:
88,88,245089,1,0,0:0:0:0:
88,88,245550,1,4,0:0:0:0:
88,88,246012,1,4,0:0:0:0:
88,88,246473,1,4,0:0:0:0:
88,88,246935,1,4,0:0:0:0:
88,88,247396,5,4,0:0:0:0:
88,88,247627,1,8,0:0:0:0:
88,88,247743,1,0,0:0:0:0:
88,88,247858,1,0,0:0:0:0:
88,88,247974,1,0,0:0:0:0:
88,88,248089,1,8,0:0:0:0:
88,88,248320,1,4,0:0:0:0:
88,88,248550,1,8,0:0:0:0:
88,88,248666,1,0,0:0:0:0:
88,88,248781,1,0,0:0:0:0:
88,88,249012,1,0,0:0:0:0:
88,88,249243,1,8,0:0:0:0:
88,88,249358,1,8,0:0:0:0:
88,88,249473,1,0,0:0:0:0:
88,88,249589,1,0,0:0:0:0:
88,88,249704,1,8,0:0:0:0:
88,88,249819,1,8,0:0:0:0:
88,88,249934,1,0,0:0:0:0:
88,88,250050,1,0,0:0:0:0:
88,88,250166,1,8,0:0:0:0:
88,88,250628,1,12,0:0:0:0:
88,88,251089,5,4,0:0:0:0:
88,88,251319,1,0,0:0:0:0:
88,88,251435,1,8,0:0:0:0:
88,88,251550,1,0,0:0:0:0:
88,88,251781,1,8,0:0:0:0:
88,88,252012,1,0,0:0:0:0:
88,88,252128,1,0,0:0:0:0:
88,88,252243,1,8,0:0:0:0:
88,88,252473,1,0,0:0:0:0:
88,88,252589,1,0,0:0:0:0:
88,88,252704,1,8,0:0:0:0:
88,88,252820,1,8,0:0:0:0:
88,88,252935,1,0,0:0:0:0:
88,88,253166,1,8,0:0:0:0:
88,88,253396,1,0,0:0:0:0:
88,88,253627,1,8,0:0:0:0:
88,88,253742,1,8,0:0:0:0:
88,88,253858,1,8,0:0:0:0:
88,88,254089,1,8,0:0:0:0:
88,88,254319,1,4,0:0:0:0:
88,88,254781,5,4,0:0:0:0:
88,88,255011,1,0,0:0:0:0:
88,88,255127,1,8,0:0:0:0:
88,88,255242,1,0,0:0:0:0:
88,88,255473,1,8,0:0:0:0:
88,88,255704,1,0,0:0:0:0:
88,88,255820,1,0,0:0:0:0:
88,88,255935,1,8,0:0:0:0:
88,88,256165,1,0,0:0:0:0:
88,88,256396,1,8,0:0:0:0:
88,88,256627,1,4,0:0:0:0:
88,88,257088,1,4,0:0:0:0:
88,88,257550,1,4,0:0:0:0:
88,88,257781,1,0,0:0:0:0:
88,88,258012,1,4,0:0:0:0:
88,88,258474,5,4,0:0:0:0:
88,88,258704,1,0,0:0:0:0:
88,88,258820,1,8,0:0:0:0:
88,88,258935,1,0,0:0:0:0:
88,88,259166,1,8,0:0:0:0:
88,88,259397,1,0,0:0:0:0:
88,88,259513,1,0,0:0:0:0:
88,88,259628,1,8,0:0:0:0:
88,88,259858,1,0,0:0:0:0:
88,88,259974,1,0,0:0:0:0:
88,88,260089,1,8,0:0:0:0:
88,88,260205,1,8,0:0:0:0:
88,88,260320,1,0,0:0:0:0:
88,88,260551,1,8,0:0:0:0:
88,88,260781,1,0,0:0:0:0:
88,88,261012,1,8,0:0:0:0:
88,88,261127,1,8,0:0:0:0:
88,88,261243,1,8,0:0:0:0:
88,88,261474,1,8,0:0:0:0:
88,88,261704,1,4,0:0:0:0:
88,88,262166,5,4,0:0:0:0:
88,88,262396,1,0,0:0:0:0:
88,88,262512,1,8,0:0:0:0:
88,88,262627,1,0,0:0:0:0:
88,88,262858,1,8,0:0:0:0:
88,88,263089,1,0,0:0:0:0:
88,88,263205,1,0,0:0:0:0:
88,88,263320,1,8,0:0:0:0:
88,88,263550,1,0,0:0:0:0:
88,88,263781,1,8,0:0:0:0:
88,88,264012,1,4,0:0:0:0:
88,88,264473,1,4,0:0:0:0:
88,88,264935,1,4,0:0:0:0:
88,88,265166,1,0,0:0:0:0:
88,88,265397,1,4,0:0:0:0:
88,88,265858,5,8,0:0:0:0:
88,88,266088,1,0,0:0:0:0:
88,88,266204,1,0,0:0:0:0:
88,88,266319,1,8,0:0:0:0:
88,88,266550,1,0,0:0:0:0:
88,88,266665,1,0,0:0:0:0:
88,88,266781,1,8,0:0:0:0:
88,88,267011,1,0,0:0:0:0:
88,88,267127,1,8,0:0:0:0:
88,88,267358,1,0,0:0:0:0:
88,88,267473,1,8,0:0:0:0:
88,88,267704,1,8,0:0:0:0:
88,88,267934,1,0,0:0:0:0:
88,88,268050,1,0,0:0:0:0:
88,88,268165,1,8,0:0:0:0:
88,88,268396,1,0,0:0:0:0:
88,88,268511,1,0,0:0:0:0:
88,88,268627,1,8,0:0:0:0:
88,88,268858,1,8,0:0:0:0:
88,88,269088,1,0,0:0:0:0:
88,88,269551,5,8,0:0:0:0:
88,88,269781,1,0,0:0:0:0:
88,88,269897,1,0,0:0:0:0:
88,88,270012,1,8,0:0:0:0:
88,88,270243,1,0,0:0:0:0:
88,88,270358,1,0,0:0:0:0:
88,88,270474,1,8,0:0:0:0:
88,88,270704,1,0,0:0:0:0:
88,88,270820,1,8,0:0:0:0:
88,88,271051,1,0,0:0:0:0:
88,88,271166,1,8,0:0:0:0:
88,88,271397,1,8,0:0:0:0:
88,88,271627,1,0,0:0:0:0:
88,88,271743,1,0,0:0:0:0:
88,88,271858,1,8,0:0:0:0:
88,88,272089,1,0,0:0:0:0:
88,88,272204,1,0,0:0:0:0:
88,88,272320,1,8,0:0:0:0:
88,88,272551,1,8,0:0:0:0:
88,88,272781,1,0,0:0:0:0:
88,88,273243,5,8,0:0:0:0:
88,88,273474,1,0,0:0:0:0:
88,88,273705,1,8,0:0:0:0:
88,88,273935,1,0,0:0:0:0:
88,88,274166,1,8,0:0:0:0:
88,88,274397,1,0,0:0:0:0:
88,88,274628,1,8,0:0:0:0:
88,88,274858,1,0,0:0:0:0:
88,88,275089,1,8,0:0:0:0:
88,88,275320,1,0,0:0:0:0:
88,88,275551,1,8,0:0:0:0:
88,88,275781,1,0,0:0:0:0:
88,88,276012,1,8,0:0:0:0:
88,88,276243,1,0,0:0:0:0:
88,88,276474,1,8,0:0:0:0:
88,88,276704,1,0,0:0:0:0:
256,192,276935,12,0,281897,0:0:0:0:
