osu file format v12

[General]
AudioFilename: 少年ノアとΦの邂逅.mp3
AudioLeadIn: 0
PreviewTime: 81243
Countdown: 0
SampleSet: Soft
StackLeniency: 0.7
Mode: 1
LetterboxInBreaks: 0
WidescreenStoryboard: 1

[Editor]
DistanceSpacing: 0.1
BeatDivisor: 4
GridSize: 8

[Metadata]
Title:Reunion of Noah and the World
TitleUnicode:少年ノアとΦの邂逅
Artist:Kuroneko Antique feat. GUMI
ArtistUnicode:黒猫アンティーク feat. GUMI
Creator:Shino
Version:Futsuu
Source:
Tags:taiko cosmo bousoup shounen noah to sekai no kaikou
BeatmapID:288654
BeatmapSetID:110647

[Difficulty]
HPDrainRate:5
CircleSize:5
OverallDifficulty:5
ApproachRate:5
SliderMultiplier:1.4
SliderTickRate:1

[Events]
//Background and Video events
0,0,"36789326_big_p1.jpg",0,0
//Break Periods
//Storyboard Layer 0 (Background)
//Storyboard Layer 1 (Fail)
//Storyboard Layer 2 (Pass)
//Storyboard Layer 3 (Foreground)
//Storyboard Sound Samples
//Background Colour Transformations
3,100,163,162,255

[TimingPoints]
3705,461.538461538462,4,2,0,20,1,0
11089,-100,4,2,0,100,0,1
25858,-100,4,2,0,100,0,0
77320,-100,4,2,0,20,0,0
81128,-100,4,2,0,100,0,0
81243,-100,4,2,0,100,0,1
96012,-100,4,2,0,100,0,0
188205,-100,4,2,0,20,0,0
217743,-100,4,2,0,100,0,0
217858,-100,4,2,0,100,0,1
232628,-100,4,2,0,100,0,0

[HitObjects]
88,88,3705,5,8,0:0:0:0:
88,88,3935,1,0,0:0:0:0:
88,88,4166,1,8,0:0:0:0:
88,88,4628,1,8,0:0:0:0:
88,88,5089,1,8,0:0:0:0:
88,88,5551,1,8,0:0:0:0:
88,88,5781,1,0,0:0:0:0:
88,88,6012,1,8,0:0:0:0:
88,88,6474,1,0,0:0:0:0:
88,88,6705,1,0,0:0:0:0:
88,88,6935,1,0,0:0:0:0:
88,88,7397,5,8,0:0:0:0:
88,88,7627,1,0,0:0:0:0:
88,88,7858,1,8,0:0:0:0:
88,88,8320,1,8,0:0:0:0:
88,88,8781,1,8,0:0:0:0:
88,88,9243,1,8,0:0:0:0:
88,88,9473,1,0,0:0:0:0:
88,88,9704,1,8,0:0:0:0:
88,88,10166,1,8,0:0:0:0:
88,88,10628,1,8,0:0:0:0:
88,88,11089,5,4,0:0:0:0:
88,88,11550,1,0,0:0:0:0:
88,88,12012,1,0,0:0:0:0:
88,88,12243,1,0,0:0:0:0:
88,88,12474,1,8,0:0:0:0:
88,88,12935,1,0,0:0:0:0:
88,88,13166,1,0,0:0:0:0:
88,88,13396,1,8,0:0:0:0:
88,88,13627,1,8,0:0:0:0:
88,88,13858,1,0,0:0:0:0:
88,88,14319,1,4,0:0:0:0:
88,88,14781,5,4,0:0:0:0:
88,88,15242,1,8,0:0:0:0:
88,88,15704,1,0,0:0:0:0:
88,88,15935,1,0,0:0:0:0:
88,88,16165,1,8,0:0:0:0:
88,88,16627,1,4,0:0:0:0:
88,88,17088,1,4,0:0:0:0:
88,88,17550,1,4,0:0:0:0:
88,88,18474,5,4,0:0:0:0:
88,88,18935,1,0,0:0:0:0:
88,88,19397,1,0,0:0:0:0:
88,88,19628,1,0,0:0:0:0:
88,88,19859,1,8,0:0:0:0:
88,88,20320,1,0,0:0:0:0:
88,88,20551,1,0,0:0:0:0:
88,88,20781,1,8,0:0:0:0:
88,88,21012,1,8,0:0:0:0:
88,88,21243,1,0,0:0:0:0:
88,88,21704,1,4,0:0:0:0:
88,88,22166,5,4,0:0:0:0:
88,88,22627,1,8,0:0:0:0:
88,88,23089,1,0,0:0:0:0:
88,88,23320,1,0,0:0:0:0:
88,88,23550,1,8,0:0:0:0:
88,88,24012,1,4,0:0:0:0:
88,88,24473,1,4,0:0:0:0:
88,88,24935,1,4,0:0:0:0:
88,88,25858,5,4,0:0:0:0:
88,88,26320,1,0,0:0:0:0:
88,88,26551,1,8,0:0:0:0:
88,88,26781,1,0,0:0:0:0:
88,88,27243,1,0,0:0:0:0:
88,88,27705,1,8,0:0:0:0:
88,88,28166,1,0,0:0:0:0:
88,88,28397,1,8,0:0:0:0:
88,88,28628,1,0,0:0:0:0:
88,88,29089,1,4,0:0:0:0:
88,88,29551,5,4,0:0:0:0:
88,88,30012,1,0,0:0:0:0:
88,88,30243,1,8,0:0:0:0:
88,88,30473,1,0,0:0:0:0:
88,88,30704,1,8,0:0:0:0:
88,88,30935,1,0,0:0:0:0:
88,88,31397,1,4,0:0:0:0:
88,88,31858,1,0,0:0:0:0:
88,88,32320,1,0,0:0:0:0:
88,88,32781,1,12,0:0:0:0:
88,88,33243,5,4,0:0:0:0:
88,88,33705,1,0,0:0:0:0:
88,88,33935,1,0,0:0:0:0:
88,88,34166,1,8,0:0:0:0:
88,88,34628,1,8,0:0:0:0:
88,88,34858,1,8,0:0:0:0:
88,88,35089,1,0,0:0:0:0:
88,88,35551,1,8,0:0:0:0:
88,88,35781,1,8,0:0:0:0:
88,88,36012,1,0,0:0:0:0:
88,88,36243,1,0,0:0:0:0:
88,88,36474,1,8,0:0:0:0:
88,88,36935,5,8,0:0:0:0:
88,88,37397,1,8,0:0:0:0:
88,88,37627,1,0,0:0:0:0:
88,88,37858,1,8,0:0:0:0:
88,88,38320,1,8,0:0:0:0:
88,88,38550,1,8,0:0:0:0:
88,88,38781,1,0,0:0:0:0:
88,88,39243,1,8,0:0:0:0:
88,88,39473,1,8,0:0:0:0:
88,88,39704,1,8,0:0:0:0:
88,88,39935,1,8,0:0:0:0:
88,88,40166,1,0,0:0:0:0:
88,88,40628,5,0,0:0:0:0:
88,88,41090,1,8,0:0:0:0:
88,88,41320,1,8,0:0:0:0:
88,88,41551,1,8,0:0:0:0:
88,88,42013,1,8,0:0:0:0:
88,88,42243,1,8,0:0:0:0:
88,88,42474,1,0,0:0:0:0:
88,88,42936,1,0,0:0:0:0:
88,88,43166,1,0,0:0:0:0:
88,88,43628,1,0,0:0:0:0:
88,88,43859,1,0,0:0:0:0:
88,88,44320,5,8,0:0:0:0:
88,88,44782,1,8,0:0:0:0:
88,88,45012,1,0,0:0:0:0:
88,88,45243,1,8,0:0:0:0:
88,88,45705,1,0,0:0:0:0:
88,88,45935,1,0,0:0:0:0:
88,88,46166,1,8,0:0:0:0:
88,88,46628,1,8,0:0:0:0:
88,88,46858,1,8,0:0:0:0:
88,88,47089,1,0,0:0:0:0:
88,88,47320,1,0,0:0:0:0:
88,88,47551,1,8,0:0:0:0:
88,88,48012,5,4,0:0:0:0:
88,88,48474,1,0,0:0:0:0:
88,88,48704,1,0,0:0:0:0:
88,88,48935,1,8,0:0:0:0:
88,88,49397,1,8,0:0:0:0:
88,88,49627,1,8,0:0:0:0:
88,88,49858,1,0,0:0:0:0:
88,88,50320,1,8,0:0:0:0:
88,88,50550,1,8,0:0:0:0:
88,88,50781,1,0,0:0:0:0:
88,88,51012,1,0,0:0:0:0:
88,88,51243,1,8,0:0:0:0:
88,88,51704,5,4,0:0:0:0:
88,88,52166,1,8,0:0:0:0:
88,88,52396,1,0,0:0:0:0:
88,88,52627,1,8,0:0:0:0:
88,88,53089,1,8,0:0:0:0:
88,88,53319,1,8,0:0:0:0:
88,88,53550,1,0,0:0:0:0:
88,88,54012,1,8,0:0:0:0:
88,88,54242,1,8,0:0:0:0:
88,88,54473,1,8,0:0:0:0:
88,88,54704,1,8,0:0:0:0:
88,88,54935,1,0,0:0:0:0:
88,88,55397,5,4,0:0:0:0:
88,88,55859,1,8,0:0:0:0:
88,88,56089,1,8,0:0:0:0:
88,88,56320,1,8,0:0:0:0:
88,88,56782,1,8,0:0:0:0:
88,88,57012,1,8,0:0:0:0:
88,88,57243,1,0,0:0:0:0:
88,88,57705,1,0,0:0:0:0:
88,88,57935,1,0,0:0:0:0:
88,88,58397,1,0,0:0:0:0:
88,88,58628,1,0,0:0:0:0:
88,88,59089,5,4,0:0:0:0:
88,88,59551,1,8,0:0:0:0:
88,88,59781,1,0,0:0:0:0:
88,88,60012,1,8,0:0:0:0:
88,88,60474,1,0,0:0:0:0:
88,88,60704,1,0,0:0:0:0:
88,88,60935,1,8,0:0:0:0:
88,88,61397,1,8,0:0:0:0:
88,88,61627,1,8,0:0:0:0:
88,88,61858,1,0,0:0:0:0:
88,88,62089,1,0,0:0:0:0:
88,88,62320,1,8,0:0:0:0:
88,88,62781,5,4,0:0:0:0:
88,88,63474,1,4,0:0:0:0:
88,88,64166,1,4,0:0:0:0:
88,88,64628,1,0,0:0:0:0:
88,88,64858,1,8,0:0:0:0:
88,88,65089,1,0,0:0:0:0:
88,88,65551,1,0,0:0:0:0:
88,88,65781,1,0,0:0:0:0:
88,88,66012,1,0,0:0:0:0:
88,88,66474,5,4,0:0:0:0:
88,88,66935,1,0,0:0:0:0:
88,88,67166,1,0,0:0:0:0:
88,88,67397,1,0,0:0:0:0:
88,88,67628,1,0,0:0:0:0:
88,88,67858,1,8,0:0:0:0:
88,88,68320,1,8,0:0:0:0:
88,88,68781,1,8,0:0:0:0:
88,88,69243,1,8,0:0:0:0:
88,88,69705,1,8,0:0:0:0:
88,88,70166,5,0,0:0:0:0:
88,88,70628,1,8,0:0:0:0:
88,88,70858,1,8,0:0:0:0:
88,88,71089,1,0,0:0:0:0:
88,88,71320,1,0,0:0:0:0:
88,88,71551,1,8,0:0:0:0:
88,88,72012,1,8,0:0:0:0:
88,88,72474,1,8,0:0:0:0:
88,88,72935,1,0,0:0:0:0:
88,88,73166,1,0,0:0:0:0:
88,88,73397,1,8,0:0:0:0:
88,88,73858,5,4,0:0:0:0:
88,88,74320,1,8,0:0:0:0:
88,88,74551,1,8,0:0:0:0:
88,88,74781,1,0,0:0:0:0:
88,88,75012,1,0,0:0:0:0:
88,88,75243,1,8,0:0:0:0:
88,88,75705,1,12,0:0:0:0:
88,88,76166,1,12,0:0:0:0:
88,88,76628,1,12,0:0:0:0:
88,88,77089,1,12,0:0:0:0:
88,88,77551,5,8,0:0:0:0:
88,88,78012,1,8,0:0:0:0:
88,88,78243,1,8,0:0:0:0:
88,88,78474,1,0,0:0:0:0:
88,88,78935,1,0,0:0:0:0:
88,88,79166,1,0,0:0:0:0:
88,88,79397,1,8,0:0:0:0:
88,88,79858,1,8,0:0:0:0:
88,88,80320,1,8,0:0:0:0:
88,88,80781,1,8,0:0:0:0:
88,88,81243,5,4,0:0:0:0:
88,88,81704,1,0,0:0:0:0:
88,88,82166,1,0,0:0:0:0:
88,88,82397,1,8,0:0:0:0:
88,88,82628,1,0,0:0:0:0:
88,88,83089,1,0,0:0:0:0:
88,88,83320,1,8,0:0:0:0:
88,88,83550,1,0,0:0:0:0:
88,88,84012,1,0,0:0:0:0:
88,88,84473,1,4,0:0:0:0:
88,88,84935,5,4,0:0:0:0:
88,88,85396,1,8,0:0:0:0:
88,88,85858,1,0,0:0:0:0:
88,88,86089,1,0,0:0:0:0:
88,88,86319,1,0,0:0:0:0:
88,88,86781,1,4,0:0:0:0:
88,88,87242,1,4,0:0:0:0:
88,88,87704,1,4,0:0:0:0:
88,88,88628,5,4,0:0:0:0:
88,88,89089,1,0,0:0:0:0:
88,88,89551,1,0,0:0:0:0:
88,88,89782,1,8,0:0:0:0:
88,88,90013,1,0,0:0:0:0:
88,88,90474,1,0,0:0:0:0:
88,88,90705,1,8,0:0:0:0:
88,88,90935,1,0,0:0:0:0:
88,88,91397,1,0,0:0:0:0:
88,88,91858,1,4,0:0:0:0:
88,88,92320,5,4,0:0:0:0:
88,88,92781,1,8,0:0:0:0:
88,88,93243,1,0,0:0:0:0:
88,88,93473,1,0,0:0:0:0:
88,88,93704,1,0,0:0:0:0:
88,88,94166,1,4,0:0:0:0:
88,88,94627,1,4,0:0:0:0:
88,88,95089,1,4,0:0:0:0:
88,88,96012,5,4,0:0:0:0:
88,88,96474,1,8,0:0:0:0:
88,88,96705,1,8,0:0:0:0:
88,88,96935,1,0,0:0:0:0:
88,88,97397,1,0,0:0:0:0:
88,88,97858,1,8,0:0:0:0:
88,88,98320,1,8,0:0:0:0:
88,88,98781,1,8,0:0:0:0:
88,88,99243,1,4,0:0:0:0:
88,88,99705,5,4,0:0:0:0:
88,88,100167,1,0,0:0:0:0:
88,88,100398,1,0,0:0:0:0:
88,88,100628,1,8,0:0:0:0:
88,88,101090,1,8,0:0:0:0:
88,88,101551,1,4,0:0:0:0:
88,88,102013,1,4,0:0:0:0:
88,88,102474,1,12,0:0:0:0:
88,88,102936,1,12,0:0:0:0:
88,88,103397,5,0,0:0:0:0:
88,88,103858,1,8,0:0:0:0:
88,88,104089,1,8,0:0:0:0:
88,88,104320,1,0,0:0:0:0:
88,88,104781,1,8,0:0:0:0:
88,88,105012,1,8,0:0:0:0:
88,88,105243,1,0,0:0:0:0:
88,88,105704,1,8,0:0:0:0:
88,88,106166,1,0,0:0:0:0:
88,88,106627,1,4,0:0:0:0:
88,88,107089,5,4,0:0:0:0:
88,88,107551,1,8,0:0:0:0:
88,88,107782,1,8,0:0:0:0:
88,88,108012,1,0,0:0:0:0:
88,88,108474,1,8,0:0:0:0:
88,88,108935,1,4,0:0:0:0:
88,88,109858,1,4,0:0:0:0:
88,88,110320,1,4,0:0:0:0:
88,88,110781,5,0,0:0:0:0:
88,88,111243,1,0,0:0:0:0:
88,88,111474,1,8,0:0:0:0:
88,88,111705,1,0,0:0:0:0:
88,88,112166,1,0,0:0:0:0:
88,88,112628,1,0,0:0:0:0:
88,88,112858,1,8,0:0:0:0:
88,88,113089,1,0,0:0:0:0:
88,88,113320,1,8,0:0:0:0:
88,88,113551,1,0,0:0:0:0:
88,88,114012,1,4,0:0:0:0:
88,88,114474,5,4,0:0:0:0:
88,88,114935,1,0,0:0:0:0:
88,88,115166,1,8,0:0:0:0:
88,88,115397,1,0,0:0:0:0:
88,88,115858,1,0,0:0:0:0:
88,88,116320,1,8,0:0:0:0:
88,88,116781,1,8,0:0:0:0:
88,88,117012,1,8,0:0:0:0:
88,88,117243,1,8,0:0:0:0:
88,88,117705,1,4,0:0:0:0:
88,88,118166,5,4,0:0:0:0:
88,88,118628,1,0,0:0:0:0:
88,88,118858,1,0,0:0:0:0:
88,88,119089,1,8,0:0:0:0:
88,88,119551,1,0,0:0:0:0:
88,88,120012,1,8,0:0:0:0:
88,88,120243,1,8,0:0:0:0:
88,88,120474,1,0,0:0:0:0:
88,88,120935,1,8,0:0:0:0:
88,88,121397,1,0,0:0:0:0:
88,88,121858,5,4,0:0:0:0:
88,88,122320,1,8,0:0:0:0:
88,88,122550,1,8,0:0:0:0:
88,88,122782,1,8,0:0:0:0:
88,88,123243,1,0,0:0:0:0:
88,88,123705,1,4,0:0:0:0:
88,88,124166,1,4,0:0:0:0:
88,88,124628,1,4,0:0:0:0:
88,88,125089,1,8,0:0:0:0:
88,88,125551,5,4,0:0:0:0:
88,88,126013,1,0,0:0:0:0:
88,88,126243,1,0,0:0:0:0:
88,88,126474,1,8,0:0:0:0:
88,88,126936,1,8,0:0:0:0:
88,88,127166,1,8,0:0:0:0:
88,88,127397,1,0,0:0:0:0:
88,88,127859,1,0,0:0:0:0:
88,88,128320,1,0,0:0:0:0:
88,88,128551,1,0,0:0:0:0:
88,88,128782,1,8,0:0:0:0:
88,88,129243,5,4,0:0:0:0:
88,88,129705,1,0,0:0:0:0:
88,88,129935,1,0,0:0:0:0:
88,88,130166,1,8,0:0:0:0:
88,88,130628,1,8,0:0:0:0:
88,88,130858,1,8,0:0:0:0:
88,88,131089,1,0,0:0:0:0:
88,88,131551,1,0,0:0:0:0:
88,88,132012,1,8,0:0:0:0:
88,88,132243,1,8,0:0:0:0:
88,88,132474,1,8,0:0:0:0:
88,88,132935,5,4,0:0:0:0:
88,88,133397,1,0,0:0:0:0:
88,88,133627,1,0,0:0:0:0:
88,88,133858,1,8,0:0:0:0:
88,88,134320,1,8,0:0:0:0:
88,88,134550,1,8,0:0:0:0:
88,88,134781,1,0,0:0:0:0:
88,88,135243,1,8,0:0:0:0:
88,88,135474,1,0,0:0:0:0:
88,88,135935,1,0,0:0:0:0:
88,88,136166,1,8,0:0:0:0:
88,88,136627,5,4,0:0:0:0:
88,88,137089,1,8,0:0:0:0:
88,88,137319,1,0,0:0:0:0:
88,88,137550,1,8,0:0:0:0:
88,88,138012,1,8,0:0:0:0:
88,88,138242,1,8,0:0:0:0:
88,88,138473,1,0,0:0:0:0:
88,88,138935,1,8,0:0:0:0:
88,88,139396,1,0,0:0:0:0:
88,88,139627,1,0,0:0:0:0:
88,88,139858,1,8,0:0:0:0:
88,88,140320,5,4,0:0:0:0:
88,88,141013,1,4,0:0:0:0:
88,88,141705,1,4,0:0:0:0:
88,88,142167,1,0,0:0:0:0:
88,88,142397,1,8,0:0:0:0:
88,88,142628,1,0,0:0:0:0:
88,88,143090,1,0,0:0:0:0:
88,88,143320,1,0,0:0:0:0:
88,88,143551,1,0,0:0:0:0:
88,88,144013,5,4,0:0:0:0:
88,88,144474,1,0,0:0:0:0:
88,88,144705,1,0,0:0:0:0:
88,88,144936,1,0,0:0:0:0:
88,88,145167,1,0,0:0:0:0:
88,88,145397,1,8,0:0:0:0:
88,88,145859,1,8,0:0:0:0:
88,88,146320,1,8,0:0:0:0:
88,88,146782,1,8,0:0:0:0:
88,88,147244,1,8,0:0:0:0:
88,88,147705,5,0,0:0:0:0:
88,88,148167,1,8,0:0:0:0:
88,88,148397,1,8,0:0:0:0:
88,88,148628,1,0,0:0:0:0:
88,88,148859,1,0,0:0:0:0:
88,88,149090,1,8,0:0:0:0:
88,88,149551,1,8,0:0:0:0:
88,88,150013,1,8,0:0:0:0:
88,88,150474,1,0,0:0:0:0:
88,88,150705,1,0,0:0:0:0:
88,88,150936,1,8,0:0:0:0:
88,88,151397,5,4,0:0:0:0:
88,88,151859,1,8,0:0:0:0:
88,88,152090,1,8,0:0:0:0:
88,88,152320,1,0,0:0:0:0:
88,88,152551,1,0,0:0:0:0:
88,88,152782,1,8,0:0:0:0:
88,88,153244,1,12,0:0:0:0:
88,88,153705,1,12,0:0:0:0:
88,88,154167,1,12,0:0:0:0:
88,88,154628,1,12,0:0:0:0:
256,192,155089,12,0,158781,0:0:0:0:
256,192,162474,12,0,166166,0:0:0:0:
88,88,169858,5,4,0:0:0:0:
88,88,170320,1,0,0:0:0:0:
88,88,170551,1,0,0:0:0:0:
88,88,170781,1,0,0:0:0:0:
88,88,171243,1,8,0:0:0:0:
88,88,171474,1,8,0:0:0:0:
88,88,171705,1,8,0:0:0:0:
88,88,172166,1,0,0:0:0:0:
88,88,172397,1,0,0:0:0:0:
88,88,172627,1,0,0:0:0:0:
88,88,173089,1,8,0:0:0:0:
88,88,173320,1,8,0:0:0:0:
88,88,173551,5,8,0:0:0:0:
88,88,174012,1,8,0:0:0:0:
88,88,174473,1,0,0:0:0:0:
88,88,174705,1,0,0:0:0:0:
88,88,174935,1,8,0:0:0:0:
88,88,175397,1,8,0:0:0:0:
88,88,175628,1,8,0:0:0:0:
88,88,175858,1,0,0:0:0:0:
88,88,176320,1,8,0:0:0:0:
88,88,176551,1,8,0:0:0:0:
88,88,176781,1,0,0:0:0:0:
88,88,177243,5,4,0:0:0:0:
88,88,177705,1,0,0:0:0:0:
88,88,177936,1,0,0:0:0:0:
88,88,178166,1,0,0:0:0:0:
88,88,178628,1,8,0:0:0:0:
88,88,178859,1,8,0:0:0:0:
88,88,179090,1,8,0:0:0:0:
88,88,179551,1,0,0:0:0:0:
88,88,179782,1,0,0:0:0:0:
88,88,180012,1,0,0:0:0:0:
88,88,180474,1,8,0:0:0:0:
88,88,180935,5,4,0:0:0:0:
88,88,181397,1,8,0:0:0:0:
88,88,181628,1,8,0:0:0:0:
88,88,181858,1,8,0:0:0:0:
88,88,182320,1,8,0:0:0:0:
88,88,182551,1,8,0:0:0:0:
88,88,182781,1,8,0:0:0:0:
88,88,183243,1,8,0:0:0:0:
88,88,183474,1,8,0:0:0:0:
88,88,183704,1,8,0:0:0:0:
88,88,184166,1,8,0:0:0:0:
88,88,184627,5,4,0:0:0:0:
88,88,185089,1,0,0:0:0:0:
88,88,185320,1,0,0:0:0:0:
88,88,185550,1,0,0:0:0:0:
88,88,186012,1,0,0:0:0:0:
88,88,186473,1,12,0:0:0:0:
88,88,186935,1,12,0:0:0:0:
88,88,187397,1,12,0:0:0:0:
88,88,187858,1,12,0:0:0:0:
88,88,188320,5,8,0:0:0:0:
88,88,188550,1,0,0:0:0:0:
88,88,188781,1,8,0:0:0:0:
88,88,189243,1,8,0:0:0:0:
88,88,189704,1,8,0:0:0:0:
88,88,190166,1,8,0:0:0:0:
88,88,190396,1,0,0:0:0:0:
88,88,190627,1,8,0:0:0:0:
88,88,191089,1,8,0:0:0:0:
88,88,191320,1,8,0:0:0:0:
88,88,191550,1,8,0:0:0:0:
88,88,192012,5,8,0:0:0:0:
88,88,192242,1,0,0:0:0:0:
88,88,192473,1,8,0:0:0:0:
88,88,192935,1,8,0:0:0:0:
88,88,193396,1,8,0:0:0:0:
88,88,193858,1,8,0:0:0:0:
88,88,194088,1,0,0:0:0:0:
88,88,194319,1,8,0:0:0:0:
88,88,194781,1,8,0:0:0:0:
88,88,195243,1,8,0:0:0:0:
88,88,195705,5,8,0:0:0:0:
88,88,195935,1,0,0:0:0:0:
88,88,196166,1,8,0:0:0:0:
88,88,196628,1,8,0:0:0:0:
88,88,197089,1,8,0:0:0:0:
88,88,197551,1,8,0:0:0:0:
88,88,197781,1,0,0:0:0:0:
88,88,198012,1,8,0:0:0:0:
88,88,198474,1,8,0:0:0:0:
88,88,198705,1,8,0:0:0:0:
88,88,198935,1,8,0:0:0:0:
88,88,199397,5,8,0:0:0:0:
88,88,199627,1,0,0:0:0:0:
88,88,199858,1,8,0:0:0:0:
88,88,200320,1,8,0:0:0:0:
88,88,200781,1,8,0:0:0:0:
88,88,201243,1,8,0:0:0:0:
88,88,201473,1,0,0:0:0:0:
88,88,201704,1,8,0:0:0:0:
88,88,202166,1,8,0:0:0:0:
88,88,202628,1,8,0:0:0:0:
88,88,203089,5,8,0:0:0:0:
88,88,203550,1,8,0:0:0:0:
88,88,203781,1,0,0:0:0:0:
88,88,204012,1,8,0:0:0:0:
88,88,204473,1,8,0:0:0:0:
88,88,204935,1,8,0:0:0:0:
88,88,205165,1,0,0:0:0:0:
88,88,205396,1,8,0:0:0:0:
88,88,205858,1,0,0:0:0:0:
88,88,206089,1,0,0:0:0:0:
88,88,206319,1,0,0:0:0:0:
88,88,206781,5,8,0:0:0:0:
88,88,207242,1,8,0:0:0:0:
88,88,207474,1,0,0:0:0:0:
88,88,207704,1,8,0:0:0:0:
88,88,208165,1,8,0:0:0:0:
88,88,208627,1,0,0:0:0:0:
88,88,209088,1,0,0:0:0:0:
88,88,209550,1,8,0:0:0:0:
88,88,210012,1,8,0:0:0:0:
88,88,210474,5,0,0:0:0:0:
88,88,210935,1,0,0:0:0:0:
88,88,211166,1,0,0:0:0:0:
88,88,211397,1,8,0:0:0:0:
88,88,211858,1,8,0:0:0:0:
88,88,212320,1,8,0:0:0:0:
88,88,212550,1,0,0:0:0:0:
88,88,212781,1,8,0:0:0:0:
88,88,213243,1,0,0:0:0:0:
88,88,213704,1,0,0:0:0:0:
88,88,214166,5,8,0:0:0:0:
88,88,214627,1,8,0:0:0:0:
88,88,215089,1,8,0:0:0:0:
88,88,215550,1,8,0:0:0:0:
88,88,216012,1,8,0:0:0:0:
88,88,217397,1,8,0:0:0:0:
88,88,217858,5,4,0:0:0:0:
88,88,218319,1,0,0:0:0:0:
88,88,218781,1,0,0:0:0:0:
88,88,219012,1,8,0:0:0:0:
88,88,219243,1,0,0:0:0:0:
88,88,219704,1,0,0:0:0:0:
88,88,219935,1,8,0:0:0:0:
88,88,220165,1,0,0:0:0:0:
88,88,220627,1,0,0:0:0:0:
88,88,221088,1,4,0:0:0:0:
88,88,221550,5,4,0:0:0:0:
88,88,222011,1,0,0:0:0:0:
88,88,222473,1,0,0:0:0:0:
88,88,222704,1,0,0:0:0:0:
88,88,222934,1,0,0:0:0:0:
88,88,223396,1,4,0:0:0:0:
88,88,223857,1,4,0:0:0:0:
88,88,224319,1,4,0:0:0:0:
88,88,225243,5,4,0:0:0:0:
88,88,225704,1,0,0:0:0:0:
88,88,226166,1,0,0:0:0:0:
88,88,226397,1,8,0:0:0:0:
88,88,226628,1,0,0:0:0:0:
88,88,227089,1,0,0:0:0:0:
88,88,227320,1,8,0:0:0:0:
88,88,227550,1,0,0:0:0:0:
88,88,228012,1,0,0:0:0:0:
88,88,228473,1,4,0:0:0:0:
88,88,228935,5,4,0:0:0:0:
88,88,229396,1,0,0:0:0:0:
88,88,229858,1,0,0:0:0:0:
88,88,230088,1,0,0:0:0:0:
88,88,230319,1,0,0:0:0:0:
88,88,230781,1,4,0:0:0:0:
88,88,231242,1,4,0:0:0:0:
88,88,231704,1,4,0:0:0:0:
88,88,232627,5,4,0:0:0:0:
88,88,233089,1,8,0:0:0:0:
88,88,233320,1,8,0:0:0:0:
88,88,233550,1,0,0:0:0:0:
88,88,234012,1,0,0:0:0:0:
88,88,234473,1,8,0:0:0:0:
88,88,234935,1,8,0:0:0:0:
88,88,235396,1,8,0:0:0:0:
88,88,235858,1,4,0:0:0:0:
88,88,236320,5,4,0:0:0:0:
88,88,236782,1,0,0:0:0:0:
88,88,237013,1,0,0:0:0:0:
88,88,237243,1,8,0:0:0:0:
88,88,237705,1,8,0:0:0:0:
88,88,238166,1,4,0:0:0:0:
88,88,238628,1,4,0:0:0:0:
88,88,239089,1,12,0:0:0:0:
88,88,239551,1,12,0:0:0:0:
88,88,240012,5,0,0:0:0:0:
88,88,240473,1,8,0:0:0:0:
88,88,240704,1,8,0:0:0:0:
88,88,240935,1,0,0:0:0:0:
88,88,241396,1,8,0:0:0:0:
88,88,241627,1,8,0:0:0:0:
88,88,241858,1,0,0:0:0:0:
88,88,242319,1,8,0:0:0:0:
88,88,242781,1,0,0:0:0:0:
88,88,243242,1,4,0:0:0:0:
88,88,243704,5,4,0:0:0:0:
88,88,244166,1,8,0:0:0:0:
88,88,244397,1,8,0:0:0:0:
88,88,244627,1,0,0:0:0:0:
88,88,245089,1,8,0:0:0:0:
88,88,245550,1,4,0:0:0:0:
88,88,246473,1,4,0:0:0:0:
88,88,246935,1,4,0:0:0:0:
88,88,247396,5,4,0:0:0:0:
88,88,248320,1,4,0:0:0:0:
88,88,249243,1,4,0:0:0:0:
88,88,249704,1,4,0:0:0:0:
88,88,250166,1,4,0:0:0:0:
88,88,251089,5,4,0:0:0:0:
88,88,251550,1,0,0:0:0:0:
88,88,252012,1,0,0:0:0:0:
88,88,252243,1,0,0:0:0:0:
88,88,252474,1,8,0:0:0:0:
88,88,252935,1,0,0:0:0:0:
88,88,253166,1,0,0:0:0:0:
88,88,253396,1,8,0:0:0:0:
88,88,253627,1,8,0:0:0:0:
88,88,253858,1,0,0:0:0:0:
88,88,254319,1,4,0:0:0:0:
88,88,254781,5,4,0:0:0:0:
88,88,255242,1,8,0:0:0:0:
88,88,255704,1,0,0:0:0:0:
88,88,255935,1,0,0:0:0:0:
88,88,256165,1,8,0:0:0:0:
88,88,256627,1,4,0:0:0:0:
88,88,257088,1,4,0:0:0:0:
88,88,257550,1,4,0:0:0:0:
88,88,258474,5,4,0:0:0:0:
88,88,258935,1,0,0:0:0:0:
88,88,259397,1,0,0:0:0:0:
88,88,259628,1,0,0:0:0:0:
88,88,259859,1,8,0:0:0:0:
88,88,260320,1,0,0:0:0:0:
88,88,260551,1,0,0:0:0:0:
88,88,260781,1,8,0:0:0:0:
88,88,261012,1,8,0:0:0:0:
88,88,261243,1,0,0:0:0:0:
88,88,261704,1,4,0:0:0:0:
88,88,262166,5,4,0:0:0:0:
88,88,262627,1,8,0:0:0:0:
88,88,263089,1,0,0:0:0:0:
88,88,263320,1,0,0:0:0:0:
88,88,263550,1,8,0:0:0:0:
88,88,264012,1,4,0:0:0:0:
88,88,264473,1,4,0:0:0:0:
88,88,264935,5,4,0:0:0:0:
88,88,265858,5,8,0:0:0:0:
88,88,266088,1,0,0:0:0:0:
88,88,266319,1,8,0:0:0:0:
88,88,266781,1,8,0:0:0:0:
88,88,267243,1,8,0:0:0:0:
88,88,267704,1,8,0:0:0:0:
88,88,267934,1,0,0:0:0:0:
88,88,268165,1,8,0:0:0:0:
88,88,268627,1,0,0:0:0:0:
88,88,269088,1,8,0:0:0:0:
88,88,269550,5,8,0:0:0:0:
88,88,269780,1,0,0:0:0:0:
88,88,270011,1,8,0:0:0:0:
88,88,270473,1,0,0:0:0:0:
88,88,270705,1,0,0:0:0:0:
88,88,270935,1,8,0:0:0:0:
88,88,271396,1,0,0:0:0:0:
88,88,271626,1,0,0:0:0:0:
88,88,271857,1,8,0:0:0:0:
88,88,272088,1,8,0:0:0:0:
88,88,272319,1,0,0:0:0:0:
88,88,272781,1,8,0:0:0:0:
88,88,273243,5,8,0:0:0:0:
88,88,273705,1,8,0:0:0:0:
88,88,274166,1,8,0:0:0:0:
88,88,274397,1,0,0:0:0:0:
88,88,274628,1,8,0:0:0:0:
88,88,275089,1,8,0:0:0:0:
88,88,275551,1,8,0:0:0:0:
88,88,276012,1,8,0:0:0:0:
88,88,276243,1,0,0:0:0:0:
88,88,276474,1,8,0:0:0:0:
256,192,276935,12,0,281897,0:0:0:0:
