osu file format v13

[General]
AudioFilename: Rouen Shitstorm.mp3
AudioLeadIn: 0
PreviewTime: 216
Countdown: 0
SampleSet: Normal
StackLeniency: 0.7
Mode: 1
LetterboxInBreaks: 0
WidescreenStoryboard: 0

[Editor]
Bookmarks: 814,12814,22414,32014,36814,41614,46414,51214,60814,70414,80014,84814,89614,92014,99214,106414,117214
DistanceSpacing: 0.5
BeatDivisor: 1
GridSize: 32
TimelineZoom: 2.200002

[Metadata]
Title:Rouen Shitstorm
TitleUnicode:Rouen Shitstorm
Artist:Kurokotei
ArtistUnicode:黒皇帝
Creator:Kurosanyan
Version:Inner Oni
Source:
Tags:dialgadu77 Sayaka- Rotter Tarmination agu
BeatmapID:558145
BeatmapSetID:241702

[Difficulty]
HPDrainRate:6
CircleSize:5
OverallDifficulty:6
ApproachRate:5
SliderMultiplier:1.4
SliderTickRate:1

[Events]
//Background and Video events
0,0,"dialgaplsSUNGLASSES.jpg",0,-50
//Break Periods
//Storyboard Layer 0 (Background)
//Storyboard Layer 1 (Fail)
//Storyboard Layer 2 (Pass)
//Storyboard Layer 3 (Foreground)
//Storyboard Sound Samples
//Background Colour Transformations
3,100,163,162,255

[TimingPoints]
819,300,4,1,0,80,1,0
52269,-133.333333333333,4,1,0,80,0,0
53469,-100,4,1,0,80,0,0
54669,-133.333333333333,4,1,0,80,0,0
55869,-100,4,1,0,80,0,0
57069,-133.333333333333,4,1,0,80,0,0
58269,-100,4,1,0,80,0,0
59469,-133.333333333333,4,1,0,80,0,0
60669,-100,4,1,0,80,0,0
92019,300,3,1,0,80,1,1
104619,-100,3,1,0,80,0,0
106419,300,4,1,0,80,1,0

[HitObjects]
256,192,219,5,0,0:0:0:0:
256,192,369,1,8,0:0:0:0:
256,192,519,1,0,0:0:0:0:
256,192,669,1,0,0:0:0:0:
256,192,819,5,4,0:0:0:0:
256,192,1044,1,8,0:0:0:0:
256,192,1119,1,0,0:0:0:0:
256,192,1269,1,0,0:0:0:0:
256,192,1419,1,8,0:0:0:0:
256,192,1569,1,0,0:0:0:0:
256,192,1644,1,0,0:0:0:0:
256,192,1719,1,0,0:0:0:0:
256,192,1869,1,8,0:0:0:0:
256,192,2019,1,0,0:0:0:0:
256,192,2169,1,0,0:0:0:0:
256,192,2244,1,8,0:0:0:0:
256,192,2319,1,0,0:0:0:0:
256,192,2469,1,0,0:0:0:0:
256,192,2619,1,0,0:0:0:0:
256,192,2769,1,8,0:0:0:0:
256,192,2919,1,0,0:0:0:0:
256,192,3219,1,0,0:0:0:0:
256,192,3444,1,8,0:0:0:0:
256,192,3519,1,0,0:0:0:0:
256,192,3669,1,0,0:0:0:0:
256,192,3819,1,8,0:0:0:0:
256,192,3969,1,0,0:0:0:0:
256,192,4044,1,0,0:0:0:0:
256,192,4119,1,0,0:0:0:0:
256,192,4269,1,8,0:0:0:0:
256,192,4419,1,0,0:0:0:0:
256,192,4569,1,0,0:0:0:0:
256,192,4644,1,8,0:0:0:0:
256,192,4719,1,0,0:0:0:0:
256,192,4869,1,0,0:0:0:0:
256,192,5019,1,0,0:0:0:0:
256,192,5169,1,8,0:0:0:0:
256,192,5244,1,8,0:0:0:0:
256,192,5319,1,0,0:0:0:0:
256,192,5469,1,0,0:0:0:0:
256,192,5619,1,0,0:0:0:0:
256,192,5844,1,8,0:0:0:0:
256,192,5919,1,0,0:0:0:0:
256,192,6069,1,0,0:0:0:0:
256,192,6219,1,8,0:0:0:0:
256,192,6369,1,0,0:0:0:0:
256,192,6444,1,0,0:0:0:0:
256,192,6519,1,0,0:0:0:0:
256,192,6669,1,8,0:0:0:0:
256,192,6819,1,0,0:0:0:0:
256,192,6969,1,0,0:0:0:0:
256,192,7044,1,8,0:0:0:0:
256,192,7119,1,0,0:0:0:0:
256,192,7269,1,0,0:0:0:0:
256,192,7419,1,0,0:0:0:0:
256,192,7569,1,8,0:0:0:0:
256,192,7719,1,0,0:0:0:0:
256,192,8019,1,0,0:0:0:0:
256,192,8244,1,8,0:0:0:0:
256,192,8319,1,0,0:0:0:0:
256,192,8469,1,0,0:0:0:0:
256,192,8619,1,8,0:0:0:0:
256,192,8769,1,0,0:0:0:0:
256,192,8844,1,0,0:0:0:0:
256,192,8919,1,0,0:0:0:0:
256,192,9069,1,0,0:0:0:0:
256,192,9219,1,8,0:0:0:0:
256,192,9369,1,0,0:0:0:0:
256,192,9444,1,0,0:0:0:0:
256,192,9519,1,0,0:0:0:0:
256,192,9669,1,8,0:0:0:0:
256,192,9819,1,0,0:0:0:0:
256,192,9894,1,0,0:0:0:0:
256,192,9969,1,0,0:0:0:0:
256,192,10044,1,0,0:0:0:0:
256,192,10119,1,8,0:0:0:0:
256,192,10419,1,0,0:0:0:0:
256,192,10719,1,0,0:0:0:0:
256,192,11019,1,0,0:0:0:0:
256,192,11319,1,0,0:0:0:0:
256,192,11619,1,0,0:0:0:0:
256,192,11769,1,0,0:0:0:0:
256,192,11919,1,0,0:0:0:0:
256,192,12069,1,0,0:0:0:0:
256,192,12219,1,0,0:0:0:0:
256,192,12294,1,0,0:0:0:0:
256,192,12369,1,0,0:0:0:0:
256,192,12444,1,0,0:0:0:0:
256,192,12519,1,8,0:0:0:0:
256,192,12594,1,8,0:0:0:0:
256,192,12669,1,8,0:0:0:0:
256,192,12744,1,8,0:0:0:0:
256,192,12819,1,0,0:0:0:0:
256,192,12969,1,8,0:0:0:0:
256,192,13044,1,8,0:0:0:0:
256,192,13119,1,0,0:0:0:0:
256,192,13269,1,8,0:0:0:0:
256,192,13419,1,0,0:0:0:0:
256,192,13494,1,0,0:0:0:0:
256,192,13569,1,8,0:0:0:0:
256,192,13719,1,0,0:0:0:0:
256,192,13869,1,8,0:0:0:0:
256,192,14019,1,0,0:0:0:0:
256,192,14169,1,8,0:0:0:0:
256,192,14244,1,0,0:0:0:0:
256,192,14319,1,8,0:0:0:0:
256,192,14469,1,0,0:0:0:0:
256,192,14619,1,8,0:0:0:0:
256,192,14694,1,8,0:0:0:0:
256,192,14769,1,0,0:0:0:0:
256,192,14919,1,8,0:0:0:0:
256,192,15069,1,8,0:0:0:0:
256,192,15219,1,0,0:0:0:0:
256,192,15369,1,8,0:0:0:0:
256,192,15444,1,8,0:0:0:0:
256,192,15519,1,0,0:0:0:0:
256,192,15669,1,8,0:0:0:0:
256,192,15819,1,0,0:0:0:0:
256,192,15894,1,0,0:0:0:0:
256,192,15969,1,8,0:0:0:0:
256,192,16119,1,0,0:0:0:0:
256,192,16269,1,8,0:0:0:0:
256,192,16419,1,0,0:0:0:0:
256,192,16569,1,8,0:0:0:0:
256,192,16644,1,0,0:0:0:0:
256,192,16719,1,8,0:0:0:0:
256,192,16869,1,0,0:0:0:0:
256,192,17019,5,12,0:0:0:0:
256,192,17319,5,12,0:0:0:0:
256,192,17619,1,0,0:0:0:0:
256,192,17769,1,8,0:0:0:0:
256,192,17844,1,8,0:0:0:0:
256,192,17919,1,0,0:0:0:0:
256,192,17994,1,0,0:0:0:0:
256,192,18069,1,8,0:0:0:0:
256,192,18219,1,0,0:0:0:0:
256,192,18294,1,0,0:0:0:0:
256,192,18369,1,8,0:0:0:0:
256,192,18444,1,8,0:0:0:0:
256,192,18519,1,0,0:0:0:0:
256,192,18669,1,8,0:0:0:0:
256,192,18819,1,0,0:0:0:0:
256,192,18969,1,8,0:0:0:0:
256,192,19044,1,0,0:0:0:0:
256,192,19119,1,8,0:0:0:0:
256,192,19194,1,8,0:0:0:0:
256,192,19269,1,0,0:0:0:0:
256,192,19419,1,8,0:0:0:0:
256,192,19494,1,8,0:0:0:0:
256,192,19569,1,0,0:0:0:0:
256,192,19644,1,0,0:0:0:0:
256,192,19719,1,8,0:0:0:0:
256,192,19869,1,8,0:0:0:0:
256,192,20019,1,0,0:0:0:0:
256,192,20169,1,8,0:0:0:0:
256,192,20244,1,8,0:0:0:0:
256,192,20319,1,0,0:0:0:0:
256,192,20394,1,0,0:0:0:0:
256,192,20469,1,8,0:0:0:0:
256,192,20619,1,0,0:0:0:0:
256,192,20694,1,0,0:0:0:0:
256,192,20769,1,8,0:0:0:0:
256,192,20844,1,8,0:0:0:0:
256,192,20919,1,0,0:0:0:0:
256,192,21069,1,8,0:0:0:0:
256,192,21219,1,0,0:0:0:0:
256,192,21369,1,8,0:0:0:0:
256,192,21444,1,0,0:0:0:0:
256,192,21519,1,8,0:0:0:0:
256,192,21594,1,8,0:0:0:0:
256,192,21669,1,0,0:0:0:0:
256,192,21819,5,12,0:0:0:0:
256,192,22119,5,12,0:0:0:0:
256,192,22419,5,4,0:0:0:0:
256,192,22569,1,8,0:0:0:0:
256,192,22644,1,8,0:0:0:0:
256,192,22719,1,0,0:0:0:0:
256,192,22869,1,8,0:0:0:0:
256,192,23019,1,0,0:0:0:0:
256,192,23094,1,0,0:0:0:0:
256,192,23169,1,8,0:0:0:0:
256,192,23319,1,0,0:0:0:0:
256,192,23469,1,8,0:0:0:0:
256,192,23619,1,0,0:0:0:0:
256,192,23769,1,8,0:0:0:0:
256,192,23844,1,0,0:0:0:0:
256,192,23919,1,8,0:0:0:0:
256,192,24069,1,0,0:0:0:0:
256,192,24219,1,8,0:0:0:0:
256,192,24294,1,8,0:0:0:0:
256,192,24369,1,0,0:0:0:0:
256,192,24519,1,8,0:0:0:0:
256,192,24669,1,8,0:0:0:0:
256,192,24819,1,0,0:0:0:0:
256,192,24969,1,8,0:0:0:0:
256,192,25044,1,8,0:0:0:0:
256,192,25119,1,0,0:0:0:0:
256,192,25269,1,8,0:0:0:0:
256,192,25419,1,0,0:0:0:0:
256,192,25494,1,0,0:0:0:0:
256,192,25569,1,8,0:0:0:0:
256,192,25719,1,0,0:0:0:0:
256,192,25869,1,8,0:0:0:0:
256,192,26019,1,0,0:0:0:0:
256,192,26169,1,8,0:0:0:0:
256,192,26244,1,0,0:0:0:0:
256,192,26319,1,8,0:0:0:0:
256,192,26469,1,0,0:0:0:0:
256,192,26619,5,12,0:0:0:0:
256,192,26919,5,12,0:0:0:0:
256,192,27219,1,0,0:0:0:0:
256,192,27369,1,8,0:0:0:0:
256,192,27444,1,8,0:0:0:0:
256,192,27519,1,0,0:0:0:0:
256,192,27594,1,0,0:0:0:0:
256,192,27669,1,8,0:0:0:0:
256,192,27819,1,0,0:0:0:0:
256,192,27894,1,0,0:0:0:0:
256,192,27969,1,8,0:0:0:0:
256,192,28044,1,8,0:0:0:0:
256,192,28119,1,0,0:0:0:0:
256,192,28269,1,8,0:0:0:0:
256,192,28419,1,0,0:0:0:0:
256,192,28569,1,8,0:0:0:0:
256,192,28644,1,0,0:0:0:0:
256,192,28719,1,8,0:0:0:0:
256,192,28794,1,8,0:0:0:0:
256,192,28869,1,0,0:0:0:0:
256,192,29019,1,8,0:0:0:0:
256,192,29094,1,8,0:0:0:0:
256,192,29169,1,0,0:0:0:0:
256,192,29244,1,0,0:0:0:0:
256,192,29319,1,8,0:0:0:0:
256,192,29469,1,8,0:0:0:0:
256,192,29619,1,0,0:0:0:0:
256,192,29769,1,8,0:0:0:0:
256,192,29844,1,8,0:0:0:0:
256,192,29919,1,0,0:0:0:0:
256,192,29994,1,0,0:0:0:0:
256,192,30069,1,8,0:0:0:0:
256,192,30219,1,0,0:0:0:0:
256,192,30294,1,0,0:0:0:0:
256,192,30369,1,8,0:0:0:0:
256,192,30444,1,8,0:0:0:0:
256,192,30519,1,0,0:0:0:0:
256,192,30669,1,8,0:0:0:0:
256,192,30819,1,0,0:0:0:0:
256,192,30969,1,8,0:0:0:0:
256,192,31044,1,0,0:0:0:0:
256,192,31119,1,8,0:0:0:0:
256,192,31194,1,8,0:0:0:0:
256,192,31269,1,0,0:0:0:0:
256,192,31419,5,12,0:0:0:0:
256,192,31719,5,12,0:0:0:0:
256,192,32019,5,4,0:0:0:0:
256,192,32244,1,0,0:0:0:0:
256,192,32319,1,0,0:0:0:0:
256,192,32469,1,8,0:0:0:0:
256,192,32619,1,0,0:0:0:0:
256,192,32694,1,0,0:0:0:0:
256,192,32769,1,8,0:0:0:0:
256,192,32844,1,8,0:0:0:0:
256,192,32919,1,0,0:0:0:0:
256,192,33069,1,8,0:0:0:0:
256,192,33219,1,0,0:0:0:0:
256,192,33444,1,0,0:0:0:0:
256,192,33519,1,0,0:0:0:0:
256,192,33669,1,8,0:0:0:0:
256,192,33819,1,0,0:0:0:0:
256,192,33969,1,8,0:0:0:0:
256,192,34044,1,8,0:0:0:0:
256,192,34119,1,0,0:0:0:0:
256,192,34269,1,8,0:0:0:0:
256,192,34419,1,0,0:0:0:0:
256,192,34644,1,0,0:0:0:0:
256,192,34719,1,0,0:0:0:0:
256,192,34869,1,8,0:0:0:0:
256,192,35019,1,0,0:0:0:0:
256,192,35094,1,8,0:0:0:0:
256,192,35169,1,0,0:0:0:0:
256,192,35244,1,8,0:0:0:0:
256,192,35319,1,0,0:0:0:0:
256,192,35469,1,8,0:0:0:0:
256,192,35619,1,0,0:0:0:0:
256,192,35844,1,0,0:0:0:0:
256,192,35919,1,0,0:0:0:0:
256,192,36069,1,8,0:0:0:0:
256,192,36219,1,0,0:0:0:0:
256,192,36369,1,0,0:0:0:0:
256,192,36444,1,8,0:0:0:0:
256,192,36519,1,0,0:0:0:0:
256,192,36669,1,8,0:0:0:0:
256,192,36819,5,4,0:0:0:0:
256,192,36969,1,0,0:0:0:0:
256,192,37119,1,0,0:0:0:0:
256,192,37269,1,8,0:0:0:0:
256,192,37419,1,0,0:0:0:0:
256,192,37494,1,0,0:0:0:0:
256,192,37569,1,8,0:0:0:0:
256,192,37644,1,8,0:0:0:0:
256,192,37719,1,0,0:0:0:0:
256,192,37869,1,8,0:0:0:0:
256,192,38019,1,0,0:0:0:0:
256,192,38169,1,0,0:0:0:0:
256,192,38319,1,0,0:0:0:0:
256,192,38469,1,8,0:0:0:0:
256,192,38619,1,0,0:0:0:0:
256,192,38769,1,8,0:0:0:0:
256,192,38844,1,8,0:0:0:0:
256,192,38919,1,0,0:0:0:0:
256,192,39069,1,8,0:0:0:0:
256,192,39219,1,0,0:0:0:0:
256,192,39369,1,0,0:0:0:0:
256,192,39519,1,0,0:0:0:0:
256,192,39669,1,8,0:0:0:0:
256,192,39819,1,0,0:0:0:0:
256,192,39894,1,8,0:0:0:0:
256,192,39969,1,0,0:0:0:0:
256,192,40044,1,8,0:0:0:0:
256,192,40119,1,0,0:0:0:0:
256,192,40269,1,8,0:0:0:0:
256,192,40419,1,0,0:0:0:0:
256,192,40569,1,0,0:0:0:0:
256,192,40719,1,0,0:0:0:0:
256,192,40869,1,8,0:0:0:0:
256,192,41019,1,0,0:0:0:0:
256,192,41169,1,0,0:0:0:0:
256,192,41244,1,0,0:0:0:0:
256,192,41319,1,0,0:0:0:0:
256,192,41619,5,12,0:0:0:0:
256,192,41769,1,0,0:0:0:0:
256,192,41844,1,0,0:0:0:0:
256,192,41919,1,8,0:0:0:0:
256,192,42069,1,0,0:0:0:0:
256,192,42219,1,8,0:0:0:0:
256,192,42369,1,0,0:0:0:0:
256,192,42444,1,0,0:0:0:0:
256,192,42519,1,8,0:0:0:0:
256,192,42669,1,0,0:0:0:0:
256,192,42819,1,8,0:0:0:0:
256,192,42969,1,0,0:0:0:0:
256,192,43044,1,0,0:0:0:0:
256,192,43119,1,8,0:0:0:0:
256,192,43194,1,8,0:0:0:0:
256,192,43269,1,0,0:0:0:0:
256,192,43419,1,8,0:0:0:0:
256,192,43569,1,0,0:0:0:0:
256,192,43644,1,0,0:0:0:0:
256,192,43719,1,8,0:0:0:0:
256,192,43794,1,0,0:0:0:0:
256,192,43869,1,8,0:0:0:0:
256,192,44019,1,8,0:0:0:0:
256,192,44169,1,0,0:0:0:0:
256,192,44244,1,0,0:0:0:0:
256,192,44319,1,8,0:0:0:0:
256,192,44469,1,0,0:0:0:0:
256,192,44619,1,8,0:0:0:0:
256,192,44769,1,0,0:0:0:0:
256,192,44844,1,0,0:0:0:0:
256,192,44919,1,8,0:0:0:0:
256,192,45069,1,0,0:0:0:0:
256,192,45219,1,8,0:0:0:0:
256,192,45369,1,0,0:0:0:0:
256,192,45444,1,0,0:0:0:0:
256,192,45519,1,8,0:0:0:0:
256,192,45594,1,8,0:0:0:0:
256,192,45669,1,0,0:0:0:0:
256,192,45819,1,8,0:0:0:0:
256,192,45969,1,0,0:0:0:0:
256,192,46044,1,0,0:0:0:0:
256,192,46119,1,8,0:0:0:0:
256,192,46194,1,0,0:0:0:0:
256,192,46269,1,0,0:0:0:0:
256,192,46419,5,12,0:0:0:0:
256,192,46644,1,0,0:0:0:0:
256,192,46719,1,8,0:0:0:0:
256,192,46869,1,0,0:0:0:0:
256,192,47019,1,8,0:0:0:0:
256,192,47169,1,0,0:0:0:0:
256,192,47244,1,0,0:0:0:0:
256,192,47319,1,8,0:0:0:0:
256,192,47469,1,0,0:0:0:0:
256,192,47619,5,12,0:0:0:0:
256,192,47844,1,0,0:0:0:0:
256,192,47919,1,8,0:0:0:0:
256,192,48069,1,0,0:0:0:0:
256,192,48219,1,8,0:0:0:0:
256,192,48369,1,0,0:0:0:0:
256,192,48444,1,0,0:0:0:0:
256,192,48519,1,8,0:0:0:0:
256,192,48669,1,0,0:0:0:0:
256,192,48819,5,12,0:0:0:0:
256,192,48969,1,0,0:0:0:0:
256,192,49044,1,0,0:0:0:0:
256,192,49119,1,8,0:0:0:0:
256,192,49269,1,0,0:0:0:0:
256,192,49419,5,12,0:0:0:0:
256,192,49569,1,0,0:0:0:0:
256,192,49644,1,0,0:0:0:0:
256,192,49719,1,8,0:0:0:0:
256,192,49869,1,0,0:0:0:0:
256,192,50019,5,12,0:0:0:0:
256,192,50319,5,12,0:0:0:0:
256,192,50619,5,12,0:0:0:0:
256,192,50919,5,12,0:0:0:0:
256,192,51219,5,12,0:0:0:0:
256,192,51369,1,0,0:0:0:0:
256,192,51444,1,0,0:0:0:0:
256,192,51519,1,0,0:0:0:0:
256,192,51669,1,8,0:0:0:0:
256,192,51969,1,0,0:0:0:0:
256,192,52119,1,8,0:0:0:0:
256,192,52419,1,0,0:0:0:0:
256,192,52719,1,0,0:0:0:0:
256,192,53019,1,0,0:0:0:0:
256,192,53169,1,0,0:0:0:0:
256,192,53319,1,0,0:0:0:0:
256,192,53619,1,8,0:0:0:0:
256,192,53769,1,0,0:0:0:0:
256,192,54069,1,8,0:0:0:0:
256,192,54369,1,0,0:0:0:0:
256,192,54519,1,8,0:0:0:0:
256,192,54819,1,0,0:0:0:0:
256,192,55119,1,0,0:0:0:0:
256,192,55419,1,0,0:0:0:0:
256,192,55494,1,0,0:0:0:0:
256,192,55569,1,0,0:0:0:0:
256,192,55719,1,0,0:0:0:0:
256,192,56019,1,8,0:0:0:0:
256,192,56169,1,0,0:0:0:0:
256,192,56244,1,0,0:0:0:0:
256,192,56319,1,0,0:0:0:0:
256,192,56469,1,8,0:0:0:0:
256,192,56769,1,0,0:0:0:0:
256,192,56919,1,8,0:0:0:0:
256,192,57219,1,0,0:0:0:0:
256,192,57519,1,0,0:0:0:0:
256,192,57819,1,0,0:0:0:0:
256,192,57969,1,0,0:0:0:0:
256,192,58119,1,0,0:0:0:0:
256,192,58419,1,8,0:0:0:0:
256,192,58569,1,0,0:0:0:0:
256,192,58869,1,8,0:0:0:0:
256,192,59169,1,0,0:0:0:0:
256,192,59319,1,8,0:0:0:0:
256,192,59619,1,0,0:0:0:0:
256,192,59919,1,0,0:0:0:0:
256,192,60219,1,0,0:0:0:0:
256,192,60294,1,0,0:0:0:0:
256,192,60369,1,0,0:0:0:0:
256,192,60519,1,0,0:0:0:0:
256,192,60819,5,12,0:0:0:0:
256,192,60969,1,0,0:0:0:0:
256,192,61044,1,0,0:0:0:0:
256,192,61119,1,0,0:0:0:0:
256,192,61269,1,8,0:0:0:0:
256,192,61344,1,0,0:0:0:0:
256,192,61419,1,0,0:0:0:0:
256,192,61569,1,0,0:0:0:0:
256,192,61644,1,0,0:0:0:0:
256,192,61719,1,8,0:0:0:0:
256,192,61944,1,0,0:0:0:0:
256,192,62019,1,0,0:0:0:0:
256,192,62244,1,0,0:0:0:0:
256,192,62319,1,0,0:0:0:0:
256,192,62544,1,0,0:0:0:0:
256,192,62619,1,0,0:0:0:0:
256,192,62769,1,0,0:0:0:0:
256,192,62919,1,0,0:0:0:0:
256,192,63219,1,8,0:0:0:0:
256,192,63369,1,0,0:0:0:0:
256,192,63444,1,0,0:0:0:0:
256,192,63669,1,8,0:0:0:0:
256,192,63744,1,8,0:0:0:0:
256,192,63819,1,8,0:0:0:0:
256,192,63969,1,0,0:0:0:0:
256,192,64044,1,0,0:0:0:0:
256,192,64119,1,8,0:0:0:0:
256,192,64344,1,0,0:0:0:0:
256,192,64419,1,0,0:0:0:0:
256,192,64644,1,0,0:0:0:0:
256,192,64719,1,0,0:0:0:0:
256,192,64944,1,0,0:0:0:0:
256,192,65019,1,0,0:0:0:0:
256,192,65169,1,0,0:0:0:0:
256,192,65319,1,0,0:0:0:0:
256,192,65619,1,8,0:0:0:0:
256,192,65769,1,0,0:0:0:0:
256,192,65844,1,0,0:0:0:0:
256,192,65919,1,0,0:0:0:0:
256,192,66069,1,8,0:0:0:0:
256,192,66144,1,0,0:0:0:0:
256,192,66219,1,0,0:0:0:0:
256,192,66369,1,0,0:0:0:0:
256,192,66444,1,0,0:0:0:0:
256,192,66519,1,8,0:0:0:0:
256,192,66744,1,0,0:0:0:0:
256,192,66819,1,0,0:0:0:0:
256,192,67044,1,0,0:0:0:0:
256,192,67119,1,0,0:0:0:0:
256,192,67344,1,0,0:0:0:0:
256,192,67419,1,0,0:0:0:0:
256,192,67569,1,0,0:0:0:0:
256,192,67719,1,0,0:0:0:0:
256,192,68019,1,8,0:0:0:0:
256,192,68169,1,0,0:0:0:0:
256,192,68244,1,0,0:0:0:0:
256,192,68319,1,0,0:0:0:0:
256,192,68469,1,8,0:0:0:0:
256,192,68769,1,0,0:0:0:0:
256,192,68844,1,0,0:0:0:0:
256,192,68919,1,8,0:0:0:0:
256,192,69219,1,0,0:0:0:0:
256,192,69369,1,0,0:0:0:0:
256,192,69444,1,0,0:0:0:0:
256,192,69519,1,0,0:0:0:0:
256,192,69819,1,8,0:0:0:0:
256,192,69894,1,8,0:0:0:0:
256,192,69969,1,8,0:0:0:0:
256,192,70119,1,8,0:0:0:0:
256,192,70419,5,4,0:0:0:0:
256,192,70569,1,8,0:0:0:0:
256,192,70644,1,8,0:0:0:0:
256,192,70719,1,0,0:0:0:0:
256,192,70869,1,8,0:0:0:0:
256,192,71019,1,0,0:0:0:0:
256,192,71094,1,0,0:0:0:0:
256,192,71169,1,8,0:0:0:0:
256,192,71319,1,0,0:0:0:0:
256,192,71469,1,8,0:0:0:0:
256,192,71619,1,0,0:0:0:0:
256,192,71769,1,8,0:0:0:0:
256,192,71844,1,8,0:0:0:0:
256,192,71919,1,0,0:0:0:0:
256,192,72069,1,8,0:0:0:0:
256,192,72219,1,0,0:0:0:0:
256,192,72294,1,0,0:0:0:0:
256,192,72369,1,8,0:0:0:0:
256,192,72444,1,0,0:0:0:0:
256,192,72519,1,8,0:0:0:0:
256,192,72669,1,8,0:0:0:0:
256,192,72819,1,0,0:0:0:0:
256,192,72969,1,8,0:0:0:0:
256,192,73044,1,8,0:0:0:0:
256,192,73119,1,0,0:0:0:0:
256,192,73269,1,8,0:0:0:0:
256,192,73419,1,0,0:0:0:0:
256,192,73494,1,0,0:0:0:0:
256,192,73569,1,8,0:0:0:0:
256,192,73644,1,8,0:0:0:0:
256,192,73719,1,0,0:0:0:0:
256,192,73869,1,8,0:0:0:0:
256,192,74019,1,0,0:0:0:0:
256,192,74169,1,8,0:0:0:0:
256,192,74244,1,8,0:0:0:0:
256,192,74319,1,0,0:0:0:0:
256,192,74469,1,8,0:0:0:0:
256,192,74619,1,8,0:0:0:0:
256,192,74694,1,0,0:0:0:0:
256,192,74769,1,8,0:0:0:0:
256,192,74844,1,0,0:0:0:0:
256,192,74919,1,8,0:0:0:0:
256,192,74994,1,0,0:0:0:0:
256,192,75069,1,8,0:0:0:0:
256,192,75219,1,0,0:0:0:0:
256,192,75369,1,8,0:0:0:0:
256,192,75444,1,8,0:0:0:0:
256,192,75519,1,0,0:0:0:0:
256,192,75669,1,8,0:0:0:0:
256,192,75819,1,0,0:0:0:0:
256,192,75894,1,0,0:0:0:0:
256,192,75969,1,8,0:0:0:0:
256,192,76119,1,0,0:0:0:0:
256,192,76269,1,8,0:0:0:0:
256,192,76419,1,0,0:0:0:0:
256,192,76569,1,8,0:0:0:0:
256,192,76644,1,8,0:0:0:0:
256,192,76719,1,0,0:0:0:0:
256,192,76869,1,8,0:0:0:0:
256,192,77019,1,0,0:0:0:0:
256,192,77094,1,0,0:0:0:0:
256,192,77169,1,8,0:0:0:0:
256,192,77244,1,0,0:0:0:0:
256,192,77319,1,8,0:0:0:0:
256,192,77469,1,8,0:0:0:0:
256,192,77619,1,0,0:0:0:0:
256,192,77769,1,8,0:0:0:0:
256,192,77844,1,8,0:0:0:0:
256,192,77919,1,0,0:0:0:0:
256,192,78069,1,8,0:0:0:0:
256,192,78219,1,0,0:0:0:0:
256,192,78294,1,0,0:0:0:0:
256,192,78369,1,8,0:0:0:0:
256,192,78444,1,8,0:0:0:0:
256,192,78519,1,0,0:0:0:0:
256,192,78669,1,8,0:0:0:0:
256,192,78819,1,0,0:0:0:0:
256,192,78969,1,8,0:0:0:0:
256,192,79044,1,8,0:0:0:0:
256,192,79119,1,0,0:0:0:0:
256,192,79269,1,8,0:0:0:0:
256,192,79419,1,8,0:0:0:0:
256,192,79494,1,0,0:0:0:0:
256,192,79569,1,8,0:0:0:0:
256,192,79719,1,8,0:0:0:0:
256,192,80019,5,12,0:0:0:0:
256,192,80169,1,0,0:0:0:0:
256,192,80244,1,0,0:0:0:0:
256,192,80319,1,8,0:0:0:0:
256,192,80469,1,0,0:0:0:0:
256,192,80619,1,8,0:0:0:0:
256,192,80694,1,8,0:0:0:0:
256,192,80769,1,0,0:0:0:0:
256,192,80919,1,8,0:0:0:0:
256,192,81069,1,0,0:0:0:0:
256,192,81219,1,8,0:0:0:0:
256,192,81369,1,0,0:0:0:0:
256,192,81444,1,0,0:0:0:0:
256,192,81519,1,8,0:0:0:0:
256,192,81669,1,0,0:0:0:0:
256,192,81819,1,8,0:0:0:0:
256,192,81894,1,0,0:0:0:0:
256,192,81969,1,0,0:0:0:0:
256,192,82044,1,0,0:0:0:0:
256,192,82119,1,8,0:0:0:0:
256,192,82269,1,8,0:0:0:0:
256,192,82419,1,8,0:0:0:0:
256,192,82569,1,0,0:0:0:0:
256,192,82644,1,0,0:0:0:0:
256,192,82719,1,8,0:0:0:0:
256,192,82869,1,0,0:0:0:0:
256,192,83019,1,8,0:0:0:0:
256,192,83094,1,8,0:0:0:0:
256,192,83169,1,0,0:0:0:0:
256,192,83244,1,0,0:0:0:0:
256,192,83319,1,8,0:0:0:0:
256,192,83469,1,0,0:0:0:0:
256,192,83619,1,8,0:0:0:0:
256,192,83769,1,0,0:0:0:0:
256,192,83844,1,0,0:0:0:0:
256,192,83919,1,8,0:0:0:0:
256,192,84069,1,0,0:0:0:0:
256,192,84219,1,8,0:0:0:0:
256,192,84294,1,0,0:0:0:0:
256,192,84369,1,8,0:0:0:0:
256,192,84444,1,0,0:0:0:0:
256,192,84519,1,8,0:0:0:0:
256,192,84594,1,0,0:0:0:0:
256,192,84669,1,8,0:0:0:0:
256,192,84819,5,12,0:0:0:0:
256,192,84969,1,0,0:0:0:0:
256,192,85044,1,0,0:0:0:0:
256,192,85119,1,8,0:0:0:0:
256,192,85269,1,0,0:0:0:0:
256,192,85419,1,8,0:0:0:0:
256,192,85494,1,8,0:0:0:0:
256,192,85569,1,0,0:0:0:0:
256,192,85719,1,8,0:0:0:0:
256,192,85869,1,0,0:0:0:0:
256,192,86019,5,12,0:0:0:0:
256,192,86169,1,0,0:0:0:0:
256,192,86244,1,0,0:0:0:0:
256,192,86319,1,8,0:0:0:0:
256,192,86469,1,0,0:0:0:0:
256,192,86619,1,8,0:0:0:0:
256,192,86694,1,8,0:0:0:0:
256,192,86769,1,0,0:0:0:0:
256,192,86919,1,8,0:0:0:0:
256,192,87069,1,0,0:0:0:0:
256,192,87219,5,12,0:0:0:0:
256,192,87369,1,0,0:0:0:0:
256,192,87444,1,0,0:0:0:0:
256,192,87519,1,8,0:0:0:0:
256,192,87669,1,0,0:0:0:0:
256,192,87819,5,12,0:0:0:0:
256,192,87969,1,0,0:0:0:0:
256,192,88044,1,0,0:0:0:0:
256,192,88119,1,8,0:0:0:0:
256,192,88269,1,0,0:0:0:0:
256,192,88419,5,12,0:0:0:0:
256,192,88719,5,12,0:0:0:0:
256,192,89019,5,12,0:0:0:0:
256,192,89319,5,12,0:0:0:0:
256,192,89619,5,8,0:0:0:0:
256,192,89694,1,8,0:0:0:0:
256,192,89769,1,8,0:0:0:0:
256,192,89844,1,8,0:0:0:0:
256,192,89919,1,0,0:0:0:0:
256,192,89994,1,0,0:0:0:0:
256,192,90069,1,0,0:0:0:0:
256,192,90144,1,0,0:0:0:0:
256,192,90219,1,8,0:0:0:0:
256,192,90294,1,8,0:0:0:0:
256,192,90369,1,8,0:0:0:0:
256,192,90444,1,8,0:0:0:0:
256,192,90519,1,0,0:0:0:0:
256,192,90819,5,12,0:0:0:0:
256,192,91019,5,12,0:0:0:0:
256,192,91219,5,12,0:0:0:0:
256,192,91419,5,12,0:0:0:0:
256,192,92019,5,12,0:0:0:0:
256,192,92319,1,8,0:0:0:0:
256,192,92469,1,0,0:0:0:0:
256,192,92769,1,0,0:0:0:0:
256,192,92919,1,8,0:0:0:0:
256,192,93219,1,8,0:0:0:0:
256,192,93369,1,0,0:0:0:0:
256,192,93819,1,8,0:0:0:0:
256,192,93931,1,0,0:0:0:0:
256,192,94044,1,8,0:0:0:0:
256,192,94156,1,8,0:0:0:0:
256,192,94269,1,0,0:0:0:0:
256,192,94381,1,8,0:0:0:0:
256,192,94494,1,8,0:0:0:0:
256,192,94606,1,0,0:0:0:0:
256,192,94719,1,8,0:0:0:0:
256,192,95019,1,8,0:0:0:0:
256,192,95169,1,0,0:0:0:0:
256,192,95619,1,8,0:0:0:0:
256,192,95919,1,8,0:0:0:0:
256,192,96069,1,0,0:0:0:0:
256,192,96369,1,0,0:0:0:0:
256,192,96519,1,8,0:0:0:0:
256,192,96819,1,8,0:0:0:0:
256,192,96969,1,0,0:0:0:0:
256,192,97419,1,8,0:0:0:0:
256,192,97531,1,0,0:0:0:0:
256,192,97644,1,8,0:0:0:0:
256,192,97756,1,0,0:0:0:0:
256,192,97869,1,0,0:0:0:0:
256,192,97981,1,0,0:0:0:0:
256,192,98094,1,8,0:0:0:0:
256,192,98206,1,0,0:0:0:0:
256,192,98319,1,8,0:0:0:0:
256,192,98619,1,0,0:0:0:0:
256,192,98769,1,8,0:0:0:0:
256,192,98919,1,8,0:0:0:0:
256,192,99069,1,8,0:0:0:0:
256,192,99219,5,4,0:0:0:0:
256,192,99519,1,0,0:0:0:0:
256,192,99669,1,8,0:0:0:0:
256,192,100119,1,0,0:0:0:0:
256,192,100269,1,0,0:0:0:0:
256,192,100419,1,0,0:0:0:0:
256,192,100569,1,8,0:0:0:0:
256,192,101019,1,8,0:0:0:0:
256,192,101131,1,0,0:0:0:0:
256,192,101244,1,8,0:0:0:0:
256,192,101356,1,8,0:0:0:0:
256,192,101469,1,0,0:0:0:0:
256,192,101581,1,8,0:0:0:0:
256,192,101694,1,8,0:0:0:0:
256,192,101806,1,0,0:0:0:0:
256,192,101919,1,8,0:0:0:0:
256,192,102219,1,0,0:0:0:0:
256,192,102369,1,8,0:0:0:0:
256,192,102819,1,0,0:0:0:0:
256,192,103119,1,0,0:0:0:0:
256,192,103269,1,8,0:0:0:0:
256,192,103719,1,0,0:0:0:0:
256,192,103869,1,0,0:0:0:0:
256,192,104019,1,0,0:0:0:0:
256,192,104169,1,8,0:0:0:0:
256,192,104619,5,4,0:0:0:0:
256,192,106419,5,4,0:0:0:0:
256,192,106569,1,8,0:0:0:0:
256,192,106644,1,8,0:0:0:0:
256,192,106719,1,0,0:0:0:0:
256,192,106869,1,0,0:0:0:0:
256,192,107019,1,8,0:0:0:0:
256,192,107169,1,0,0:0:0:0:
256,192,107244,1,0,0:0:0:0:
256,192,107319,1,0,0:0:0:0:
256,192,107469,1,8,0:0:0:0:
256,192,107619,1,0,0:0:0:0:
256,192,107769,1,8,0:0:0:0:
256,192,107844,1,8,0:0:0:0:
256,192,107919,1,0,0:0:0:0:
256,192,108069,1,0,0:0:0:0:
256,192,108219,1,8,0:0:0:0:
256,192,108294,1,8,0:0:0:0:
256,192,108369,1,8,0:0:0:0:
256,192,108444,1,8,0:0:0:0:
256,192,108519,1,0,0:0:0:0:
256,192,108669,1,0,0:0:0:0:
256,192,108819,5,12,0:0:0:0:
256,192,108969,1,0,0:0:0:0:
256,192,109044,1,8,0:0:0:0:
256,192,109119,1,0,0:0:0:0:
256,192,109269,1,0,0:0:0:0:
256,192,109344,1,0,0:0:0:0:
256,192,109419,1,8,0:0:0:0:
256,192,109569,1,8,0:0:0:0:
256,192,109644,1,8,0:0:0:0:
256,192,109719,1,0,0:0:0:0:
256,192,109869,1,0,0:0:0:0:
256,192,110019,5,12,0:0:0:0:
256,192,110169,1,0,0:0:0:0:
256,192,110244,1,8,0:0:0:0:
256,192,110319,1,0,0:0:0:0:
256,192,110469,1,0,0:0:0:0:
256,192,110544,1,0,0:0:0:0:
256,192,110619,1,8,0:0:0:0:
256,192,110769,1,8,0:0:0:0:
256,192,110844,1,8,0:0:0:0:
256,192,110919,1,0,0:0:0:0:
256,192,111069,1,0,0:0:0:0:
256,192,111219,5,12,0:0:0:0:
256,192,111369,1,0,0:0:0:0:
256,192,111519,1,8,0:0:0:0:
256,192,111669,1,0,0:0:0:0:
256,192,111819,5,12,0:0:0:0:
256,192,111969,1,0,0:0:0:0:
256,192,112119,1,8,0:0:0:0:
256,192,112269,1,0,0:0:0:0:
256,192,112419,5,12,0:0:0:0:
256,192,112569,1,0,0:0:0:0:
256,192,112719,1,8,0:0:0:0:
256,192,112869,1,0,0:0:0:0:
256,192,113019,5,12,0:0:0:0:
256,192,113169,1,0,0:0:0:0:
256,192,113319,1,8,0:0:0:0:
256,192,113469,1,0,0:0:0:0:
256,192,113619,1,8,0:0:0:0:
256,192,113694,1,0,0:0:0:0:
256,192,113769,1,0,0:0:0:0:
256,192,113844,1,0,0:0:0:0:
256,192,113919,1,8,0:0:0:0:
256,192,113994,1,0,0:0:0:0:
256,192,114069,1,0,0:0:0:0:
256,192,114144,1,0,0:0:0:0:
256,192,114219,1,8,0:0:0:0:
256,192,114294,1,0,0:0:0:0:
256,192,114369,1,0,0:0:0:0:
256,192,114444,1,0,0:0:0:0:
256,192,114519,1,8,0:0:0:0:
256,192,114594,1,0,0:0:0:0:
256,192,114669,1,0,0:0:0:0:
256,192,114744,1,0,0:0:0:0:
256,192,114819,1,8,0:0:0:0:
256,192,114894,1,8,0:0:0:0:
256,192,114969,1,8,0:0:0:0:
256,192,115044,1,8,0:0:0:0:
256,192,115119,1,0,0:0:0:0:
256,192,115194,1,0,0:0:0:0:
256,192,115269,1,0,0:0:0:0:
256,192,115344,1,0,0:0:0:0:
256,192,115419,1,8,0:0:0:0:
256,192,115494,1,8,0:0:0:0:
256,192,115569,1,8,0:0:0:0:
256,192,115644,1,8,0:0:0:0:
256,192,115719,1,0,0:0:0:0:
256,192,115794,1,0,0:0:0:0:
256,192,115869,1,0,0:0:0:0:
256,192,115944,1,0,0:0:0:0:
256,192,116019,1,8,0:0:0:0:
256,192,116119,1,0,0:0:0:0:
256,192,116219,1,8,0:0:0:0:
256,192,116319,1,0,0:0:0:0:
256,192,116419,1,8,0:0:0:0:
256,192,116519,1,0,0:0:0:0:
256,192,116619,1,8,0:0:0:0:
256,192,116719,1,0,0:0:0:0:
256,192,116819,1,8,0:0:0:0:
256,192,116919,1,0,0:0:0:0:
256,192,117219,5,12,0:0:0:0:
