osu file format v13

[General]
AudioFilename: Rouen Shitstorm.mp3
AudioLeadIn: 0
PreviewTime: 216
Countdown: 0
SampleSet: Normal
StackLeniency: 0.7
Mode: 1
LetterboxInBreaks: 0
WidescreenStoryboard: 0

[Editor]
Bookmarks: 814,12814,22414,32014,36814,41614,46414,51214,60814,70414,80014,84814,89614,92014,99214,106414,117214
DistanceSpacing: 0.5
BeatDivisor: 2
GridSize: 32
TimelineZoom: 2.100002

[Metadata]
Title:Rouen Shitstorm
TitleUnicode:Rouen Shitstorm
Artist:Kurokotei
ArtistUnicode:黒皇帝
Creator:Kurosanyan
Version:Futsuu
Source:
Tags:dialgadu77 Sayaka- Rotter Tarmination agu
BeatmapID:559074
BeatmapSetID:241702

[Difficulty]
HPDrainRate:4.5
CircleSize:5
OverallDifficulty:3.5
ApproachRate:5
SliderMultiplier:1.2
SliderTickRate:1

[Events]
//Background and Video events
0,0,"dialgapls.jpg",0,-50
//Break Periods
//Storyboard Layer 0 (Background)
//Storyboard Layer 1 (Fail)
//Storyboard Layer 2 (Pass)
//Storyboard Layer 3 (Foreground)
//Storyboard Sound Samples
//Background Colour Transformations
3,100,163,162,255

[TimingPoints]
819,300,4,1,0,80,1,0
92019,300,3,1,0,80,1,1
104619,-100,3,1,0,80,0,0
106419,300,4,1,0,80,1,0

[HitObjects]
256,192,819,5,4,0:0:0:0:
256,192,1119,1,8,0:0:0:0:
256,192,1269,1,0,0:0:0:0:
256,192,1419,1,8,0:0:0:0:
256,192,1719,1,0,0:0:0:0:
256,192,2019,1,0,0:0:0:0:
256,192,2319,1,8,0:0:0:0:
256,192,2469,1,8,0:0:0:0:
256,192,2619,1,0,0:0:0:0:
256,192,3219,1,0,0:0:0:0:
256,192,3519,1,8,0:0:0:0:
256,192,3669,1,0,0:0:0:0:
256,192,3819,1,8,0:0:0:0:
256,192,4119,1,0,0:0:0:0:
256,192,4419,1,0,0:0:0:0:
256,192,4719,1,8,0:0:0:0:
256,192,5319,1,8,0:0:0:0:
256,192,5619,1,0,0:0:0:0:
256,192,5919,1,8,0:0:0:0:
256,192,6069,1,0,0:0:0:0:
256,192,6219,1,8,0:0:0:0:
256,192,6519,1,0,0:0:0:0:
256,192,6819,1,0,0:0:0:0:
256,192,7119,1,8,0:0:0:0:
256,192,7269,1,8,0:0:0:0:
256,192,7419,1,0,0:0:0:0:
256,192,8019,1,0,0:0:0:0:
256,192,8319,1,8,0:0:0:0:
256,192,8469,1,0,0:0:0:0:
256,192,8619,1,8,0:0:0:0:
256,192,8919,1,0,0:0:0:0:
256,192,9219,1,8,0:0:0:0:
256,192,9669,1,8,0:0:0:0:
256,192,10119,1,8,0:0:0:0:
256,192,10419,1,0,0:0:0:0:
256,192,11019,1,0,0:0:0:0:
256,192,11619,1,0,0:0:0:0:
256,192,11919,1,0,0:0:0:0:
256,192,12219,1,0,0:0:0:0:
256,192,12519,1,8,0:0:0:0:
256,192,12819,5,4,0:0:0:0:
256,192,13419,1,0,0:0:0:0:
256,192,13719,1,0,0:0:0:0:
256,192,13869,1,8,0:0:0:0:
256,192,14319,1,0,0:0:0:0:
256,192,14469,1,0,0:0:0:0:
256,192,14619,1,8,0:0:0:0:
256,192,14919,1,8,0:0:0:0:
256,192,15219,1,0,0:0:0:0:
256,192,15819,1,0,0:0:0:0:
256,192,16119,1,0,0:0:0:0:
256,192,16269,1,8,0:0:0:0:
256,192,16719,5,12,0:0:0:0:
256,192,17019,5,12,0:0:0:0:
256,192,17319,5,12,0:0:0:0:
256,192,17619,1,0,0:0:0:0:
256,192,18219,1,0,0:0:0:0:
256,192,18519,1,0,0:0:0:0:
256,192,18669,1,8,0:0:0:0:
256,192,19119,1,0,0:0:0:0:
256,192,19269,1,0,0:0:0:0:
256,192,19419,1,8,0:0:0:0:
256,192,19719,1,8,0:0:0:0:
256,192,20019,1,0,0:0:0:0:
256,192,20619,1,0,0:0:0:0:
256,192,20919,1,0,0:0:0:0:
256,192,21069,1,8,0:0:0:0:
256,192,21519,5,12,0:0:0:0:
256,192,21819,5,12,0:0:0:0:
256,192,22119,5,12,0:0:0:0:
256,192,22419,5,4,0:0:0:0:
256,192,23019,1,0,0:0:0:0:
256,192,23319,1,8,0:0:0:0:
256,192,23469,1,8,0:0:0:0:
256,192,23919,1,8,0:0:0:0:
256,192,24069,1,0,0:0:0:0:
256,192,24219,1,8,0:0:0:0:
256,192,24519,1,8,0:0:0:0:
256,192,24819,1,0,0:0:0:0:
256,192,25419,1,0,0:0:0:0:
256,192,25719,1,8,0:0:0:0:
256,192,25869,1,8,0:0:0:0:
256,192,26319,5,12,0:0:0:0:
256,192,26619,5,12,0:0:0:0:
256,192,26919,5,12,0:0:0:0:
256,192,27219,1,0,0:0:0:0:
256,192,27819,1,0,0:0:0:0:
256,192,28119,1,8,0:0:0:0:
256,192,28269,1,8,0:0:0:0:
256,192,28719,1,8,0:0:0:0:
256,192,28869,1,0,0:0:0:0:
256,192,29019,1,8,0:0:0:0:
256,192,29319,1,8,0:0:0:0:
256,192,29619,1,0,0:0:0:0:
256,192,30219,1,0,0:0:0:0:
256,192,30519,1,8,0:0:0:0:
256,192,30669,1,8,0:0:0:0:
256,192,31119,5,12,0:0:0:0:
256,192,31419,5,12,0:0:0:0:
256,192,31719,5,12,0:0:0:0:
256,192,32019,5,4,0:0:0:0:
256,192,32319,1,0,0:0:0:0:
256,192,32469,1,8,0:0:0:0:
256,192,32619,1,0,0:0:0:0:
256,192,32919,1,0,0:0:0:0:
256,192,33219,1,0,0:0:0:0:
256,192,33519,1,8,0:0:0:0:
256,192,33669,1,8,0:0:0:0:
256,192,33819,1,0,0:0:0:0:
256,192,34119,1,0,0:0:0:0:
256,192,34419,1,0,0:0:0:0:
256,192,34719,1,0,0:0:0:0:
256,192,34869,1,8,0:0:0:0:
256,192,35019,1,0,0:0:0:0:
256,192,35319,1,0,0:0:0:0:
256,192,35619,1,0,0:0:0:0:
256,192,35919,1,8,0:0:0:0:
256,192,36069,1,8,0:0:0:0:
256,192,36219,1,0,0:0:0:0:
256,192,36819,5,4,0:0:0:0:
256,192,37119,1,0,0:0:0:0:
256,192,37269,1,8,0:0:0:0:
256,192,37419,1,0,0:0:0:0:
256,192,37719,1,0,0:0:0:0:
256,192,38019,1,0,0:0:0:0:
256,192,38319,1,0,0:0:0:0:
256,192,38469,1,0,0:0:0:0:
256,192,38619,1,8,0:0:0:0:
256,192,38919,1,0,0:0:0:0:
256,192,39219,1,0,0:0:0:0:
256,192,39519,1,0,0:0:0:0:
256,192,39669,1,8,0:0:0:0:
256,192,39819,1,0,0:0:0:0:
256,192,40119,1,0,0:0:0:0:
256,192,40419,1,0,0:0:0:0:
256,192,41019,1,0,0:0:0:0:
256,192,41619,5,12,0:0:0:0:
256,192,41919,1,8,0:0:0:0:
256,192,42219,1,8,0:0:0:0:
256,192,42519,1,8,0:0:0:0:
256,192,42669,1,0,0:0:0:0:
256,192,42819,1,8,0:0:0:0:
256,192,43119,1,8,0:0:0:0:
256,192,43269,1,0,0:0:0:0:
256,192,43569,1,0,0:0:0:0:
256,192,43719,1,8,0:0:0:0:
256,192,44019,1,8,0:0:0:0:
256,192,44319,1,8,0:0:0:0:
256,192,44619,1,8,0:0:0:0:
256,192,44919,1,8,0:0:0:0:
256,192,45069,1,0,0:0:0:0:
256,192,45219,1,8,0:0:0:0:
256,192,45519,1,8,0:0:0:0:
256,192,45669,1,8,0:0:0:0:
256,192,45969,1,8,0:0:0:0:
256,192,46119,1,8,0:0:0:0:
256,192,46419,5,12,0:0:0:0:
256,192,47619,5,12,0:0:0:0:
256,192,48819,5,12,0:0:0:0:
256,192,49419,5,12,0:0:0:0:
256,192,50019,5,12,0:0:0:0:
256,192,50319,5,12,0:0:0:0:
256,192,50619,5,12,0:0:0:0:
256,192,50919,5,12,0:0:0:0:
256,192,51219,1,8,0:0:0:0:
256,192,51669,1,8,0:0:0:0:
256,192,52119,1,8,0:0:0:0:
256,192,52419,1,0,0:0:0:0:
256,192,52719,1,0,0:0:0:0:
256,192,53019,1,0,0:0:0:0:
256,192,53319,1,0,0:0:0:0:
256,192,53619,1,8,0:0:0:0:
256,192,54069,1,8,0:0:0:0:
256,192,54519,1,8,0:0:0:0:
256,192,54819,1,0,0:0:0:0:
256,192,55119,1,0,0:0:0:0:
256,192,55419,1,0,0:0:0:0:
256,192,56019,1,8,0:0:0:0:
256,192,56469,1,8,0:0:0:0:
256,192,56919,1,8,0:0:0:0:
256,192,57219,1,0,0:0:0:0:
256,192,57519,1,0,0:0:0:0:
256,192,57819,1,0,0:0:0:0:
256,192,58119,1,0,0:0:0:0:
256,192,58419,1,8,0:0:0:0:
256,192,58869,1,8,0:0:0:0:
256,192,59319,1,8,0:0:0:0:
256,192,59619,1,0,0:0:0:0:
256,192,59919,1,0,0:0:0:0:
256,192,60219,1,0,0:0:0:0:
256,192,60819,1,8,0:0:0:0:
256,192,60969,1,0,0:0:0:0:
256,192,61269,1,8,0:0:0:0:
256,192,61569,1,0,0:0:0:0:
256,192,61719,1,8,0:0:0:0:
256,192,62019,1,0,0:0:0:0:
256,192,62319,1,0,0:0:0:0:
256,192,62619,1,0,0:0:0:0:
256,192,62769,1,0,0:0:0:0:
256,192,62919,1,0,0:0:0:0:
256,192,63219,1,8,0:0:0:0:
256,192,63369,1,0,0:0:0:0:
256,192,63669,1,8,0:0:0:0:
256,192,63969,1,0,0:0:0:0:
256,192,64119,1,8,0:0:0:0:
256,192,64419,1,0,0:0:0:0:
256,192,64719,1,0,0:0:0:0:
256,192,65019,1,0,0:0:0:0:
256,192,65619,1,8,0:0:0:0:
256,192,65769,1,0,0:0:0:0:
256,192,66069,1,8,0:0:0:0:
256,192,66369,1,0,0:0:0:0:
256,192,66519,1,8,0:0:0:0:
256,192,66819,1,0,0:0:0:0:
256,192,67119,1,0,0:0:0:0:
256,192,67419,1,0,0:0:0:0:
256,192,67569,1,0,0:0:0:0:
256,192,67719,1,0,0:0:0:0:
256,192,68019,1,8,0:0:0:0:
256,192,68169,1,0,0:0:0:0:
256,192,68469,1,8,0:0:0:0:
256,192,68769,1,0,0:0:0:0:
256,192,68919,1,8,0:0:0:0:
256,192,69219,1,0,0:0:0:0:
256,192,69519,1,0,0:0:0:0:
256,192,69819,1,8,0:0:0:0:
256,192,70419,5,4,0:0:0:0:
256,192,70719,1,0,0:0:0:0:
256,192,70869,1,8,0:0:0:0:
256,192,71169,1,8,0:0:0:0:
256,192,71469,1,8,0:0:0:0:
256,192,71769,1,8,0:0:0:0:
256,192,72069,1,8,0:0:0:0:
256,192,72369,1,8,0:0:0:0:
256,192,72519,1,8,0:0:0:0:
256,192,72819,1,0,0:0:0:0:
256,192,73119,1,0,0:0:0:0:
256,192,73269,1,8,0:0:0:0:
256,192,73569,1,8,0:0:0:0:
256,192,73869,1,8,0:0:0:0:
256,192,74169,1,8,0:0:0:0:
256,192,74469,1,0,0:0:0:0:
256,192,74619,1,0,0:0:0:0:
256,192,75219,1,0,0:0:0:0:
256,192,75519,1,0,0:0:0:0:
256,192,75669,1,8,0:0:0:0:
256,192,75969,1,8,0:0:0:0:
256,192,76269,1,8,0:0:0:0:
256,192,76569,1,8,0:0:0:0:
256,192,76869,1,8,0:0:0:0:
256,192,77169,1,8,0:0:0:0:
256,192,77319,1,8,0:0:0:0:
256,192,77619,1,0,0:0:0:0:
256,192,77919,1,0,0:0:0:0:
256,192,78069,1,8,0:0:0:0:
256,192,78369,1,8,0:0:0:0:
256,192,78669,1,8,0:0:0:0:
256,192,78969,1,8,0:0:0:0:
256,192,79419,1,0,0:0:0:0:
256,192,80019,5,12,0:0:0:0:
256,192,80319,1,8,0:0:0:0:
256,192,80619,1,8,0:0:0:0:
256,192,80919,1,8,0:0:0:0:
256,192,81219,1,8,0:0:0:0:
256,192,81519,1,8,0:0:0:0:
256,192,81819,1,8,0:0:0:0:
256,192,81969,1,8,0:0:0:0:
256,192,82119,1,8,0:0:0:0:
256,192,82419,1,8,0:0:0:0:
256,192,82719,1,8,0:0:0:0:
256,192,83019,1,8,0:0:0:0:
256,192,83319,1,8,0:0:0:0:
256,192,83619,1,8,0:0:0:0:
256,192,84219,1,8,0:0:0:0:
256,192,84819,5,12,0:0:0:0:
256,192,86019,5,12,0:0:0:0:
256,192,87219,5,12,0:0:0:0:
256,192,87819,5,12,0:0:0:0:
256,192,88419,5,12,0:0:0:0:
256,192,88719,5,12,0:0:0:0:
256,192,89019,5,12,0:0:0:0:
256,192,89319,5,12,0:0:0:0:
256,192,89619,6,4,B|79:72|79:72|224:128,1,360
256,192,90819,12,0,91719,0:0:0:0:
256,192,92019,5,12,0:0:0:0:
256,192,92919,1,8,0:0:0:0:
256,192,93819,1,8,0:0:0:0:
256,192,94119,1,8,0:0:0:0:
256,192,94269,1,0,0:0:0:0:
256,192,94569,1,0,0:0:0:0:
256,192,94719,1,8,0:0:0:0:
256,192,95169,1,0,0:0:0:0:
256,192,95619,1,8,0:0:0:0:
256,192,96519,1,8,0:0:0:0:
256,192,97419,1,8,0:0:0:0:
256,192,97719,1,0,0:0:0:0:
256,192,97869,1,8,0:0:0:0:
256,192,98169,1,0,0:0:0:0:
256,192,98319,1,8,0:0:0:0:
256,192,98769,1,8,0:0:0:0:
256,192,99219,5,4,0:0:0:0:
256,192,99669,1,8,0:0:0:0:
256,192,100119,1,0,0:0:0:0:
256,192,100419,1,0,0:0:0:0:
256,192,100569,1,8,0:0:0:0:
256,192,101019,1,8,0:0:0:0:
256,192,101319,1,8,0:0:0:0:
256,192,101469,1,0,0:0:0:0:
256,192,101769,1,0,0:0:0:0:
256,192,101919,1,8,0:0:0:0:
256,192,102369,1,8,0:0:0:0:
256,192,102819,1,0,0:0:0:0:
256,192,103269,1,8,0:0:0:0:
256,192,103719,1,0,0:0:0:0:
256,192,104019,1,0,0:0:0:0:
256,192,104169,1,8,0:0:0:0:
256,192,104619,5,4,0:0:0:0:
256,192,106419,5,4,0:0:0:0:
256,192,106719,1,8,0:0:0:0:
256,192,107019,1,8,0:0:0:0:
256,192,107319,1,0,0:0:0:0:
256,192,107469,1,8,0:0:0:0:
256,192,107919,1,8,0:0:0:0:
256,192,108219,1,8,0:0:0:0:
256,192,108519,1,0,0:0:0:0:
256,192,108819,5,12,0:0:0:0:
256,192,110019,5,12,0:0:0:0:
256,192,111219,5,12,0:0:0:0:
256,192,111819,5,12,0:0:0:0:
256,192,112419,5,12,0:0:0:0:
256,192,113019,5,12,0:0:0:0:
256,192,113619,5,12,0:0:0:0:
256,192,113919,5,12,0:0:0:0:
256,192,114219,5,12,0:0:0:0:
256,192,114519,5,12,0:0:0:0:
256,192,114819,12,0,116919,0:0:0:0:
256,192,117219,5,12,0:0:0:0:
