osu file format v14

[General]
AudioFilename: Kuroki Meisa - Wired Life ~TV size~.mp3
AudioLeadIn: 2000
PreviewTime: 37460
Countdown: 0
SampleSet: Soft
StackLeniency: 0.3
Mode: 0
LetterboxInBreaks: 0
WidescreenStoryboard: 0

[Editor]
Bookmarks: 13788,15663,31835,32538
DistanceSpacing: 0.8
BeatDivisor: 4
GridSize: 4
TimelineZoom: 1

[Metadata]
Title:Wired Life (TV size)
TitleUnicode:Wired Life (TV size)
Artist:Kuroki Meisa
ArtistUnicode:黒木メイサ
Creator:Yuthuil
Version:Normal
Source:青の祓魔師
Tags:Satsuki Shimabukuro 島袋 さつき 青のエクソシスト ending ed blue yukio rin okumura ao no exorcist
BeatmapID:535622
BeatmapSetID:230237

[Difficulty]
HPDrainRate:3
CircleSize:3
OverallDifficulty:3
ApproachRate:4
SliderMultiplier:1.2
SliderTickRate:2

[Events]
//Background and Video events
Video,-210,"Kuroki meisa - wired life (tv size).avi"
0,0,"BG ALL.JPG.jpg",0,0
//Break Periods
//Storyboard Layer 0 (Background)
//Storyboard Layer 1 (Fail)
//Storyboard Layer 2 (Pass)
//Storyboard Layer 3 (Foreground)
//Storyboard Sound Samples

[TimingPoints]
7695,468.75,4,1,1,30,1,0
8163,-100,4,2,1,50,0,0
37695,-100,4,1,1,60,0,1
41913,-100,4,1,2,60,0,1
42851,-100,4,1,1,60,0,1
49882,-100,4,1,2,60,0,1
50351,-100,4,1,1,60,0,1
51757,-100,4,1,2,60,0,1
52695,-100,4,2,1,60,0,0
59257,-100,4,2,2,60,0,0
59491,-100,4,2,1,60,0,0
74257,-100,4,2,2,60,0,0
74491,-100,4,2,1,60,0,0
82695,-100,4,2,1,80,0,0
83163,-100,4,2,1,20,0,0

[Colours]
Combo1 : 128,128,255
Combo2 : 128,255,255
Combo3 : 0,128,255

[HitObjects]
256,192,7695,5,2,0:0:0:0:
332,136,8163,1,0,0:0:0:0:
336,232,8632,2,0,P|340:290|304:337,1,120,0|10,0:0|0:0,0:0:0:0:
207,335,9570,6,0,P|172:289|175:230,2,120
300,364,10976,1,10,0:0:0:0:
392,340,11445,2,0,L|472:240,1,120
504,160,12382,2,0,P|512:116|508:92,2,60,0|0|10,0:0|0:0|0:0,0:0:0:0:
412,184,13320,5,0,0:0:0:0:
320,156,13788,2,0,P|264:140|200:160,2,120,0|0|10,0:0|0:0|0:0,0:0:0:0:
356,244,15195,5,0,0:0:0:0:
312,332,15663,2,0,P|256:348|192:328,1,120
116,284,16601,6,0,P|84:264|52:260,2,60,10|0|0,0:0|0:0|0:0,0:0:0:0:
200,332,17538,2,0,P|240:286|238:222,2,120,0|0|10,0:0|0:0|0:0,0:0:0:0:
148,252,18945,5,0,0:0:0:0:
152,156,19413,2,0,L|208:44,1,120
256,132,20351,1,10,0:0:0:0:
308,52,20820,6,0,L|362:160,1,120
404,184,21523,1,0,0:0:0:0:
452,196,21757,2,0,B|460:224|448:248|448:248|452:280|452:280|436:300|436:300|436:340|400:352,1,180,0|8,0:0|0:0,0:0:0:0:
352,364,22695,5,6,0:0:0:0:
264,332,23163,2,0,P|200:332|156:296,1,120,8|0,0:0|0:0,0:0:0:0:
120,212,24101,1,8,0:0:0:0:
160,124,24570,6,0,P|224:124|268:160,1,120,0|8,0:0|0:0,0:0:0:0:
280,204,25273,1,0,0:0:0:0:
292,252,25507,2,0,P|340:296|404:288,1,120,0|8,0:0|0:0,0:0:0:0:
484,264,26445,6,0,B|500:232|484:208|484:208|488:188|488:188|468:164|484:132,1,120,0|8,0:0|0:0,0:0:0:0:
488,56,27382,1,0,0:0:0:0:
396,88,27851,6,0,P|352:96|268:84,1,120,8|0,0:0|0:0,0:0:0:0:
184,64,28788,2,0,L|172:128,1,60,8|0,0:0|0:0,0:0:0:0:
184,172,29257,2,0,P|200:232|176:304,1,120,0|8,0:0|0:0,0:0:0:0:
160,380,30195,6,0,P|204:344|264:344,1,120,0|8,0:0|0:0,0:0:0:0:
312,352,30898,2,0,P|368:324|376:268,1,120
372,224,31601,1,8,0:0:0:0:
336,192,31835,6,0,L|148:180,1,180,0|8,0:0|0:0,0:0:0:0:
112,200,32773,2,0,B|80:252|80:252|80:328,1,120
112,348,33476,1,8,0:0:0:0:
208,343,33945,6,0,P|243:297|300:281,1,120,0|8,0:0|0:0,0:0:0:0:
348,272,34648,2,0,P|380:200|324:116,1,180,0|8,0:0|0:0,0:0:0:0:
288,96,35585,1,0,0:0:0:0:
232,172,36054,5,0,0:0:0:0:
256,264,36523,1,0,0:0:0:0:
344,304,36991,2,0,L|372:288|396:260,1,60
400,220,37460,1,0,0:0:0:0:
404,172,37695,6,8,P|400:120|336:76,1,120,12|8,0:0|0:0,0:0:0:0:
256,60,38632,1,8,0:0:0:0:
180,120,39101,6,8,P|228:152|296:148,1,120
372,100,40038,2,8,P|388:156|356:220,1,120
304,276,40976,6,8,P|248:300|188:288,1,120
152,260,41679,2,0,P|140:202|96:162,2,120
184,304,42851,1,8,0:0:0:0:
256,244,43320,6,0,L|320:208,1,60,8|0,0:0|0:0,0:0:0:0:
320,168,43788,2,8,P|332:104|324:44,2,120,8|8|8,0:0|0:0|0:0,0:0:0:0:
332,268,45195,5,8,0:0:0:0:
424,240,45663,2,8,P|468:200|476:132,1,120
460,52,46601,1,8,0:0:0:0:
368,84,47070,6,8,L|300:192,1,120
256,268,48007,1,8,0:0:0:0:
207,185,48476,6,8,L|144:84,1,120
52,52,49413,1,8,0:0:0:0:
40,100,49648,2,0,P|20:152|28:228,1,120
36,264,50351,1,8,0:0:0:0:
128,296,50820,6,0,P|160:308|196:308,2,60,8|0|8,0:0|0:0|0:0,0:0:0:0:
120,248,51523,2,0,P|128:184|160:120,2,120
128,296,52695,5,12,0:0:0:0:
228,308,53163,1,8,0:0:0:0:
316,268,53632,2,0,P|272:220|216:212,1,120
172,220,54335,1,0,0:0:0:0:
144,260,54570,5,8,0:0:0:0:
228,308,55038,1,8,0:0:0:0:
324,324,55507,2,0,P|320:264|276:220,1,120
232,212,56210,1,0,0:0:0:0:
184,224,56445,5,8,0:0:0:0:
228,308,56913,1,8,0:0:0:0:
324,324,57382,2,0,B|324:276|324:276|336:248|336:248|336:188,1,120,8|8,0:0|0:0,0:0:0:0:
344,160,58085,2,0,L|284:148,1,60,0|8,0:0|0:0,0:0:0:0:
216,84,58788,5,8,0:0:0:0:
184,120,59023,2,0,B|172:172|208:188|180:260,1,120
168,284,59726,1,8,0:0:0:0:
80,324,60195,5,12,0:0:0:0:
28,244,60663,1,8,0:0:0:0:
60,152,61132,2,8,L|80:20,1,120
124,16,61835,1,0,0:0:0:0:
172,8,62070,5,8,0:0:0:0:
232,84,62538,1,8,0:0:0:0:
328,64,63007,2,8,L|345:182,1,120
364,228,63710,5,0,0:0:0:0:
400,260,63945,2,8,P|404:316|364:368,1,120
276,372,64882,1,8,0:0:0:0:
244,280,65351,1,8,0:0:0:0:
256,184,65820,6,8,B|240:152|276:100|252:48,2,120,8|8|8,0:0|0:0|0:0,0:0:0:0:
244,280,67226,1,8,0:0:0:0:
148,280,67695,5,12,0:0:0:0:
72,220,68163,1,8,0:0:0:0:
60,124,68632,2,8,B|108:88|108:88|164:112,1,120
208,132,69335,1,0,0:0:0:0:
252,152,69570,5,8,0:0:0:0:
256,52,70038,1,8,0:0:0:0:
352,44,70507,2,8,B|408:20|408:20|456:56,1,120
488,92,71210,1,0,0:0:0:0:
484,148,71445,5,8,0:0:0:0:
444,236,71913,1,8,0:0:0:0:
356,276,72382,2,8,P|300:292|236:272,1,120
200,252,73085,2,0,L|148:212,1,60,0|8,0:0|0:0,0:0:0:0:
96,140,73788,5,8,0:0:0:0:
136,112,74023,2,0,P|188:88|248:112,1,120
284,136,74726,1,8,0:0:0:0:
356,200,75195,5,8,0:0:0:0:
408,280,75663,1,8,0:0:0:0:
444,192,76132,2,0,P|428:136|384:72,1,120,8|8,0:0|0:0,0:0:0:0:
356,56,76835,1,0,0:0:0:0:
308,40,77070,5,8,0:0:0:0:
260,124,77538,1,8,0:0:0:0:
240,216,78007,2,8,P|187:190|167:135,1,120
152,88,78710,5,0,0:0:0:0:
104,92,78945,2,8,P|56:136|56:200,1,120
96,272,79882,1,8,0:0:0:0:
180,316,80351,1,8,0:0:0:0:
256,252,80820,6,8,L|256:124,2,120,2|0|0,0:0|0:0|0:0,0:0:0:0:
220,340,82226,1,0,0:0:0:0:
124,352,82695,5,2,1:0:0:0:
256,192,83163,12,0,88320,0:0:0:0:
