osu file format v9

[General]
AudioFilename: Kuroki Meisa - Wired Life ~TV size~.mp3
AudioLeadIn: 2000
PreviewTime: 37690
Countdown: 0
SampleSet: Normal
StackLeniency: 0.7
Mode: 0
LetterboxInBreaks: 0

[Editor]
DistanceSpacing: 0.8
BeatDivisor: 4
GridSize: 8

[Metadata]
Title:Wired Life (TV Size)
Artist:Kuroki Meisa
Creator:tutuhaha
Version:Normal
Source:Ao no Exorcist
Tags:zsr123 blue

[Difficulty]
HPDrainRate:3
CircleSize:3
OverallDifficulty:2
ApproachRate:3
SliderMultiplier:1.4
SliderTickRate:1

[Events]
//Background and Video events
Video,0,"Kuroki meisa - wired life (tv size).avi"
0,0,"e69fdbf1a8cbb5a57b31aa52.jpg"
//Break Periods
//Storyboard Layer 0 (Background)
//Storyboard Layer 1 (Fail)
//Storyboard Layer 2 (Pass)
//Storyboard Layer 3 (Foreground)
//Storyboard Sound Samples
//Background Colour Transformations
3,100,163,162,255

[TimingPoints]
190,468.75,4,2,0,35,1,0
5815,-100,4,2,0,25,0,0
7690,-100,4,1,1,50,0,0
8158,-100,4,2,1,40,0,0
22690,-100,4,2,1,50,0,0
35815,-100,4,1,1,30,0,0
36283,-100,4,1,1,50,0,0
36752,-100,4,1,1,70,0,0
37690,-100,4,1,1,60,0,1
52690,-100,4,1,1,60,0,0
67690,-100,4,1,1,60,0,1
82690,-100,4,2,0,40,0,0
83158,-100,4,2,0,5,0,0
83627,-100,4,2,0,5,0,0
84096,-100,4,2,0,5,0,0
84565,-100,4,2,2,20,0,0

[Colours]
Combo1 : 215,0,215
Combo2 : 0,128,255
Combo3 : 255,255,128
Combo4 : 68,191,187

[HitObjects]
136,88,190,1,2
96,192,658,1,0
160,280,1127,2,0,B|240:304|312:248,1,140
296,208,1830,2,0,B|304:160|344:144,1,70,0|2
424,88,2533,5,0
320,40,3002,2,0,B|240:56|200:120,1,140
232,160,3705,2,0,B|216:208|168:224,1,70,0|2
256,304,4408,5,0
144,312,4877,2,0,B|64:312,2,70,0|0|2
72,224,5815,5,2
256,96,6752,1,0
392,192,7455,6,0,B|488:192,1,70,0|0
400,288,8158,1,8
288,272,8627,2,0,B|280:192|208:152,1,140,0|8
144,72,9565,2,0,B|136:112|96:136,2,70,0|0|8
256,48,10502,1,0
256,48,10971,1,8
368,56,11440,6,0,B|432:80|464:168,1,140,0|8
416,256,12377,2,0,B|384:232|336:232,2,70,0|0|8
328,320,13315,2,0,B|256:344|184:320,2,140,0|8|0
256,232,14721,1,12
152,192,15190,6,0,B|184:128|256:104,1,140,0|8
352,48,16127,1,0
424,128,16596,1,8
328,184,17065,2,0,B|336:264|400:304,2,140,0|8|0
256,104,18471,1,12
144,80,18940,6,0,B|64:96|32:176,1,140,0|8
64,216,19643,2,0,B|96:240|96:296,1,70
200,232,20346,1,8
184,120,20815,2,0,B|256:88|336:128,3,140,0|8|0|8
408,192,22690,5,4
408,192,23158,1,8
312,256,23627,1,0
200,256,24096,1,8
112,192,24565,2,0,B|168:144|176:64,1,140,0|8
288,64,25502,2,0,B|328:72|352:112,2,70,0|0|8
256,168,26440,5,4
256,168,26908,1,8
368,192,27377,1,0
328,296,27846,1,8
216,280,28315,2,0,B|176:224|80:216,1,140,0|8
96,104,29252,2,0,B|120:72|160:64,2,70,0|0|8
192,160,30190,6,0,B|280:160|328:80,1,140,4|8
424,80,31127,2,0,B|456:104|464:160,2,70,0|0|8
376,184,32065,1,0
424,288,32533,1,8
312,272,33002,2,0,B|272:272|240:240,2,70,0|0|8
376,184,33940,5,4
336,80,34408,1,8
264,168,34877,2,0,B|224:112|144:104,2,140,0|8|0
168,232,36283,1,8
72,296,36752,2,0,B|128:352|208:344,1,140,0|8
232,296,37455,6,0,B|264:272|320:272,1,70,0|4
368,192,38158,1,8
336,88,38627,2,0,B|312:56|264:56,2,70,0|0|8
256,168,39565,1,4
144,160,40033,2,0,B|144:200|168:232,2,70,8|0|0
56,88,40971,1,8
48,200,41440,6,0,B|72:280|160:320,1,140,4|8
224,240,42377,2,0,B|264:184|352:176,1,140,0|8
400,192,43080,2,0,B|440:184|456:144,1,70,0|4
368,80,43783,1,8
256,104,44252,1,0
168,176,44721,2,0,B|136:144|136:104,2,70,8|0|4
256,240,45658,5,8
360,280,46127,2,0,B|432:264|472:176,1,140,0|8
432,144,46830,2,0,B|416:104|376:88,1,70,0|4
336,192,47533,1,8
280,96,48002,2,0,B|248:120|240:152,2,70,0|0|8
176,48,48940,6,0,B|120:96|112:176,1,140,4|8
80,216,49643,2,0,B|104:288|176:328,1,140,0|8
272,280,50580,2,0,B|312:256|320:208,1,70,0|4
224,192,51283,1,8
168,96,51752,2,0,B|128:120|120:168,2,70,0|0|8
224,192,52690,5,4
296,272,53158,2,0,B|376:264|416:200,2,140,8|0|8
240,288,54330,6,0,B|208:256|160:248,1,70,0|4
88,192,55033,1,8
104,80,55502,2,0,B|176:56|240:104,1,140,0|8
290,116,56205,6,0,B|328:101|348:65,1,70,0|4
440,136,56908,1,8
360,216,57377,1,0
464,256,57846,2,0,B|448:296|408:304,2,70,8|0|4
360,216,58783,5,8
304,224,59018,2,0,B|232:232|168:296,1,140,0|0
136,320,59721,1,8
24,296,60190,1,4
56,192,60658,1,8
96,88,61127,2,0,B|168:96|240:56,1,140,0|8
288,64,61830,6,0,B|336:72|360:112,1,70,0|4
408,192,62533,1,8
348,287,63002,2,0,B|336:312|288:320,2,70,0|0|8
248,240,63940,6,0,B|176:216|104:248,1,140,4|8
48,152,64877,1,0
48,152,65346,1,8
120,64,65815,6,0,B|176:112|264:112,1,140,4|8
360,96,66752,1,0
464,136,67221,2,0,B|424:144|408:176,1,70,8|0
400,232,67690,6,0,B|360:288|280:296,2,140,4|8|0
384,120,69096,1,8
296,192,69565,5,4
200,136,70033,2,0,B|168:104|120:112,1,70,8|0
96,152,70502,2,0,B|88:232|24:280,2,140,0|8|4
112,40,71908,5,8
224,48,72377,2,0,B|304:56|344:128,1,140,0|8
352,176,73080,2,0,B|376:208|424:208,1,70,0|4
360,304,73783,5,8
256,256,74252,1,0
152,304,74721,2,0,B|112:304|80:272,1,70,8|0
104,224,75190,6,0,B|136:152|104:80,1,140,4|8
208,40,76127,1,0
232,152,76596,2,0,B|272:144|296:104,1,70,8|0
320,64,77065,6,0,B|400:64|456:128,2,140,4|8|0
352,168,78471,1,8
320,272,78940,6,0,B|256:288|176:272,1,140,4|8
160,216,79643,2,0,B|136:184|96:176,1,70
48,80,80346,1,8
160,56,80815,6,0,B|240:56|296:128,1,140,4|8
304,168,81518,2,0,B|336:192|392:184,1,70
432,280,82221,2,0,B|408:304|360:312,2,70,8|0|4
256,192,83158,12,4,84565
