osu file format v9

[General]
AudioFilename: Wired Life.mp3
AudioLeadIn: 1000
PreviewTime: 37437
Countdown: 0
SampleSet: Soft
StackLeniency: 0.2
Mode: 0
LetterboxInBreaks: 0

[Editor]
Bookmarks: 83114
DistanceSpacing: 0.62
BeatDivisor: 4
GridSize: 4

[Metadata]
Title:Wired Life (TV Size)
Artist:Kuroki Meisa
Creator:Shourinkai
Version:Wired
Source:Ao no Exorcist
Tags:blue exorcist backfire

[Difficulty]
HPDrainRate:7
CircleSize:4
OverallDifficulty:8
ApproachRate:8
SliderMultiplier:2.6
SliderTickRate:2

[Events]
//Background and Video events
Video,-50,"Wired_life_vid.avi"
0,0,"bg-image.jpg"
//Break Periods
//Storyboard Layer 0 (Background)
//Storyboard Layer 1 (Fail)
//Storyboard Layer 2 (Pass)
//Storyboard Layer 3 (Foreground)
//Storyboard Sound Samples
//Background Colour Transformations
3,100,163,162,255

[TimingPoints]
172,468.748461538462,4,2,1,100,1,0
13785,-100,4,2,1,100,0,0
14264,-100,4,2,1,100,0,0
16129,-100,4,2,0,100,0,0
16462,-100,4,2,1,100,0,0
18942,-100,4,2,0,100,0,0
19527,-100,4,2,1,100,0,0
19996,-100,4,2,1,100,0,0
20710,-100,4,2,1,100,0,0
30543,-100,4,2,0,100,0,0
37437,-100,4,2,0,100,0,1
52671,-100,4,2,0,100,0,0
65796,-100,4,2,0,100,0,1
80327,-100,4,2,0,100,0,0
83140,-100,4,2,0,30,0,0
84039,-100,4,2,0,5,0,0

[Colours]
Combo1 : 0,128,0
Combo2 : 0,230,255
Combo3 : 128,0,0
Combo4 : 128,0,128

[HitObjects]
256,128,5093,2,0,B|256:264,1,130
48,192,7671,5,0
128,192,7906,1,0
208,192,8140,1,8
128,192,8375,1,0
208,192,8609,1,0
288,192,8843,1,0
208,192,9078,1,8
288,192,9312,1,0
368,192,9546,1,0
368,112,9781,5,0
368,32,10015,1,0
444,64,10250,1,0
444,144,10484,1,0
444,224,10718,1,0
444,224,10836,1,0
444,224,10953,1,8
412,296,11187,1,0
332,292,11421,1,0
256,288,11656,5,0
172,228,11890,1,0
256,168,12125,1,0
340,228,12359,1,0
256,168,12593,1,0
180,96,12828,1,8
256,24,13062,1,0
256,24,13179,1,0
256,24,13296,1,0
344,0,13531,5,0
172,56,13765,2,0,B|76:120|76:200|172:280,1,260
304,356,14468,1,0
228,320,14703,1,8
228,320,14820,1,0
348,274,15171,6,0,B|448:176,1,130
448,92,15640,2,0,B|355:1,1,130
268,24,16109,2,0,B|412:127|268:231,1,260,0|8
208,296,16812,5,0
136,248,17046,1,0
56,288,17281,1,0
32,208,17515,2,0,B|42:77|232:79,1,260
304,80,18218,1,0
304,160,18453,1,8
256,144,18570,1,0
208,136,18687,1,0
156,136,18804,1,0
112,144,18921,6,0,B|336:320,1,260
160,312,19625,1,0
254,188,19859,1,0
348,49,20093,2,0,B|432:124|356:237|254:188,1,260
168,112,20796,1,0
280,96,21031,1,0
344,168,21265,1,0
232,184,21500,1,0
256,192,21734,12,0,23140
178,129,23609,1,8
136,160,23726,1,0
93,192,23843,1,8
136,222,23960,1,8
178,255,24078,1,8
256,188,24312,1,2
347,118,24546,5,8
395,155,24663,1,0
445,192,24780,1,8
395,227,24897,1,8
347,265,25015,1,8
256,188,25249,1,2
256,52,25484,5,8
256,120,25601,1,0
256,188,25718,1,8
256,256,25835,1,8
256,324,25953,1,8
348,252,26187,1,2
220,288,26421,1,0
220,288,26539,1,0
124,220,26773,5,0
124,220,26890,1,0
180,164,27125,1,0
240,112,27359,1,8
240,112,27476,1,0
320,112,27710,1,8
320,112,27828,1,0
400,112,28062,1,2
480,112,28296,5,8
480,112,28414,1,8
480,192,28648,1,8
480,192,28765,1,8
400,192,29000,1,2
320,192,29234,5,8
303,193,29351,1,8
288,192,29468,1,8
271,192,29585,1,8
256,192,29703,1,8
176,192,29937,1,2
136,192,30054,1,0
96,192,30171,6,0,B|96:64,1,130,2|0
124,28,30523,2,0,B|332:28,1,195,2|2
336,72,30992,1,2
296,96,31109,1,0
252,100,31226,1,0
208,100,31343,2,0,B|160:144,4,65,2|2|2|2|2
160,144,31929,6,0,B|320:288,1,195,2|2
416,280,32515,1,2
432,176,32750,1,2
432,176,32867,2,0,B|264:26,1,195,2|2
182,46,33453,1,2
87,88,33687,1,0
96,192,33921,5,2
142,305,34156,1,0
256,352,34390,1,2
369,305,34625,1,0
401,252,34742,1,0
416,192,34859,1,2
400,132,34976,1,0
369,78,35093,1,0
256,32,35328,1,2
256,192,35562,5,2
142,78,35796,1,0
256,192,36031,1,2
369,78,36265,1,0
256,192,36500,1,2
142,305,36734,1,0
256,192,36968,1,2
369,305,37203,1,2
256,192,37437,6,0,B|100:240|24:92|176:68,1,260,4|2
256,64,38140,1,2
368,128,38374,1,0
256,192,38609,1,0
144,260,38843,1,0
44,320,39078,5,0
68,204,39312,1,2
148,120,39546,1,0
256,76,39781,1,2
364,120,40015,1,0
444,204,40249,1,2
468,320,40483,1,0
352,260,40718,1,0
256,352,40953,6,0,B|244:196,3,130,0|0|0|2
236,92,41890,1,0
276,182,42124,2,0,B|323:283|456:270|484:198,1,260,2|0
376,112,42828,1,0
256,44,43062,1,0
136,112,43296,1,0
137,251,43531,1,0
256,320,43765,2,0,B|256:192|256:192|137:251,1,260,2|2
24,316,44468,5,0
92,192,44703,1,0
200,100,44937,1,4
332,48,45171,1,0
476,52,45406,2,0,B|476:100|476:100|456:132|456:132|456:176,2,130,0|0|0
332,48,46109,6,0,B|176:48|190:219,1,260,2|2
103,286,46812,2,0,B|43:313|-8:372,2,130,0|2|0
190,219,47515,2,0,B|343:220|336:48,1,260,2|4
444,48,48218,1,0
236,48,48453,5,0
132,48,48687,1,0
28,48,48921,2,0,B|28:96|28:96|48:128|48:128|48:180,1,130,0|2
144,176,49390,5,4
144,176,49507,1,2
224,240,49742,1,2
224,240,49859,1,4
312,164,50093,1,4
312,164,50210,1,0
372,292,50445,1,2
372,292,50562,1,4
440,168,50796,6,2,B|440:84|364:84,1,130,2|2
320,84,51148,1,0
272,84,51265,2,2,B|196:84|196:168,1,130,2|2
288,168,51734,1,0
324,252,51968,2,2,B|244:252|244:252|196:220|196:220|180:284|180:284|164:252|164:252|132:252|132:252,1,260,6|0
64,128,52671,5,2
136,72,52906,1,0
176,56,53023,1,0
224,48,53140,1,2
316,48,53374,1,0
360,60,53492,1,0
404,76,53609,1,4
480,128,53843,1,0
416,192,54078,5,2
372,192,54195,1,0
328,192,54312,1,2
284,192,54429,1,0
240,192,54546,1,0
96,192,54781,1,2
136,160,54898,1,0
180,128,55015,1,2
268,48,55249,1,0
96,192,55484,5,4
160,272,55718,1,0
256,304,55953,1,2
304,304,56070,1,0
352,304,56187,1,2
400,304,56304,1,0
448,304,56421,1,0
352,304,56656,1,2
252,304,56890,1,0
152,304,57124,1,0
100,304,57242,1,0
52,304,57359,1,4
160,96,57828,5,2
348,276,58062,1,2
252,188,58296,1,2
317,7,58765,6,2,B|432:-3|436:124|370:180|344:94|243:112|286:135|225:248,1,390,2|2
195,340,59703,1,4
25,171,60171,5,0
118,32,60406,1,2
212,168,60640,1,0
118,148,60874,1,0
252,48,61109,1,4
293,211,61343,1,0
212,168,61578,1,0
367,120,61812,5,2
360,168,61929,1,2
356,212,62046,1,2
260,248,62281,1,0
208,257,62398,1,0
156,264,62515,1,0
196,168,62749,1,0
137,177,62867,1,0
80,184,62984,1,4
148,88,63218,1,0
20,112,63453,1,0
100,8,63687,1,0
228,0,63921,22,0,B|258:129|386:17|424:152,1,260,2|2
368,240,64624,1,0
288,320,64859,1,0
176,304,65093,1,2
128,192,65328,1,4
467,54,65796,5,2
256,120,66031,1,2
48,192,66265,1,2
256,272,66499,1,2
467,344,66734,2,0,B|299:224|299:224,1,195,2|2
308,230,67203,1,4
184,152,67437,1,2
64,64,67671,5,0
112,124,67906,1,2
168,180,68140,1,0
228,128,68374,1,2
276,68,68609,1,4
336,120,68843,1,2
364,192,69078,1,2
316,184,69195,1,2
266,176,69312,1,2
226,137,69429,1,0
200,101,69546,1,0
268,60,69781,5,2
332,16,70015,1,2
392,64,70249,1,2
444,120,70484,1,4
444,196,70718,1,0
368,208,70953,1,2
320,176,71070,1,2
272,208,71187,1,2
224,240,71304,1,2
176,208,71421,1,2
204,128,71656,5,2
319,243,71890,1,0
435,128,72124,1,0
319,243,72359,1,4
204,128,72593,1,0
319,12,72828,1,2
319,243,73062,1,2
319,128,73296,1,4
32,288,73765,6,2,B|-77:252|-31:133|50:108|41:197|141:220|110:182|210:102,1,390,2|2
274,29,74703,1,4
448,304,75171,5,2
416,272,75288,1,2
384,304,75406,1,2
352,272,75523,1,2
320,304,75640,1,2
188,304,75874,1,0
188,172,76109,1,2
320,176,76343,1,2
368,172,76460,1,2
416,168,76577,1,4
388,36,76812,1,0
255,35,77046,21,2
224,68,77163,1,2
191,35,77281,1,2
158,68,77398,1,2
127,36,77515,1,2
20,112,77749,1,0
144,152,77984,1,2
260,216,78218,1,2
299,245,78335,1,2
331,277,78452,1,4
156,316,78687,5,2
64,224,78921,2,2,B|114:281|176:336,1,130,2|2
64,316,79390,2,2,B|139:287|166:194,1,130,2|4
153,227,79859,2,4,B|219:109|346:60,1,260,0|4
48,48,80796,21,0
48,48,81031,1,2
432,48,81265,1,0
432,48,81499,1,2
432,320,81734,1,2
432,320,81968,1,2
48,320,82202,1,2
48,320,82437,1,2
483,196,83140,38,0,B|371:308|260:195|260:195|147:84|19:212,1,520
