osu file format v9

[General]
AudioFilename: Wired Life.mp3
AudioLeadIn: 1000
PreviewTime: 37437
Countdown: 0
SampleSet: Soft
StackLeniency: 0.2
Mode: 0
LetterboxInBreaks: 0

[Editor]
Bookmarks: 5067,80770,83114
DistanceSpacing: 1.28
BeatDivisor: 4
GridSize: 4

[Metadata]
Title:Wired Life (TV Size)
Artist:Kuroki Meisa
Creator:Shourinkai
Version:Struggle
Source:Ao No Exorcist
Tags:blue exorcist backfire

[Difficulty]
HPDrainRate:6
CircleSize:4
OverallDifficulty:6
ApproachRate:7
SliderMultiplier:1.6
SliderTickRate:2

[Events]
//Background and Video events
Video,-50,"Wired_life_vid.avi"
0,0,"bg-image.jpg"
//Break Periods
//Storyboard Layer 0 (Background)
//Storyboard Layer 1 (Fail)
//Storyboard Layer 2 (Pass)
//Storyboard Layer 3 (Foreground)
//Storyboard Sound Samples
//Background Colour Transformations
3,100,163,162,255

[TimingPoints]
172,468.748461538462,4,2,0,30,1,0
5536,-100,4,2,2,100,0,0
9905,-100,4,2,1,100,0,0
23466,-100,4,2,1,100,0,0
29794,-100,4,2,0,100,0,0
37437,-100,4,2,0,100,0,1
52671,-100,4,2,1,100,0,0
58648,-100,4,2,2,100,0,0
59585,-100,4,2,1,100,0,0
59957,-100,4,2,0,100,0,0
60171,-100,4,2,2,100,0,0
65699,-100,4,2,2,100,0,0
65796,-100,4,2,2,100,0,1
67554,-100,4,2,1,100,0,1
73648,-100,4,2,2,100,0,1
74585,-100,4,2,1,100,0,1
78804,-100,4,2,2,100,0,1
79507,-100,4,2,1,100,0,1
79742,-100,4,2,2,100,0,1
79976,-100,4,2,1,100,0,1
80327,-100,4,2,1,100,0,0
83140,-100,4,2,0,30,0,0
84019,-100,4,2,0,5,0,0

[Colours]
Combo1 : 0,128,0
Combo2 : 0,230,255
Combo3 : 128,0,0
Combo4 : 128,0,128

[HitObjects]
256,152,5093,2,0,B|256:236,1,80
272,64,7671,5,0
352,64,7906,1,0
352,144,8140,2,0,B|144:144,1,160,8|0
112,144,8843,1,0
112,224,9078,1,8
272,224,9312,1,0
192,224,9546,1,0
352,224,9781,1,0
432,224,10015,6,0,B|505:154|501:32,2,160,8|0|8
384,288,11187,1,0
304,304,11421,1,0
224,304,11656,1,0
160,256,11890,1,0
144,176,12125,1,0
288,80,12359,5,0
352,128,12593,1,0
368,208,12828,1,8
256,192,13062,5,0
192,128,13296,1,0
320,256,13531,1,0
200,248,13765,6,0,B|328:120,1,160,8|0
313,134,14468,1,8
313,134,14703,1,8
128,96,15171,6,0,B|64:48,2,80
192,144,15875,1,0
256,192,16109,1,0
328,76,16578,5,8
392,124,16812,1,0
432,192,17046,1,0
392,260,17281,1,0
352,192,17515,2,0,B|176:192,1,160,8|0
236,268,18218,1,8
152,292,18453,1,8
44,136,18921,5,0
224,148,19390,1,0
288,244,19625,1,0
200,196,19859,1,0
312,196,20094,1,0
224,244,20328,1,8
288,148,20562,5,0
224,244,20796,1,0
312,196,21030,1,0
200,196,21265,1,8
288,244,21499,1,8
224,148,21734,1,0
336,256,21968,5,2
336,256,22085,1,2
400,192,22320,1,2
400,192,22437,1,2
460,128,22671,1,0
436,28,22906,5,4
376,80,23140,1,0
316,136,23375,1,0
256,192,23609,5,8
248,272,23843,1,8
212,256,23960,1,8
176,240,24078,1,8
104,204,24312,1,0
176,168,24546,5,8
256,192,24781,1,8
292,208,24899,1,8
328,224,25016,1,8
404,248,25250,1,8
376,144,25484,5,8
256,192,25718,1,8
136,240,25953,1,8
288,240,27359,6,8,B|336:308,2,80,8|8|8
256,192,28062,1,8
223,144,28296,2,8,B|224:144|176:76,2,80,8|8|8
256,192,29000,1,8
295,126,29234,2,8,B|288:200|220:184|212:264,1,160
212,328,29937,5,0
212,328,30054,1,0
212,328,30171,2,0,B|288:340,2,40
140,316,30640,1,0
68,304,30875,1,0
68,304,30992,1,0
68,304,31109,1,0
64,232,31343,1,0
60,160,31578,5,0
60,160,31695,1,0
60,160,31812,2,0,B|140:160,1,80
212,160,32281,1,0
284,160,32515,2,0,B|284:112,3,40
384,160,33218,1,0
348,160,33335,1,0
312,160,33453,1,0
368,320,33921,5,0
288,320,34156,1,0
208,320,34390,1,0
160,256,34625,1,0
160,256,34742,1,0
80,256,34976,1,0
80,256,35093,1,0
80,176,35328,1,0
80,176,35445,1,0
80,176,35562,5,2
164,120,35796,1,0
256,76,36031,1,2
348,120,36265,1,0
432,176,36499,1,2
348,232,36734,6,0,B|268:256,1,80,0|2
172,280,37203,1,2
259,332,37437,2,0,B|323:268|195:252|259:188,1,160,4|2
332,124,38140,1,2
256,192,38374,1,0
180,120,38609,2,0,B|116:192|180:264,1,160,2|0
256,192,39312,5,2
300,124,39546,1,0
340,192,39781,1,2
304,264,40015,2,0,B|224:324|160:248,1,160,0|4
236,212,40718,1,0
336,192,40953,6,0,B|400:192|416:144,2,80
256,112,41656,2,0,B|256:64|304:48,2,80,0|2|0
176,192,42359,2,0,B|112:192|96:240,2,80,0|2|0
256,272,43062,2,0,B|256:336|208:352,2,80,2|2|2
210,176,43765,2,0,B|234:220|274:232|314:220|334:176,1,160,2|0
272,128,44468,1,0
212,72,44703,1,0
132,68,44937,1,4
87,136,45171,5,0
177,124,45406,1,0
143,203,45640,1,2
143,203,45874,1,2
110,281,46109,1,0
200,270,46343,1,0
276,244,46578,5,2
280,164,46812,1,0
200,168,47046,1,0
224,92,47281,1,0
144,96,47515,6,0,B|257:212,1,160,2|4
332,232,48218,1,0
400,192,48453,1,2
408,112,48687,1,0
480,152,48921,1,2
472,232,49156,1,0
400,192,49390,2,0,B|336:144|336:144|248:276,1,240,2|4
112,192,50562,5,0
104,272,50796,1,2
32,232,51031,1,0
40,152,51265,1,2
112,192,51499,2,0,B|176:240|176:240|228:168,1,160,2|4
264,108,52203,1,4
157,93,52671,5,2
353,289,53140,1,2
353,93,53609,1,2
157,289,54078,1,10
101,289,54312,1,10
157,345,54546,1,10
157,93,55015,5,2
353,289,55484,1,2
353,93,55953,1,10
409,93,56187,1,10
353,37,56421,1,10
396,331,56890,5,2
116,331,57359,1,2
256,192,57828,1,2
256,304,58062,1,4
256,304,58179,1,2
256,304,58296,1,2
224,104,58765,6,0,B|256:59|302:70|347:115|313:171|224:159|257:171|257:260,1,240,2|2
256,304,59703,1,4
368,144,60171,6,2,B|304:208,1,80,2|0
256,144,60640,2,2,B|320:208,1,80,2|0
256,144,61109,2,2,B|192:208,1,80,2|2
144,144,61578,2,2,B|208:208,1,80,2|10
256,144,62046,5,10
328,196,62281,1,2
304,280,62515,1,2
220,300,62749,1,2
144,256,62984,2,0,B|107:229|96:177|138:146|184:151,1,160,8|2
216,68,63687,1,8
272,136,63921,6,0,B|298:99|350:88|381:130|376:176,1,160,8|2
348,260,64624,1,0
292,328,64859,1,2
204,328,65093,1,0
136,272,65328,1,2
136,184,65562,1,2
160,96,65796,6,0,B|227:163,1,80,2|8
296,232,66265,2,0,B|363:299,1,80,2|8
311,136,66734,2,0,B|177:270,1,160,2|8
256,259,67437,1,8
256,192,67671,5,4
192,264,68140,1,2
256,111,68609,1,2
320,264,69078,1,2
240,216,69312,1,8
168,168,69546,5,10
344,168,70015,1,2
192,264,70484,1,2
256,112,70953,1,2
288,192,71187,1,8
320,264,71421,5,10
184,152,71890,1,2
328,152,72359,1,2
256,192,72828,1,2
256,192,73062,1,4
383,192,73765,6,0,B|396:245|358:273|295:278|274:217|340:155|310:174|242:116,1,240,2|2
203,94,74703,1,4
128,168,75171,6,0,B|192:172|192:172|198:203,1,80,8|0
192,268,75640,2,0,B|188:283|188:283|124:287,2,80,8|2|8
268,252,76343,1,2
345,236,76577,6,4,B|368:200|368:200|345:169,1,80,2|8
272,128,77046,1,8
272,128,77281,1,2
192,96,77515,1,2
192,96,77749,1,8
104,88,77984,1,8
100,236,78452,6,0,B|200:236,1,80,8|8
256,236,78921,2,0,B|356:236|356:136|278:136,1,160,0|2
305,141,79507,1,2
303,140,79624,2,0,B|136:116,1,160,4|0
145,117,80210,1,2
145,117,80327,1,4
288,136,80796,37,2
144,192,81031,21,8
222,169,81265,1,2
289,292,81499,5,8
222,247,81734,1,4
367,192,81968,21,8
289,214,82202,1,4
224,92,82437,5,2
147,228,83140,22,0,B|235:260|235:260|256:191|256:191|326:184|326:184|314:88|314:88,1,320
